VERSION	0.00.00	1.04.00
FES_MODE	0
BPM_DEF	204.000	204.000	204.000	204.000
MET_DEF	4	4
RESOLUTION	384
CLK_DEF	384
COMPATIBLE_CODE	MA2

BPM	0	0	204.000
MET	0	0	4	4

NMSTR	2	0	7
NMSI_	2	0	7	96	192	4
NMSTR	3	0	0
NMSI_	3	0	0	96	192	3
NMSTR	4	0	4
NMSI_	4	0	4	96	192	7
NMSTR	5	0	3
NMSI_	5	0	3	96	192	0
NMTAP	6	0	5
NMTAP	6	96	5
NMTAP	6	192	4
NMTAP	6	192	6
NMTAP	6	288	4
NMTAP	6	288	6
NMTAP	7	0	2
NMTAP	7	96	2
NMTAP	7	192	1
NMTAP	7	192	3
NMTAP	7	288	1
NMTAP	7	288	3
NMTAP	8	0	0
NMTAP	8	48	0
NMTAP	8	96	6
NMTAP	8	144	6
NMTAP	8	192	1
NMTAP	8	240	1
NMTAP	8	288	7
NMTAP	8	336	7
NMHLD	9	0	0	288
BRTAP	9	288	7
NMTAP	10	0	0
NMTAP	10	0	6
NMTAP	10	96	3
NMTAP	10	192	1
NMTAP	10	192	7
NMTAP	10	288	4
NMTAP	11	0	0
NMTAP	11	0	6
NMTAP	11	96	3
NMTAP	11	192	1
NMTAP	11	192	7
NMTAP	11	288	4
NMTAP	12	0	6
NMTAP	12	0	7
NMTAP	12	96	3
NMTAP	12	192	0
NMTAP	12	192	1
NMTAP	12	288	4
NMTAP	13	0	6
NMTAP	13	0	7
NMTAP	13	96	3
NMTAP	13	192	0
NMTAP	13	192	1
NMTAP	13	288	4
NMTAP	14	0	0
NMTAP	14	0	6
NMTAP	14	96	3
NMTAP	14	192	1
NMTAP	14	192	7
NMTAP	14	288	4
NMTAP	15	0	3
NMTAP	15	0	5
NMTAP	15	48	3
NMTAP	15	48	5
NMTAP	15	144	2
NMTAP	15	144	4
NMHLD	15	240	1	144
NMHLD	15	240	5	144
BXTAP	16	96	0
BXTAP	16	96	7
NMHLD	16	192	6	384
NMTAP	16	288	4
NMTAP	17	0	4
NMTAP	17	96	4
NMTAP	17	192	4
NMTAP	17	288	3
NMTAP	17	288	5
NMTAP	18	0	2
NMTAP	18	0	4
NMHLD	18	96	1	288
NMTAP	18	192	3
NMTAP	18	288	3
NMTAP	19	0	3
NMTAP	19	96	2
NMTAP	19	96	4
NMTAP	19	192	1
NMTAP	19	192	5
NMTAP	19	240	1
NMTAP	19	240	5
NMTAP	19	336	2
NMTAP	19	336	6
NMTAP	20	0	2
NMTAP	20	0	6
EXSTR	20	96	1
NMSI_	20	96	1	96	48	5
EXSTR	20	288	6
NMSI_	20	288	6	96	48	2
NMTAP	21	96	0
NMTAP	21	192	1
NMTAP	21	192	3
NMTAP	21	240	1
NMTAP	21	240	3
NMTAP	21	336	3
NMTAP	21	336	4
NMTAP	22	0	3
NMTAP	22	0	4
NMTAP	22	96	4
NMTAP	22	96	6
NMSTR	22	192	0
NMSI_	22	192	0	96	48	4
NMSTR	22	192	7
NMSI_	22	192	7	96	48	3
NMHLD	23	0	2	192
NMHLD	23	0	5	192
NMTAP	23	288	3
NMTAP	23	288	4
NMTAP	24	0	7
NMTAP	24	96	4
NMTAP	24	96	6
NMTAP	24	192	0
NMTAP	24	288	1
NMTAP	24	288	3
NMTAP	25	0	7
NMTAP	25	96	4
NMTAP	25	96	5
NMTAP	25	192	0
NMTAP	25	288	2
NMTAP	25	288	3
NMTAP	26	0	5
NMTAP	26	96	6
NMTAP	26	96	7
NMTAP	26	192	2
NMTAP	26	288	0
NMTAP	26	288	1
NMTAP	27	0	5
NMTAP	27	96	0
NMTAP	27	96	6
NMTAP	27	192	2
NMTAP	27	288	1
NMTAP	27	288	7
NMTAP	27	336	1
NMTAP	27	336	7
NMTAP	28	48	0
NMTAP	28	48	6
NMTAP	28	96	0
NMTAP	28	96	6
NMTAP	28	192	2
NMTAP	28	192	4
NMTAP	28	288	3
NMTAP	28	288	5
NMHLD	29	0	6	96
NMHLD	29	96	4	96
NMHLD	29	192	3	96
NMSTR	29	288	1
BRSI_	29	288	1	96	48	5
EXSTR	30	288	7
NMSSR	30	288	7	96	192	3
EXHLD	31	336	2	96
EXHLD	31	336	3	96
NMTAP	32	96	1
NMTAP	32	96	4
NMTAP	32	192	3
NMTAP	32	192	6
NMTAP	32	288	2
NMTAP	32	288	4
NMTAP	33	0	3
NMTAP	33	0	5
NMTAP	33	96	1
NMTAP	33	96	4
NMTAP	33	192	3
NMTAP	33	192	6
NMTAP	33	240	3
NMTAP	33	240	6
EXHLD	33	336	6	96
EXHLD	33	336	7	96
NMTAP	34	96	0
NMTAP	34	96	5
NMTAP	34	192	2
NMTAP	34	192	7
NMTAP	34	288	0
NMTAP	34	288	6
NMTAP	35	0	1
NMTAP	35	0	7
NMTAP	35	96	0
NMTAP	35	96	5
NMTAP	35	192	1
NMTAP	35	192	7
NMTAP	35	240	1
NMTAP	35	240	7
BRTAP	35	336	2
BRTAP	35	336	6
NMTTP	36	96	3	E	0	M1
NMTTP	36	192	2	E	0	M1
NMTTP	36	288	1	E	0	M1
NMTTP	37	0	0	E	0	M1
NMTTP	37	96	7	E	0	M1
NMTTP	37	192	6	E	0	M1
NMTTP	37	288	4	B	0	M1
NMTTP	37	288	4	E	0	M1
NMTTP	37	288	5	E	0	M1
NMTTP	38	96	6	E	0	M1
NMTTP	38	192	7	E	0	M1
NMTTP	38	288	0	E	0	M1
NMTTP	39	0	1	E	0	M1
NMTTP	39	96	2	E	0	M1
NMTTP	39	192	3	E	0	M1
NMTTP	39	288	4	B	0	M1
NMTTP	39	288	4	E	0	M1
NMTTP	39	288	5	E	0	M1
NMTAP	40	96	3
NMTAP	40	96	5
NMTAP	40	192	2
NMTAP	40	192	4
NMTAP	40	288	3
NMTAP	40	288	6
NMTAP	41	0	1
NMTAP	41	0	4
NMTAP	41	96	3
NMTAP	41	96	5
NMTAP	41	192	2
NMTAP	41	192	4
NMTAP	41	288	3
NMTAP	41	288	6
NMTAP	41	336	3
NMTAP	41	336	6
NMTAP	42	96	1
NMTAP	42	96	7
NMTAP	42	192	0
NMTAP	42	192	6
NMTAP	42	288	2
NMTAP	42	288	7
NMTAP	43	0	0
NMTAP	43	0	5
NMTAP	43	96	1
NMTAP	43	96	7
NMTAP	43	192	0
NMTAP	43	192	6
NMTAP	43	288	2
NMTAP	43	288	4
NMHLD	44	0	3	96
NMHLD	44	96	2	96
NMHLD	44	192	1	96
NMHLD	44	288	0	96
NMHLD	45	0	7	96
NMHLD	45	96	6	96
NMHLD	45	192	5	96
NMTAP	45	288	4
NMTAP	46	0	3
NMTAP	46	0	6
NMTAP	46	96	4
NMTAP	46	96	5
NMTAP	46	192	2
NMTAP	46	240	2
NMTAP	46	288	3
NMTAP	47	0	1
NMTAP	47	0	4
NMTAP	47	96	2
NMTAP	47	96	3
NMTAP	47	192	5
NMTAP	47	240	5
NMTAP	47	288	4
NMSTR	48	0	6
NMSI_	48	0	6	96	48	3
NMSTR	48	192	1
NMSI_	48	192	1	96	48	4
NMTAP	49	0	5
NMTAP	49	48	5
NMTAP	49	96	2
NMTAP	49	144	2
NMTAP	49	192	4
NMTAP	49	240	4
NMSTR	49	288	3
NMSI_	49	288	3	96	48	0
NMSTR	49	288	4
NMSI_	49	288	4	96	48	7
NMTAP	51	288	2
NMTAP	51	288	5
NMSTR	52	0	0
NMSI_	52	0	0	96	48	4
NMSTR	52	0	1
NMSI_	52	0	1	96	48	4
NMSTR	52	192	6
NMSI_	52	192	6	96	48	3
NMSTR	52	192	7
NMSI_	52	192	7	96	48	3
NMTAP	53	0	0
NMTAP	53	0	1
NMTAP	53	96	2
NMTAP	53	144	2
NMTAP	53	192	3
NMTAP	53	288	4
NMTAP	53	288	5
NMSTR	54	0	6
NMSI_	54	0	6	96	48	3
NMSTR	54	0	7
NMSI_	54	0	7	96	48	3
NMSTR	54	192	0
NMSI_	54	192	0	96	48	4
NMSTR	54	192	1
NMSI_	54	192	1	96	48	4
NMTAP	55	0	6
NMTAP	55	0	7
NMTAP	55	96	5
NMTAP	55	144	5
NMTAP	55	192	4
NMTAP	55	288	2
NMTAP	55	288	3
NMTAP	56	0	2
NMTAP	56	0	3
NMTAP	56	96	0
NMTAP	56	96	1
NMTAP	56	192	6
NMTAP	56	192	7
NMTAP	56	288	4
NMTAP	56	288	5
NMTAP	57	0	4
NMTAP	57	0	5
NMTAP	57	96	6
NMTAP	57	96	7
NMTAP	57	192	0
NMTAP	57	192	1
NMTAP	57	288	2
NMTAP	57	336	2
NMTAP	58	0	3
NMTAP	58	96	5
NMTAP	58	144	5
NMTAP	58	192	4
NMTAP	58	288	6
NMTAP	58	288	7
NMHLD	59	0	0	96
NMHLD	59	0	5	96
NMTAP	59	192	4
NMTAP	59	288	3
NMTAP	59	288	5
NMSTR	60	0	6
NMSI_	60	0	6	96	48	3
NMTAP	60	0	7
NMTAP	60	192	0
NMSTR	60	192	1
NMSI_	60	192	1	96	48	4
NMSTR	61	0	6
NMSI_	61	0	6	96	48	3
NMTAP	61	0	7
NMTAP	61	192	1
NMTAP	61	240	1
NMTAP	61	288	0
NMTAP	62	0	0
NMSTR	62	0	1
NMSI_	62	0	1	96	48	4
NMSTR	62	192	6
NMSI_	62	192	6	96	48	3
NMTAP	62	192	7
NMTAP	63	0	0
NMSTR	63	0	1
NMSI_	63	0	1	96	48	4
NMTAP	63	192	6
NMTAP	63	240	6
NMTAP	63	288	7
NMTAP	64	0	6
NMTAP	64	0	7
NMTAP	64	96	1
NMTAP	64	96	3
NMTAP	64	192	0
NMTAP	64	192	1
NMTAP	64	288	4
NMTAP	64	288	6
NMTAP	65	0	6
NMTAP	65	0	7
NMTAP	65	96	1
NMTAP	65	96	4
NMTAP	65	192	0
NMTAP	65	192	1
NMTAP	65	288	3
NMTAP	65	288	6
NMTAP	66	0	6
NMTAP	66	0	7
NMTAP	66	96	1
NMTAP	66	96	3
NMTAP	66	192	0
NMTAP	66	192	1
NMSTR	66	288	4
NMSI_	66	288	4	96	48	0
NMTAP	66	288	6
EXTAP	67	0	5
NMTAP	68	0	1
NMTAP	68	0	7
NMTAP	68	96	4
NMTAP	68	192	0
NMHLD	68	192	6	96
NMHLD	68	288	4	96
NMHLD	69	0	3	96
NMTAP	69	96	1
NMTAP	69	144	1
NMTAP	69	192	0
NMTAP	69	288	6
NMTAP	69	336	6
NMTAP	70	0	7
NMTAP	70	96	4
NMTAP	70	96	5
NMTAP	70	192	3
NMTAP	70	192	6
NMTAP	70	288	2
NMTAP	70	288	7
NMTAP	71	0	2
NMTAP	71	0	7
NMTAP	71	96	1
NMTAP	71	144	1
NMTAP	71	192	3
NMTAP	71	288	0
NMTAP	71	288	5
NMTAP	72	0	0
NMTAP	72	0	5
NMTAP	72	96	6
NMTAP	72	144	6
NMTAP	72	192	4
NMTAP	72	288	2
NMTAP	72	288	7
NMTAP	73	0	2
NMTAP	73	0	7
NMHLD	73	96	1	96
NMHLD	73	192	3	96
NMHLD	73	288	4	96
NMHLD	74	0	6	96
NMTAP	74	96	1
NMTAP	74	144	1
NMTAP	74	192	0
NMTAP	74	288	0
NMTAP	74	288	7
EXTAP	75	0	1
EXTAP	75	0	7
NMTAP	75	72	1
NMTAP	75	72	7
NMTAP	75	144	1
NMTAP	75	144	7
EXTAP	75	192	0
EXTAP	75	192	6
NMTAP	75	264	0
NMTAP	75	264	6
NMTAP	75	336	0
NMTAP	75	336	6
BXSTR	76	0	7
NMSCL	76	0	7	96	192	5
NMSCR	76	0	7	96	192	1
CNSV_	76	288	1	0	288	3
CNSV_	76	288	5	0	288	3

T_REC_TAP	324
T_REC_BRK	3
T_REC_XTP	5
T_REC_BXX	2
T_REC_HLD	26
T_REC_XHO	4
T_REC_BHO	0
T_REC_BXH	0
T_REC_STR	26
T_REC_BST	0
T_REC_XST	3
T_REC_XBS	1
T_REC_TTP	18
T_REC_THO	0
T_REC_SLD	30
T_REC_BSL	1
T_REC_ALL	443
T_NUM_TAP	376
T_NUM_BRK	7
T_NUM_HLD	30
T_NUM_SLD	30
T_NUM_ALL	443
T_JUDGE_TAP	382
T_JUDGE_HLD	80
T_JUDGE_SLD	31
T_JUDGE_ALL	493
TTM_EACHPAIRS	138
TTM_SCR_TAP	188000
TTM_SCR_BRK	18200
TTM_SCR_HLD	30000
TTM_SCR_SLD	45000
TTM_SCR_ALL	281200
TTM_SCR_S	272100
TTM_SCR_SS	280500
TTM_RAT_ACV	10024

