VERSION	0.00.00	1.04.00
FES_MODE	0
BPM_DEF	168.000	168.000	168.000	168.000
MET_DEF	4	4
RESOLUTION	384
CLK_DEF	384
COMPATIBLE_CODE	MA2

BPM	0	0	168.000
MET	0	0	4	4

NMTAP	2	0	4
NMTAP	2	0	6
NMTAP	2	96	3
NMTAP	2	96	5
NMTAP	2	192	2
NMTAP	2	192	4
NMTAP	2	288	1
NMTAP	2	288	3
NMSTR	3	0	0
NMSLR	3	0	0	96	96	4
NMTAP	3	0	4
NMTTP	3	192	6	B	0	M1
NMTTP	3	192	7	B	0	M1
NMTAP	4	0	2
NMSTR	4	0	4
NMSLR	4	0	4	96	96	0
NMTTP	4	192	2	B	0	M1
NMTTP	4	192	3	E	0	M1
NMSTR	5	0	1
NMSLR	5	0	1	96	96	5
NMTAP	5	0	5
NMTTP	5	192	0	E	0	M1
NMTTP	5	192	7	B	0	M1
NMTTP	5	288	0	C	0	M1
NMTAP	6	0	1
NMTAP	6	0	3
NMTAP	6	96	2
NMTAP	6	96	4
NMTAP	6	192	3
NMTAP	6	192	5
NMTAP	6	288	4
NMTAP	6	288	6
NMTAP	7	0	3
NMSTR	7	0	7
NMSLL	7	0	7	96	96	3
NMTTP	7	192	0	B	0	M1
NMTTP	7	192	1	B	0	M1
NMSTR	8	0	3
NMSLL	8	0	3	96	96	7
NMTAP	8	0	5
NMTTP	8	192	4	B	0	M1
NMTTP	8	192	5	E	0	M1
NMTAP	9	0	2
NMSTR	9	0	6
NMSLL	9	0	6	96	96	2
NMTTP	9	192	4	B	0	M1
NMTTP	9	192	5	B	0	M1
NMTTP	9	288	0	C	0	M1
NMTAP	10	0	0
NMTAP	10	0	1
NMTAP	10	96	2
NMTAP	10	96	3
NMTAP	10	192	4
NMTAP	10	192	5
NMTAP	10	288	6
NMTAP	10	288	7
NMTAP	11	0	0
NMSTR	11	0	5
NMSLL	11	0	5	96	192	7
NMTAP	11	96	0
NMTAP	11	192	1
NMTAP	11	288	2
NMSTR	12	0	3
NMSLR	12	0	3	96	192	1
NMTAP	12	0	6
NMTAP	12	96	7
NMTAP	12	192	6
NMTAP	12	288	5
NMTAP	13	0	2
NMSTR	13	0	4
NMSLL	13	0	4	96	192	7
NMTAP	13	96	1
NMTAP	13	192	0
NMTAP	13	288	1
NMTAP	14	0	6
NMTAP	14	0	7
NMTAP	14	96	4
NMTAP	14	96	5
NMTAP	14	192	2
NMTAP	14	192	3
NMTAP	14	288	0
NMTAP	14	288	1
NMSTR	15	0	2
NMSLR	15	0	2	96	192	0
NMTAP	15	0	7
NMTAP	15	96	7
NMTAP	15	192	6
NMTAP	15	288	5
NMTAP	16	0	1
NMSTR	16	0	4
NMSLL	16	0	4	96	192	7
NMTAP	16	96	0
NMTAP	16	192	1
NMTAP	16	288	2
NMTAP	17	0	4
NMTAP	17	0	6
NMTAP	17	96	1
NMTAP	17	96	3
NMTAP	17	192	0
NMTAP	17	192	7
BRTAP	17	240	1
BRTAP	17	240	6
NMTAP	18	0	2
NMTAP	18	24	3
NMTAP	18	48	2
NMTAP	18	72	3
NMTAP	18	96	2
NMTAP	18	192	5
NMTAP	18	240	0
NMTAP	18	288	6
NMTAP	18	336	3
NMTAP	19	0	5
NMTAP	19	24	4
NMTAP	19	48	5
NMTAP	19	72	4
NMTAP	19	96	5
NMTAP	19	192	2
NMTAP	19	240	7
NMTAP	19	288	1
NMTAP	19	336	4
NMTAP	20	0	2
NMTAP	20	24	3
NMTAP	20	48	2
NMTAP	20	72	3
NMTAP	20	96	2
NMTAP	20	192	5
NMTAP	20	240	0
NMTAP	20	288	6
NMTAP	20	336	3
NMTAP	21	0	5
NMTAP	21	24	4
NMTAP	21	48	5
NMTAP	21	72	4
NMTAP	21	144	2
NMTAP	21	168	3
NMSTR	21	192	2
NMSCR	21	192	2	96	48	5
NMTAP	21	216	3
NMTAP	22	0	6
NMTAP	22	24	4
NMTAP	22	48	5
NMHLD	22	72	4	72
NMTAP	22	144	5
NMTAP	22	192	2
NMTAP	22	240	7
NMTAP	22	288	1
NMTAP	22	336	4
NMTAP	23	0	2
NMTAP	23	24	3
NMTAP	23	48	2
NMHLD	23	72	3	72
NMTAP	23	144	2
NMTAP	23	192	5
NMTAP	23	240	0
NMTAP	23	288	6
NMTAP	23	336	3
NMTAP	24	0	5
NMTAP	24	24	4
NMTAP	24	48	5
NMHLD	24	72	4	72
NMTAP	24	144	5
NMTAP	24	192	2
NMTAP	24	240	7
NMTAP	24	288	1
NMTAP	24	336	4
NMTAP	25	0	2
NMTAP	25	24	3
NMTAP	25	48	2
NMTAP	25	72	3
NMTAP	25	96	1
NMTAP	25	120	4
NMTAP	25	144	1
NMTAP	25	192	0
NMTAP	25	192	7
NMTAP	25	240	1
NMTAP	25	240	6
BRTAP	25	288	2
BRTAP	25	288	5
EXSTR	26	0	3
NMSI_	26	0	3	96	48	7
EXTAP	26	0	5
NMTAP	26	96	5
NMTAP	26	192	5
NMSTR	26	192	7
NMSV_	26	192	7	96	48	4
NMTAP	26	288	5
NMSTR	27	0	4
NMSI_	27	0	4	96	48	1
NMTAP	27	0	5
NMTAP	27	96	5
NMSTR	27	192	1
NMSI_	27	192	1	96	48	6
NMTAP	27	192	5
NMTAP	27	288	5
NMTAP	28	0	5
NMSTR	28	0	6
NMSV_	28	0	6	96	48	3
NMTAP	28	96	5
NMSTR	28	192	3
NMSLL	28	192	3	96	72	7
NMTAP	28	192	5
NMSTR	28	288	5
NMSCL	28	288	5	96	96	2
CNSUR	29	96	2	0	96	7
NMTAP	29	288	0
NMTAP	29	288	6
NMTAP	30	0	2
NMSTR	30	0	4
NMSI_	30	0	4	96	48	0
NMTAP	30	96	2
NMSTR	30	192	0
NMSV_	30	192	0	96	48	3
NMTAP	30	192	2
NMTAP	30	288	2
NMTAP	31	0	2
NMSTR	31	0	3
NMSCR	31	0	3	96	48	6
NMTAP	31	96	2
NMTAP	31	192	2
NMSTR	31	192	6
NMSV_	31	192	6	96	48	0
NMTAP	31	288	2
NMSTR	32	0	0
NMSUL	32	0	0	96	48	3
NMTAP	32	0	2
NMTAP	32	96	2
NMTAP	32	192	2
NMSTR	32	192	3
NMSI_	32	192	3	96	48	7
NMSTR	32	288	2
NMSCL	32	288	2	96	96	4
NMTAP	33	192	2
NMTAP	33	192	5
BRTAP	33	240	2
BRTAP	33	240	5
NMTAP	34	0	0
NMTAP	34	0	1
NMHLD	34	48	2	48
NMTAP	34	96	3
NMTAP	34	144	1
NMTAP	34	144	4
NMHLD	34	240	5	48
NMTAP	34	288	4
NMTAP	34	336	6
NMTAP	35	0	6
NMTAP	35	0	7
NMTAP	35	48	5
NMTAP	35	96	4
NMTAP	35	144	3
NMSTR	35	144	6
NMSLL	35	144	6	96	72	0
NMTAP	35	240	1
NMTAP	35	288	1
NMSTR	35	336	1
NMSCR	35	336	1	96	48	4
NMTAP	36	144	6
NMTAP	36	192	3
NMTAP	36	192	5
NMTAP	36	240	2
NMSTR	36	288	1
NMSI_	36	288	1	96	48	4
NMTAP	36	288	4
BXSTR	37	0	3
NMSI_	37	0	3	96	48	6
BXSTR	37	96	5
NMSI_	37	96	5	96	48	0
BXSTR	37	192	7
NMSI_	37	192	7	96	48	2
BRTAP	37	288	1
NMTAP	38	0	2
NMTAP	38	0	4
NMHLD	38	48	1	48
NMTAP	38	96	0
NMTAP	38	144	2
NMTAP	38	144	7
NMTAP	38	240	6
NMTAP	38	288	4
NMTAP	38	288	5
NMTAP	38	336	3
NMSTR	39	0	2
NMSCR	39	0	2	96	96	5
NMSTR	39	96	5
NMSUL	39	96	5	96	96	7
NMTAP	39	144	6
NMTAP	39	240	6
NMTAP	39	288	6
NMTAP	40	0	0
NMTAP	40	0	6
NMTAP	40	48	1
NMTAP	40	96	2
NMTAP	40	96	3
NMTAP	40	144	4
NMTAP	40	192	3
NMTAP	40	192	5
NMTAP	40	240	6
NMTAP	40	288	1
NMTAP	40	288	7
NMTAP	41	0	0
NMTAP	41	24	0
NMTAP	41	48	0
NMTAP	41	72	0
NMTAP	41	96	0
NMTAP	41	120	0
NMSTR	41	144	1
NMSI_	41	144	1	96	48	5
NMTAP	41	144	7
NMSTR	42	0	6
NMSI_	42	0	6	96	48	4
NMSTR	42	0	7
NMSI_	42	0	7	96	48	1
NMSTR	42	96	6
NMSI_	42	96	6	96	48	2
NMSTR	42	96	7
NMSI_	42	96	7	96	48	3
NMSTR	42	192	6
NMSCL	42	192	6	96	48	3
NMSTR	42	192	7
NMSCR	42	192	7	96	48	2
BRTAP	42	288	6
BRTAP	42	288	7
NMTAP	43	48	1
NMTAP	43	48	4
NMTAP	43	96	1
NMTAP	43	96	4
NMTAP	43	192	4
NMTAP	43	192	5
NMTAP	43	240	6
NMTAP	43	288	2
NMTAP	43	288	3
NMTAP	43	336	0
NMSTR	44	0	1
NMSI_	44	0	1	96	48	3
NMTAP	44	0	7
NMTAP	44	96	1
NMSTR	44	96	5
NMSI_	44	96	5	96	48	7
NMSTR	44	192	0
NMSI_	44	192	0	96	48	4
NMTAP	44	192	5
NMTAP	44	288	0
NMSTR	44	288	6
NMSI_	44	288	6	96	48	3
NMSTR	45	0	2
NMSI_	45	0	2	96	48	0
NMTAP	45	0	6
NMTAP	45	96	2
NMSTR	45	96	7
BRSI_	45	96	7	96	48	4
BRSSR	45	96	7	96	48	3
BRTAP	45	192	7
BRTAP	45	288	2
BRTAP	45	288	6
NMSTR	46	0	0
NMSI_	46	0	0	96	48	6
NMSTR	46	0	1
NMSI_	46	0	1	96	48	3
NMSTR	46	96	0
NMSI_	46	96	0	96	48	4
NMSTR	46	96	1
NMSI_	46	96	1	96	48	5
NMSTR	46	192	0
NMSCL	46	192	0	96	48	5
NMSTR	46	192	1
NMSCR	46	192	1	96	48	4
BRTAP	46	288	0
BRTAP	46	288	1
NMTAP	47	48	3
NMTAP	47	48	6
NMTAP	47	96	3
NMTAP	47	96	6
NMTAP	47	192	1
NMTAP	47	192	3
NMTAP	47	240	2
NMTAP	47	288	4
NMTAP	47	288	6
NMTAP	47	336	5
NMTAP	48	0	2
NMTAP	48	0	3
NMTAP	48	48	1
NMTAP	48	96	0
NMTAP	48	96	7
NMTAP	48	144	6
NMTAP	48	192	3
NMTAP	48	192	5
NMTAP	48	240	1
NMTAP	48	288	0
NMTAP	48	288	6
NMTAP	48	336	0
NMTAP	48	336	6
NMTAP	49	0	1
NMTAP	49	24	2
NMTAP	49	48	3
NMTAP	49	72	6
NMTAP	49	96	5
NMTAP	49	120	4
NMTAP	49	144	0
NMTAP	49	168	1
NMTAP	49	192	2
NMTAP	49	192	3
NMTAP	49	240	2
NMTAP	49	240	3
NMTAP	49	288	0
NMTAP	49	288	5
NMSTR	50	0	6
NMSI_	50	0	6	96	48	2
NMSTR	50	0	7
NMSI_	50	0	7	96	48	3
NMSTR	50	96	6
NMSCL	50	96	6	96	48	3
NMSTR	50	96	7
NMSCR	50	96	7	96	48	2
NMSTR	50	192	6
NMSI_	50	192	6	96	48	2
NMSTR	50	192	7
NMSI_	50	192	7	96	48	3
BRTAP	50	288	6
BRTAP	50	288	7
NMTAP	51	48	1
NMTAP	51	48	4
NMTAP	51	96	1
NMTAP	51	96	4
NMTAP	51	192	6
NMTAP	51	192	7
NMTAP	51	240	5
NMTAP	51	288	0
NMTAP	51	288	1
NMTAP	51	336	2
NMTAP	52	0	3
NMSTR	52	0	5
NMSI_	52	0	5	96	48	3
NMSTR	52	96	2
NMSI_	52	96	2	96	48	6
NMTAP	52	96	5
NMTAP	52	192	2
NMSTR	52	192	7
NMSI_	52	192	7	96	48	3
NMSTR	52	288	2
NMSI_	52	288	2	96	48	4
NMTAP	52	288	7
NMTAP	53	0	2
NMSTR	53	0	5
NMSI_	53	0	5	96	48	1
NMSTR	53	96	0
BRSI_	53	96	0	96	48	3
BRSSL	53	96	0	96	48	4
NMTAP	53	96	5
BRTAP	53	192	0
BRTAP	53	288	2
BRTAP	53	288	6
NMSTR	54	0	0
NMSI_	54	0	0	96	48	4
NMSTR	54	0	1
NMSI_	54	0	1	96	48	5
NMSTR	54	96	0
NMSCL	54	96	0	96	48	5
NMSTR	54	96	1
NMSCR	54	96	1	96	48	4
NMSTR	54	192	0
NMSI_	54	192	0	96	48	4
NMSTR	54	192	1
NMSI_	54	192	1	96	48	5
BRTAP	54	288	0
BRTAP	54	288	1
NMTAP	55	48	3
NMTAP	55	48	6
NMTAP	55	96	3
NMTAP	55	96	6
NMTAP	55	192	0
NMTAP	55	192	1
NMTAP	55	240	6
NMTAP	55	240	7
NMSTR	55	288	4
NMSI_	55	288	4	96	48	6
NMTAP	55	288	5
NMSTR	56	0	0
NMSI_	56	0	0	96	48	4
NMTAP	56	0	4
NMTAP	56	96	0
NMSTR	56	96	5
NMSI_	56	96	5	96	48	7
NMTAP	56	192	0
NMTAP	56	192	5
NMSTR	56	240	0
NMSCR	56	240	0	96	144	4
NMSSL	56	240	0	96	144	4
NMSTR	57	192	3
NMSI_	57	192	3	96	48	1
NMSTR	57	192	6
NMSI_	57	192	6	96	48	4
NMTAP	57	288	3
NMTAP	57	288	6
NMTAP	58	0	2
NMTAP	58	24	4
NMTAP	58	48	3
NMTAP	58	72	4
NMTAP	58	96	2
NMTAP	58	144	5
NMTAP	58	192	4
NMTAP	58	240	5
NMTAP	58	288	2
NMTAP	58	312	3
NMTAP	58	336	2
NMTAP	59	0	5
NMTAP	59	24	3
NMTAP	59	48	4
NMTAP	59	72	3
NMTAP	59	96	5
NMTAP	59	144	2
NMTAP	59	192	3
NMTAP	59	240	2
NMTAP	59	288	5
NMTAP	59	312	4
NMTAP	59	336	5
NMTAP	60	0	2
NMTAP	60	24	4
NMTAP	60	48	3
NMTAP	60	72	4
NMTAP	60	96	2
NMTAP	60	144	5
NMTAP	60	192	4
NMTAP	60	240	5
NMTAP	60	288	2
NMTAP	60	312	3
NMTAP	60	336	2
BRTAP	61	0	6
BRTAP	61	24	7
BRTAP	61	48	6
BRTAP	61	72	7
BRTAP	61	144	1
BRTAP	61	168	0
BRSTR	61	192	1
NMSI_	61	192	1	96	48	4
BRTAP	61	216	0
NMTAP	62	0	5
NMTAP	62	24	4
NMTAP	62	48	5
NMHLD	62	72	4	72
NMTAP	62	144	3
NMTAP	62	192	2
NMTAP	62	240	1
NMTAP	62	288	7
NMTAP	62	312	0
NMTAP	62	336	7
NMTAP	63	0	2
NMTAP	63	24	3
NMTAP	63	48	2
NMHLD	63	72	3	72
NMTAP	63	144	4
NMTAP	63	192	5
NMTAP	63	240	6
NMTAP	63	288	0
NMTAP	63	312	7
NMTAP	63	336	0
NMTAP	64	0	5
NMTAP	64	24	4
NMTAP	64	48	5
NMHLD	64	72	4	72
NMTAP	64	144	3
NMTAP	64	192	2
NMTAP	64	240	1
NMTAP	64	288	7
NMTAP	64	312	0
NMTAP	64	336	7
NMTAP	65	0	1
NMTAP	65	24	0
NMTAP	65	48	1
NMTAP	65	72	0
NMTAP	65	96	2
NMTAP	65	120	7
NMTAP	65	144	2
NMTAP	65	168	7
NMTAP	65	192	3
NMTAP	65	240	3
EXTAP	65	288	2
EXTAP	65	288	4
EXTAP	65	336	1
EXTAP	65	336	5
EXSTR	66	0	6
NMSUR	66	0	6	96	144	3
NMTTP	66	192	0	E	0	M1
NMTTP	66	192	0	D	0	M1
NMTAP	66	288	2
NMSTR	67	0	0
NMSCR	67	0	0	96	144	4
NMTAP	67	0	1
NMTTP	67	192	0	C	0	M1
NMTAP	67	288	7
NMSTR	68	0	6
NMSLL	68	0	6	96	144	2
NMTAP	68	0	7
NMTTP	68	192	0	C	0	M1
NMTAP	68	288	0
NMSTR	69	0	1
NMSXL	69	0	1	96	192	4
NMTAP	69	192	5
NMTAP	69	288	5
NMTAP	69	336	6
NMSTR	70	0	2
NMSCL	70	0	2	96	144	6
NMTAP	70	0	7
NMTTP	70	192	0	B	0	M1
NMTTP	70	192	0	E	0	M1
NMTAP	70	288	4
NMTAP	71	0	2
NMSTR	71	0	3
NMSCR	71	0	3	96	144	0
NMTTP	71	192	5	B	0	M1
NMTTP	71	192	6	B	0	M1
NMTAP	71	288	3
NMTAP	72	0	2
NMSTR	72	0	4
NMSCL	72	0	4	96	144	7
NMTTP	72	192	1	B	0	M1
NMTTP	72	192	2	B	0	M1
NMTAP	72	288	4
NMTAP	73	0	3
NMSTR	73	0	5
NMSXL	73	0	5	96	192	3
NMHLD	73	192	2	96
NMTAP	74	0	1
NMTAP	74	0	3
NMHLD	74	48	2	48
NMTAP	74	96	3
NMTAP	74	144	1
NMTAP	74	144	4
NMHLD	74	240	6	48
NMTAP	74	288	7
NMTAP	74	336	0
NMTAP	74	336	5
NMTAP	75	0	2
NMTAP	75	0	3
NMHLD	75	48	1	48
NMTAP	75	96	0
NMTAP	75	144	2
NMSTR	75	144	7
NMSXR	75	144	7	96	96	0
NMTAP	75	240	1
NMTAP	75	288	1
NMSTR	75	336	2
NMSV_	75	336	2	96	48	4
NMTAP	76	144	5
NMTAP	76	192	3
NMTAP	76	192	5
NMTAP	76	240	2
NMSTR	76	288	1
NMSI_	76	288	1	96	48	6
NMTAP	76	288	3
BXSTR	77	0	7
NMSI_	77	0	7	96	48	4
BXSTR	77	96	5
NMSI_	77	96	5	96	48	2
BXSTR	77	192	3
NMSI_	77	192	3	96	48	7
BRTAP	77	288	5
NMTAP	78	0	0
NMTAP	78	0	6
NMHLD	78	48	5	48
NMTAP	78	96	4
NMTAP	78	144	3
NMTAP	78	144	6
NMTAP	78	240	0
NMTAP	78	288	1
NMTAP	78	288	3
NMTAP	78	336	2
NMTAP	79	0	3
NMSTR	79	0	5
NMSLL	79	0	5	96	96	0
NMSTR	79	96	0
NMSLL	79	96	0	96	96	2
NMTAP	79	144	1
NMTAP	79	240	3
NMTAP	79	288	3
NMTAP	80	0	4
NMTAP	80	0	6
NMTAP	80	48	5
NMTAP	80	96	1
NMTAP	80	96	3
NMTAP	80	144	2
NMTAP	80	192	4
NMTAP	80	240	3
NMTAP	80	240	5
NMTAP	80	288	1
NMTAP	80	288	7
NMTAP	81	0	0
NMTAP	81	24	0
NMTAP	81	48	0
NMTAP	81	72	0
NMTAP	81	96	0
NMTAP	81	120	0
BRSTR	81	144	1
NMSI_	81	144	1	96	48	4
BRSTR	81	144	7
NMSI_	81	144	7	96	48	4
NMSTR	82	0	2
NMSI_	82	0	2	96	48	0
NMSTR	82	0	6
NMSI_	82	0	6	96	48	4
NMSTR	82	96	2
NMSI_	82	96	2	96	48	4
NMSTR	82	96	6
NMSI_	82	96	6	96	48	0
NMTAP	82	192	2
NMSTR	82	192	6
NMSI_	82	192	6	96	48	2
BRTAP	82	288	2
BRTAP	82	288	6
NMTAP	83	48	0
NMTAP	83	48	4
NMTAP	83	96	0
NMTAP	83	96	4
NMTAP	83	144	5
NMTAP	83	192	4
NMHLD	83	192	6	48
NMTAP	83	240	0
NMHLD	83	288	1	48
NMTAP	83	288	3
NMTAP	83	336	7
NMTAP	84	0	0
NMSTR	84	0	6
NMSI_	84	0	6	96	48	2
NMSTR	84	96	1
NMSUR	84	96	1	96	48	5
NMTAP	84	96	6
NMTAP	84	192	1
NMSTR	84	192	7
NMSI_	84	192	7	96	48	3
NMSTR	84	288	2
NMSI_	84	288	2	96	48	6
NMTAP	84	288	7
NMTAP	85	0	2
NMSTR	85	0	4
NMSI_	85	0	4	96	48	1
NMTAP	85	96	4
NMSTR	85	96	7
BRSI_	85	96	7	96	48	4
BRSSR	85	96	7	96	48	3
BRTAP	85	192	7
BRTAP	85	288	1
BRTAP	85	288	5
NMSTR	86	0	1
NMSI_	86	0	1	96	48	3
NMSTR	86	0	5
NMSI_	86	0	5	96	48	7
NMSTR	86	96	1
NMSI_	86	96	1	96	48	7
NMSTR	86	96	5
NMSI_	86	96	5	96	48	3
NMSTR	86	192	1
NMSI_	86	192	1	96	48	5
NMTAP	86	192	5
BRTAP	86	288	1
BRTAP	86	288	5
NMTAP	87	48	3
NMTAP	87	48	7
NMTAP	87	96	3
NMTAP	87	96	7
NMTAP	87	144	5
NMTAP	87	192	2
NMTAP	87	240	1
NMTAP	87	240	3
NMTAP	87	288	0
NMTAP	87	288	6
NMTAP	87	336	0
NMTAP	87	336	6
NMTAP	88	0	5
NMTAP	88	24	4
NMTAP	88	48	6
NMTAP	88	96	2
NMTAP	88	120	3
NMTAP	88	144	1
NMTAP	88	192	6
NMTAP	88	216	4
NMTAP	88	240	5
NMTAP	88	288	3
NMTAP	88	288	4
NMTAP	89	0	1
NMTAP	89	24	0
NMTAP	89	48	7
NMTAP	89	72	6
NMTAP	89	96	7
NMTAP	89	120	0
NMTAP	89	144	1
NMTAP	89	168	0
NMTAP	89	192	7
NMTAP	89	240	7
NMTAP	89	288	1
NMTAP	89	288	5
NMSTR	90	0	1
NMSCR	90	0	1	96	48	4
NMSTR	90	0	5
NMSCR	90	0	5	96	48	0
NMSTR	90	96	1
NMSI_	90	96	1	96	48	6
NMSTR	90	96	5
NMSI_	90	96	5	96	48	2
NMSTR	90	192	1
NMSI_	90	192	1	96	48	4
NMSTR	90	192	5
NMSI_	90	192	5	96	48	0
BRTAP	90	288	1
BRTAP	90	288	5
NMTAP	91	48	3
NMTAP	91	48	7
NMTAP	91	96	3
NMTAP	91	96	7
NMTAP	91	144	5
NMTAP	91	192	0
NMTAP	91	192	4
NMTAP	91	240	2
NMTAP	91	288	3
NMTAP	91	288	4
NMTAP	91	336	5
NMTAP	92	0	6
NMSTR	92	0	7
NMSI_	92	0	7	96	48	3
NMSTR	92	96	6
NMSUL	92	96	6	96	48	2
NMTAP	92	96	7
NMSTR	92	192	1
NMSI_	92	192	1	96	48	6
NMTAP	92	192	6
NMTAP	92	288	1
NMSTR	92	288	5
NMSI_	92	288	5	96	48	1
NMSTR	93	0	3
NMSI_	93	0	3	96	48	6
NMTAP	93	0	5
NMSTR	93	96	0
BRSI_	93	96	0	96	48	3
BRSSL	93	96	0	96	48	4
NMTAP	93	96	3
BRTAP	93	192	0
BRTAP	93	288	2
BRTAP	93	288	6
NMSTR	94	0	2
NMSCL	94	0	2	96	48	7
NMSTR	94	0	6
NMSCL	94	0	6	96	48	3
NMSTR	94	96	2
NMSI_	94	96	2	96	48	5
NMSTR	94	96	6
NMSI_	94	96	6	96	48	1
NMSTR	94	192	2
NMSI_	94	192	2	96	48	7
NMSTR	94	192	6
NMSI_	94	192	6	96	48	3
BRTAP	94	288	2
BRTAP	94	288	6
NMTAP	95	48	1
NMTAP	95	48	5
NMTAP	95	96	1
NMTAP	95	96	5
NMTAP	95	144	2
NMTAP	95	192	3
NMTAP	95	192	4
NMTAP	95	240	5
NMTAP	95	288	4
NMTAP	95	288	6
NMTAP	95	336	7
NMSTR	96	0	0
NMSI_	96	0	0	96	48	2
NMSTR	96	48	7
NMSI_	96	48	7	96	48	3
NMSTR	96	96	0
NMSI_	96	96	0	96	48	4
NMSTR	96	144	7
NMSI_	96	144	7	96	48	5
NMTAP	96	192	0
NMSTR	96	240	7
NMSXL	96	240	7	96	168	2
NMSXR	96	240	7	96	168	4
NMSTR	97	192	3
NMSCL	97	192	3	96	48	0
NMSTR	97	192	7
NMSCL	97	192	7	96	48	4
BRTAP	97	288	3
BRTAP	97	288	7
NMTAP	98	0	1
NMTAP	98	24	3
NMTAP	98	48	2
NMTAP	98	72	4
NMTAP	98	96	1
NMTAP	98	144	5
NMTAP	98	192	4
NMTAP	98	216	6
NMTAP	98	240	3
NMTAP	98	264	5
NMTAP	98	288	2
NMTAP	98	312	4
NMTAP	98	336	1
NMTAP	99	0	6
NMTAP	99	24	4
NMTAP	99	48	5
NMTAP	99	72	3
NMTAP	99	96	6
NMTAP	99	144	2
NMTAP	99	192	3
NMTAP	99	216	1
NMTAP	99	240	4
NMTAP	99	264	2
NMTAP	99	288	5
NMTAP	99	312	3
NMTAP	99	336	6
NMTAP	100	0	1
NMTAP	100	24	3
NMTAP	100	48	2
NMTAP	100	72	4
NMTAP	100	96	1
NMTAP	100	144	5
NMTAP	100	192	4
NMTAP	100	216	6
NMTAP	100	240	3
NMTAP	100	264	5
NMTAP	100	288	2
NMTAP	100	312	4
NMTAP	100	336	1
BRTAP	101	0	6
BRTAP	101	24	7
BRTAP	101	48	5
BRTAP	101	72	0
BRTAP	101	144	1
BRTAP	101	168	0
BRSTR	101	192	2
NMSV_	101	192	2	96	48	5
BRTAP	101	216	7
EXTAP	102	0	6
NMTAP	102	24	3
NMTAP	102	48	4
NMHLD	102	72	1	72
NMTAP	102	144	3
NMTAP	102	192	3
NMTAP	102	216	1
NMTAP	102	240	7
NMTAP	102	264	4
NMTAP	102	288	6
NMTAP	102	312	0
NMTAP	102	336	3
EXTAP	103	0	1
NMTAP	103	24	4
NMTAP	103	48	3
NMHLD	103	72	6	72
NMTAP	103	144	4
NMTAP	103	192	4
NMTAP	103	216	6
NMTAP	103	240	0
NMTAP	103	264	3
NMTAP	103	288	1
NMTAP	103	312	7
NMTAP	103	336	4
EXTAP	104	0	6
NMTAP	104	24	3
NMTAP	104	48	4
NMHLD	104	72	1	72
NMTAP	104	144	3
NMTAP	104	192	3
NMTAP	104	216	1
NMTAP	104	240	7
NMTAP	104	264	4
NMTAP	104	288	6
EXTAP	104	336	4
EXTAP	104	336	6
NMTAP	105	0	1
NMTAP	105	24	1
NMTAP	105	48	3
NMTAP	105	72	3
NMTAP	105	96	4
NMTAP	105	120	4
NMTAP	105	144	6
BRTAP	105	192	3
BRTAP	105	192	7
BRTAP	105	240	1
BRTAP	105	240	5
BRTAP	105	288	0
BRTAP	105	288	4
BRTAP	105	336	2
BRTAP	105	336	6
NMSTR	106	0	3
NMSI_	106	0	3	96	144	1
NMHLD	106	0	7	1152
CNSI_	106	240	1	0	192	4
CNSI_	107	48	4	0	144	7
CNSI_	107	192	7	0	480	5
NMSTR	109	0	6
NMSXL	109	0	6	96	120	7
CNSI_	109	216	7	0	120	4

T_REC_TAP	580
T_REC_BRK	60
T_REC_XTP	10
T_REC_BXX	0
T_REC_HLD	20
T_REC_XHO	0
T_REC_BHO	0
T_REC_BXH	0
T_REC_STR	128
T_REC_BST	4
T_REC_XST	2
T_REC_XBS	6
T_REC_TTP	24
T_REC_THO	0
T_REC_SLD	138
T_REC_BSL	8
T_REC_ALL	980
T_NUM_TAP	744
T_NUM_BRK	78
T_NUM_HLD	20
T_NUM_SLD	138
T_NUM_ALL	980
T_JUDGE_TAP	814
T_JUDGE_HLD	53
T_JUDGE_SLD	146
T_JUDGE_ALL	1013
TTM_EACHPAIRS	204
TTM_SCR_TAP	372000
TTM_SCR_BRK	202800
TTM_SCR_HLD	20000
TTM_SCR_SLD	207000
TTM_SCR_ALL	801800
TTM_SCR_S	770200
TTM_SCR_SS	794000
TTM_RAT_ACV	10098

