VERSION	0.00.00	1.04.00
FES_MODE	0
BPM_DEF	168.000	168.000	168.000	168.000
MET_DEF	4	4
RESOLUTION	384
CLK_DEF	384
COMPATIBLE_CODE	MA2

BPM	0	0	168.000
MET	0	0	4	4

EXTAP	2	0	0
EXTAP	2	0	1
EXTAP	2	96	0
EXTAP	2	96	1
EXTAP	2	192	2
EXTAP	2	192	7
EXTAP	2	288	2
EXSTR	2	288	7
NMSCL	2	288	7	96	288	3
NMHLD	4	0	2	192
NMHLD	4	192	3	192
NMHLD	5	0	4	192
NMTAP	5	192	5
EXTAP	6	0	6
EXTAP	6	0	7
EXTAP	6	96	6
EXTAP	6	96	7
EXTAP	6	192	0
EXTAP	6	192	5
EXSTR	6	288	0
NMSCR	6	288	0	96	288	4
EXTAP	6	288	5
NMHLD	8	0	5	192
NMHLD	8	192	4	192
NMHLD	9	0	3	192
NMTAP	9	192	2
NMTAP	10	0	2
NMTAP	10	0	3
NMTAP	10	96	2
NMTAP	10	96	3
NMTAP	10	192	1
NMTAP	10	192	4
NMTAP	10	288	1
NMTAP	10	288	4
NMTAP	11	0	5
NMTAP	11	96	4
NMTAP	11	96	5
NMTAP	11	192	2
NMTAP	11	288	2
NMTAP	11	288	3
NMHLD	12	0	1	192
NMTAP	12	96	0
NMHLD	12	192	0	192
NMTAP	12	288	7
NMHLD	13	0	7	192
NMTAP	13	96	6
NMTAP	13	192	6
NMTAP	13	288	6
NMTAP	13	288	7
NMTAP	14	0	4
NMTAP	14	0	5
NMTAP	14	96	4
NMTAP	14	96	5
NMTAP	14	192	3
NMTAP	14	192	6
NMTAP	14	288	3
NMTAP	14	288	6
NMTAP	15	0	2
NMTAP	15	96	1
NMTAP	15	96	3
NMTAP	15	192	5
NMTAP	15	288	4
NMTAP	15	288	6
NMSTR	16	0	7
NMSI_	16	0	7	96	96	3
NMSTR	16	192	0
NMSI_	16	192	0	96	96	4
NMTAP	17	0	7
NMTAP	17	96	7
NMTAP	17	192	0
NMTAP	17	192	7
BRTAP	17	240	0
BRTAP	17	240	7
NMTAP	18	0	1
NMTAP	18	96	0
NMTAP	18	96	1
NMTAP	18	192	6
NMTAP	18	240	6
NMTAP	18	288	7
NMTAP	19	0	5
NMTAP	19	96	6
NMTAP	19	96	7
NMTAP	19	192	1
NMTAP	19	240	1
NMTAP	19	288	0
NMTAP	20	0	2
NMTAP	20	96	0
NMTAP	20	96	1
NMTAP	20	192	6
NMTAP	20	240	6
NMTAP	20	288	7
NMTAP	21	0	0
NMTAP	21	0	6
NMTAP	21	48	0
NMTAP	21	48	6
NMTAP	21	144	1
NMTAP	21	144	7
NMTAP	21	192	1
NMTAP	21	192	7
NMTAP	21	288	0
NMTAP	21	288	7
NMTAP	22	0	6
NMTAP	22	96	6
NMTAP	22	96	7
NMTAP	22	192	1
NMTAP	22	240	1
NMTAP	22	288	0
NMTAP	23	0	2
NMTAP	23	96	0
NMTAP	23	96	1
NMTAP	23	192	6
NMTAP	23	240	6
NMTAP	23	288	7
NMTAP	24	0	5
NMTAP	24	96	6
NMTAP	24	96	7
NMTAP	24	192	1
NMTAP	24	240	1
NMTAP	24	288	0
NMTAP	25	0	7
NMTAP	25	48	7
NMTAP	25	96	0
NMTAP	25	144	0
NMTAP	25	192	6
BRTAP	25	288	1
BRTAP	25	288	5
NMHLD	26	0	1	1152
NMTAP	26	96	3
NMTAP	26	192	3
NMTAP	26	288	3
NMTAP	27	0	4
NMTAP	27	96	3
NMTAP	27	192	4
NMTAP	27	288	3
NMTAP	28	0	2
NMTAP	28	96	3
NMTAP	28	192	4
NMTAP	28	288	3
NMSTR	29	0	2
NMSI_	29	0	2	96	48	4
NMTAP	29	192	5
NMTAP	29	288	3
NMTAP	29	288	5
NMHLD	30	0	6	1056
NMTAP	30	96	4
NMTAP	30	192	4
NMTAP	30	288	4
NMTAP	31	0	3
NMTAP	31	96	4
NMTAP	31	192	3
NMTAP	31	288	4
NMTAP	32	0	5
NMTAP	32	96	4
NMTAP	32	192	3
NMSTR	32	288	4
NMSXL	32	288	4	96	192	0
NMHLD	34	0	0	144
NMSTR	34	0	1
NMSCR	34	0	1	96	96	4
NMTAP	34	288	4
NMTAP	34	288	5
NMSTR	35	0	6
NMSCL	35	0	6	96	96	3
NMHLD	35	0	7	144
NMTAP	35	288	2
NMTAP	35	288	3
NMTAP	36	0	0
NMTAP	36	0	1
NMTAP	36	96	2
NMTAP	36	96	7
NMTAP	36	192	3
NMTAP	36	192	6
NMTAP	36	288	4
NMTAP	36	288	5
BXTAP	37	0	2
BXTAP	37	0	3
BXTAP	37	96	0
BXTAP	37	96	1
BXTAP	37	192	6
BXTAP	37	192	7
BXTAP	37	288	4
BXTAP	37	288	5
NMSTR	38	0	2
NMSCL	38	0	2	96	96	7
NMHLD	38	0	3	144
NMTAP	38	288	6
NMTAP	38	288	7
NMHLD	39	0	4	144
NMSTR	39	0	5
NMSCR	39	0	5	96	96	0
NMTAP	39	288	0
NMTAP	39	288	1
NMTAP	40	0	2
NMTAP	40	48	2
NMTAP	40	96	2
NMTAP	40	96	3
NMTAP	40	192	5
NMTAP	40	240	5
NMTAP	40	288	4
NMTAP	40	288	5
NMTAP	41	0	3
NMTAP	41	0	4
NMTAP	41	48	3
NMTAP	41	48	4
NMTAP	41	96	2
NMTAP	41	96	5
BRTAP	41	144	2
BRTAP	41	144	5
NMTAP	42	0	4
NMTAP	42	0	5
NMTAP	42	96	2
NMTAP	42	96	3
NMSTR	42	192	0
NMSI_	42	192	0	96	48	5
NMSTR	42	192	1
NMSV_	42	192	1	96	48	4
NMTAP	43	48	3
NMHLD	43	96	3	96
NMHLD	43	192	2	96
NMTAP	43	288	1
NMTAP	44	0	0
NMTAP	44	0	7
NMTAP	44	96	1
NMTAP	44	96	3
NMSTR	44	192	2
NMSI_	44	192	2	96	48	7
NMSTR	44	192	3
NMSI_	44	192	3	96	48	7
BXTAP	45	0	0
BXTAP	45	0	7
BXTAP	45	96	4
BXTAP	45	96	6
BXSTR	45	192	4
BRSI_	45	192	4	96	48	0
BXSTR	45	192	5
BRSI_	45	192	5	96	48	0
NMTAP	46	0	2
NMTAP	46	0	3
NMTAP	46	96	4
NMTAP	46	96	5
NMSTR	46	192	6
NMSV_	46	192	6	96	48	3
NMSTR	46	192	7
NMSI_	46	192	7	96	48	2
NMTAP	47	48	4
NMHLD	47	96	4	96
NMHLD	47	192	5	96
NMTAP	47	288	6
NMTAP	48	0	0
NMTAP	48	0	7
NMTAP	48	96	1
NMTAP	48	96	3
NMTAP	48	192	3
NMTAP	48	192	4
NMTAP	48	288	4
NMTAP	48	288	6
NMTAP	49	0	0
NMTAP	49	0	7
NMTAP	49	48	0
NMTAP	49	48	7
NMTAP	49	144	3
NMTAP	49	144	4
BRTAP	49	240	1
BRTAP	49	240	6
NMTAP	50	0	2
NMTAP	50	0	3
NMTAP	50	96	4
NMTAP	50	96	5
NMSTR	50	192	6
NMSV_	50	192	6	96	48	3
NMSTR	50	192	7
NMSCR	50	192	7	96	48	2
NMTAP	51	48	4
NMHLD	51	96	4	96
NMHLD	51	192	5	96
NMTAP	51	288	6
NMTAP	52	0	0
NMTAP	52	0	7
NMTAP	52	96	4
NMTAP	52	96	6
NMSTR	52	192	4
NMSI_	52	192	4	96	48	0
NMSTR	52	192	5
NMSI_	52	192	5	96	48	1
BXTAP	53	0	0
BXTAP	53	0	7
BXTAP	53	96	1
BXTAP	53	96	3
BXSTR	53	192	2
BRSI_	53	192	2	96	48	6
BXSTR	53	192	3
BRSI_	53	192	3	96	48	7
NMTAP	54	0	4
NMTAP	54	0	5
NMTAP	54	96	2
NMTAP	54	96	3
NMSTR	54	192	0
NMSCL	54	192	0	96	48	5
NMSTR	54	192	1
NMSV_	54	192	1	96	48	4
NMTAP	55	48	3
NMHLD	55	96	3	96
NMHLD	55	192	2	96
NMTAP	55	288	1
NMTAP	56	0	1
NMTAP	56	0	3
NMTAP	56	96	4
NMTAP	56	96	6
NMTAP	56	192	0
NMTAP	56	192	7
NMTAP	56	240	0
NMSTR	56	240	7
NMSF_	56	240	7	96	144	3
BRTAP	57	192	1
BRTAP	57	192	5
NMTAP	58	0	2
NMTAP	58	96	0
NMTAP	58	96	1
NMTAP	58	192	7
NMTAP	58	240	7
NMTAP	58	288	0
NMTAP	58	288	6
NMTAP	59	0	5
NMTAP	59	96	6
NMTAP	59	96	7
NMTAP	59	192	0
NMTAP	59	240	0
NMTAP	59	288	1
NMTAP	59	288	7
NMTAP	60	0	2
NMTAP	60	96	0
NMTAP	60	96	1
NMTAP	60	192	7
NMTAP	60	240	7
NMTAP	60	288	0
NMTAP	60	288	6
NMTAP	61	0	6
NMTAP	61	0	7
NMTAP	61	48	6
NMTAP	61	48	7
NMTAP	61	144	0
NMTAP	61	144	1
NMTAP	61	192	0
NMTAP	61	192	1
NMTAP	61	288	2
NMTAP	61	288	6
NMTAP	62	0	5
NMTAP	62	96	6
NMTAP	62	96	7
NMTAP	62	192	0
NMTAP	62	240	0
NMTAP	62	288	1
NMTAP	62	288	7
NMTAP	63	0	2
NMTAP	63	96	0
NMTAP	63	96	1
NMTAP	63	192	7
NMTAP	63	240	7
NMTAP	63	288	0
NMTAP	63	288	6
NMTAP	64	0	5
NMTAP	64	96	6
NMTAP	64	96	7
NMTAP	64	192	0
NMTAP	64	240	0
NMTAP	64	288	1
NMTAP	64	288	7
NMTAP	65	0	7
NMTAP	65	48	7
NMTAP	65	96	0
NMTAP	65	144	0
NMSTR	65	192	6
BRSI_	65	192	6	96	48	2
EXHLD	66	0	1	576
NMTTP	66	192	1	E	0	M1
NMTTP	67	0	2	E	0	M1
NMTTP	67	192	3	E	0	M1
NMTAP	67	288	3
NMTAP	67	288	4
NMHLD	68	0	6	576
NMTTP	68	192	7	E	0	M1
NMTTP	69	0	6	E	0	M1
NMTTP	69	192	5	E	0	M1
NMTAP	69	288	2
NMTAP	69	288	4
NMHLD	70	0	0	576
NMTTP	70	192	3	E	0	M1
NMTTP	70	192	3	D	0	M1
NMTTP	71	0	2	E	0	M1
NMTTP	71	0	2	D	0	M1
NMTTP	71	192	1	E	0	M1
NMTTP	71	192	1	D	0	M1
NMTAP	71	288	0
NMTAP	71	288	7
NMHLD	72	0	7	288
NMTAP	72	192	6
NMSTR	72	288	6
NMSLL	72	288	6	96	192	0
BRTAP	73	192	7
NMHLD	74	0	1	144
NMSTR	74	0	7
NMSLL	74	0	7	96	96	3
NMTAP	74	288	2
NMTAP	74	288	3
NMSTR	75	0	0
NMSLR	75	0	0	96	96	4
NMHLD	75	0	6	144
NMTAP	75	288	4
NMTAP	75	288	5
NMTAP	76	0	2
NMTAP	76	0	3
NMTAP	76	96	1
NMTAP	76	96	4
NMTAP	76	192	0
NMTAP	76	192	5
NMTAP	76	288	6
NMTAP	76	288	7
BXTAP	77	0	4
BXTAP	77	0	5
BXTAP	77	96	2
BXTAP	77	96	3
BXTAP	77	192	0
BXTAP	77	192	1
BXTAP	77	288	6
BXTAP	77	288	7
NMSTR	78	0	3
NMSLL	78	0	3	96	96	7
NMHLD	78	0	5	144
NMTAP	78	288	6
NMTAP	78	288	7
NMHLD	79	0	2	144
NMSTR	79	0	4
NMSLR	79	0	4	96	96	0
NMTAP	79	288	0
NMTAP	79	288	1
NMTAP	80	0	6
NMTAP	80	48	6
NMTAP	80	96	6
NMTAP	80	96	7
NMTAP	80	192	1
NMTAP	80	240	1
NMTAP	80	288	0
NMTAP	80	288	1
NMTAP	81	0	0
NMTAP	81	0	7
NMTAP	81	48	0
NMTAP	81	48	7
NMTAP	81	96	1
NMTAP	81	96	6
BRTAP	81	144	1
BRTAP	81	144	6
NMTAP	82	0	4
NMTAP	82	0	5
NMTAP	82	96	2
NMTAP	82	96	3
NMSTR	82	192	0
NMSCL	82	192	0	96	48	5
NMSTR	82	192	1
NMSV_	82	192	1	96	48	4
NMTAP	83	48	3
NMHLD	83	96	3	96
NMHLD	83	192	2	96
NMTAP	83	288	1
NMTAP	84	0	0
NMTAP	84	0	7
NMTAP	84	96	1
NMTAP	84	96	4
NMSTR	84	192	2
NMSI_	84	192	2	96	48	7
NMSTR	84	192	4
NMSI_	84	192	4	96	48	7
BXTAP	85	0	0
BXTAP	85	0	7
BXTAP	85	96	3
BXTAP	85	96	6
BXSTR	85	192	3
BRSI_	85	192	3	96	48	0
BXSTR	85	192	5
BRSI_	85	192	5	96	48	0
NMTAP	86	0	1
NMTAP	86	0	3
NMTAP	86	96	4
NMTAP	86	96	5
NMSTR	86	192	6
NMSV_	86	192	6	96	48	3
NMSTR	86	192	7
NMSCR	86	192	7	96	48	2
NMTAP	87	48	4
NMHLD	87	96	4	96
NMHLD	87	192	5	96
NMTAP	87	288	6
NMTAP	88	0	0
NMTAP	88	0	7
NMTAP	88	96	1
NMTAP	88	96	2
NMTAP	88	192	3
NMTAP	88	192	4
NMTAP	88	288	5
NMTAP	88	288	6
NMTAP	89	0	0
NMTAP	89	0	7
NMSTR	89	48	0
NMSI_	89	48	0	96	48	4
NMSTR	89	48	7
NMSI_	89	48	7	96	48	3
BRTAP	89	240	2
BRTAP	89	240	5
NMTAP	90	0	2
NMTAP	90	0	3
NMTAP	90	96	4
NMTAP	90	96	5
NMSTR	90	192	6
NMSUR	90	192	6	96	48	3
NMSTR	90	192	7
NMSCR	90	192	7	96	48	2
NMTAP	91	48	4
NMHLD	91	96	4	96
NMHLD	91	192	5	96
NMTAP	91	288	6
NMTAP	92	0	0
NMTAP	92	0	7
NMTAP	92	96	3
NMTAP	92	96	6
NMSTR	92	192	3
NMSI_	92	192	3	96	48	0
NMSTR	92	192	5
NMSI_	92	192	5	96	48	0
BXTAP	93	0	0
BXTAP	93	0	7
BXTAP	93	96	1
BXTAP	93	96	4
BXSTR	93	192	2
BRSI_	93	192	2	96	48	7
BXSTR	93	192	4
BRSI_	93	192	4	96	48	7
NMTAP	94	0	4
NMTAP	94	0	6
NMTAP	94	96	2
NMTAP	94	96	3
NMSTR	94	192	0
NMSCL	94	192	0	96	48	5
NMSTR	94	192	1
NMSUL	94	192	1	96	48	4
NMTAP	95	48	3
NMHLD	95	96	3	96
NMHLD	95	192	2	96
NMTAP	95	288	1
NMTAP	96	0	0
NMTAP	96	0	7
NMTAP	96	96	2
NMTAP	96	96	5
NMTAP	96	192	3
NMTAP	96	192	4
NMTAP	96	240	3
NMSTR	96	240	4
NMSF_	96	240	4	96	144	0
BRTAP	97	192	2
BRTAP	97	192	6
NMTAP	98	0	2
NMTAP	98	0	3
NMTAP	98	96	0
NMTAP	98	96	1
NMTAP	98	192	6
NMTAP	98	240	7
NMTAP	98	288	0
NMTAP	98	288	6
NMTAP	99	0	4
NMTAP	99	0	5
NMTAP	99	96	6
NMTAP	99	96	7
NMTAP	99	192	1
NMTAP	99	240	0
NMTAP	99	288	1
NMTAP	99	288	7
NMTAP	100	0	2
NMTAP	100	0	3
NMTAP	100	96	0
NMTAP	100	96	1
NMTAP	100	192	6
NMTAP	100	240	7
NMTAP	100	288	0
NMTAP	100	288	6
NMTAP	101	0	5
NMTAP	101	0	7
NMTAP	101	48	5
NMTAP	101	48	7
NMTAP	101	144	0
NMTAP	101	144	2
NMTAP	101	192	0
NMTAP	101	192	2
NMTAP	101	288	1
NMTAP	101	288	6
NMTAP	102	0	4
NMTAP	102	0	5
NMTAP	102	96	6
NMTAP	102	96	7
NMTAP	102	192	1
NMTAP	102	240	0
NMTAP	102	288	1
NMTAP	102	288	7
NMTAP	103	0	2
NMTAP	103	0	3
NMTAP	103	96	0
NMTAP	103	96	1
NMTAP	103	192	6
NMTAP	103	240	7
NMTAP	103	288	0
NMTAP	103	288	6
NMTAP	104	0	4
NMTAP	104	0	5
NMTAP	104	96	6
NMTAP	104	96	7
NMTAP	104	192	1
NMTAP	104	240	0
NMTAP	104	288	1
NMTAP	104	288	7
NMTAP	105	0	0
NMTAP	105	0	6
NMTAP	105	48	0
NMTAP	105	48	6
NMTAP	105	96	1
NMTAP	105	96	5
NMTAP	105	144	1
NMTAP	105	144	5
NMTAP	105	192	2
NMTAP	105	192	4
NMTAP	105	288	1
NMTAP	105	288	5
BRSTR	106	0	3
BRSI_	106	0	3	96	312	1
BRHLD	106	0	7	1536
CNSI_	107	24	1	0	408	4
CNSI_	108	48	4	0	408	7
CNSI_	109	72	7	0	312	5

T_REC_TAP	410
T_REC_BRK	17
T_REC_XTP	14
T_REC_BXX	32
T_REC_HLD	38
T_REC_XHO	1
T_REC_BHO	1
T_REC_BXH	0
T_REC_STR	42
T_REC_BST	1
T_REC_XST	2
T_REC_XBS	8
T_REC_TTP	12
T_REC_THO	0
T_REC_SLD	43
T_REC_BSL	10
T_REC_ALL	631
T_NUM_TAP	480
T_NUM_BRK	69
T_NUM_HLD	39
T_NUM_SLD	43
T_NUM_ALL	631
T_JUDGE_TAP	538
T_JUDGE_HLD	212
T_JUDGE_SLD	53
T_JUDGE_ALL	803
TTM_EACHPAIRS	203
TTM_SCR_TAP	240000
TTM_SCR_BRK	179400
TTM_SCR_HLD	39000
TTM_SCR_SLD	64500
TTM_SCR_ALL	522900
TTM_SCR_S	500550
TTM_SCR_SS	516000
TTM_RAT_ACV	10133

