VERSION	0.00.00	1.04.00
FES_MODE	0
BPM_DEF	170.000	170.000	170.000	170.000
MET_DEF	4	4
RESOLUTION	384
CLK_DEF	384
COMPATIBLE_CODE	MA2

BPM	0	0	170.000
MET	0	0	4	4

NMHLD	2	0	5	672
NMTAP	2	96	4
NMTAP	2	288	4
NMTAP	3	96	4
NMTAP	3	240	3
NMTAP	3	288	3
NMHLD	4	0	2	672
NMTAP	4	96	3
NMTAP	4	288	3
NMTAP	5	96	3
NMTAP	5	240	4
NMTAP	5	288	4
NMHLD	6	0	6	672
NMTAP	6	96	4
NMTAP	6	288	5
NMTAP	7	96	4
NMTAP	7	240	3
NMTAP	7	288	3
NMHLD	8	0	1	672
NMTAP	8	96	3
NMTAP	8	288	2
NMTAP	9	96	3
NMTAP	9	240	4
NMTAP	9	288	4
NMSTR	10	0	6
BRSCR	10	0	6	96	288	2
CNSV_	11	0	2	0	288	4
EXTAP	12	0	3
EXTAP	12	0	6
NMTAP	12	48	3
NMTAP	12	96	2
NMTAP	12	96	5
NMTAP	12	144	2
NMTAP	12	192	1
NMTAP	12	192	4
NMTAP	12	288	2
NMTAP	12	288	3
NMTAP	12	336	2
NMTAP	12	336	3
NMTAP	13	48	4
NMTAP	13	48	5
NMTAP	13	96	5
NMTAP	13	120	4
NMSTR	13	168	3
NMSV_	13	168	3	96	72	0
NMHLD	13	168	6	120
NMTAP	14	0	1
NMTAP	14	0	4
NMTAP	14	48	4
NMTAP	14	96	2
NMTAP	14	96	5
NMTAP	14	144	5
NMTAP	14	192	3
NMTAP	14	192	6
NMTAP	14	264	0
NMTAP	14	264	7
NMHLD	14	336	1	96
NMTAP	14	336	4
NMTAP	15	48	6
NMTAP	15	96	0
NMTAP	15	120	7
NMSTR	15	168	1
NMSV_	15	168	1	96	72	2
NMSTR	15	168	6
NMSV_	15	168	6	96	72	5
EXTAP	16	0	1
EXTAP	16	0	4
NMTAP	16	48	4
NMTAP	16	96	2
NMTAP	16	96	5
NMTAP	16	144	5
NMTAP	16	192	3
NMTAP	16	192	6
NMTAP	16	288	4
NMTAP	16	288	5
NMTAP	16	336	4
NMTAP	16	336	5
NMTAP	17	48	2
NMTAP	17	48	3
NMTAP	17	96	2
NMTAP	17	120	3
NMHLD	17	168	1	120
NMSTR	17	168	4
NMSV_	17	168	4	96	72	7
NMTAP	18	0	3
NMTAP	18	0	6
NMTAP	18	48	3
NMTAP	18	96	2
NMTAP	18	96	5
NMTAP	18	144	2
NMTAP	18	192	1
NMTAP	18	192	4
NMTAP	18	264	0
NMTAP	18	264	7
NMTAP	18	336	3
NMSTR	18	336	6
NMSXL	18	336	6	96	240	4
NMTAP	19	48	2
NMTAP	19	96	2
NMTAP	19	144	2
NMTAP	19	240	3
NMTAP	19	288	3
EXTAP	20	0	4
EXTAP	20	0	6
EXHLD	20	96	4	192
EXHLD	20	96	6	192
EXTAP	21	0	1
EXTAP	21	0	3
EXHLD	21	96	1	192
EXHLD	21	96	3	192
NMTAP	22	0	2
NMHLD	22	0	5	288
NMTAP	22	144	4
NMHLD	22	192	4	96
NMSTR	23	0	2
NMSUL	23	0	2	96	192	0
NMHLD	23	96	3	192
EXTAP	24	0	4
EXTAP	24	0	7
EXHLD	24	96	5	192
EXHLD	24	96	6	192
EXTAP	25	0	0
EXTAP	25	0	3
EXHLD	25	96	1	192
EXHLD	25	96	2	192
NMSTR	26	0	4
NMSCR	26	0	4	96	96	7
NMTAP	26	144	2
NMSTR	26	192	2
NMSI_	26	192	2	96	96	5
NMSTR	26	288	5
NMSCL	26	288	5	96	96	2
EXTAP	27	0	7
NMTAP	27	96	7
NMTAP	27	192	1
NMTAP	27	216	0
NMTAP	27	240	1
NMTAP	27	288	2
NMTAP	27	312	3
NMTAP	27	336	2
EXSTR	28	0	6
NMSI_	28	0	6	96	48	3
NMSTR	28	96	2
NMSI_	28	96	2	96	48	7
NMTAP	28	192	5
NMTAP	28	240	5
NMTAP	28	288	4
NMTAP	28	336	4
NMSTR	29	0	1
NMSI_	29	0	1	96	48	4
NMSTR	29	96	5
NMSI_	29	96	5	96	48	0
NMTAP	29	192	2
NMTAP	29	240	2
NMTAP	29	288	3
NMTAP	29	336	3
EXSTR	30	0	4
NMSI_	30	0	4	96	48	0
EXTAP	30	0	5
NMTAP	30	96	6
NMSTR	30	192	3
NMSI_	30	192	3	96	48	7
NMTAP	30	288	1
NMSTR	31	0	4
NMSLL	31	0	4	96	96	0
NMTAP	31	96	6
NMTAP	31	144	5
NMHLD	31	192	4	96
NMTAP	31	288	7
EXSTR	32	0	5
NMSI_	32	0	5	96	48	0
NMSTR	32	96	1
NMSI_	32	96	1	96	48	4
NMTAP	32	192	6
NMTAP	32	240	6
NMTAP	32	288	7
NMTAP	32	336	7
NMSTR	33	0	2
NMSI_	33	0	2	96	48	7
NMSTR	33	96	6
NMSI_	33	96	6	96	48	3
NMSTR	33	192	1
NMSI_	33	192	1	96	48	6
NMSTR	33	288	5
NMSI_	33	288	5	96	48	2
EXTAP	34	0	0
EXSTR	34	48	0
NMSCR	34	48	0	96	48	3
NMTAP	34	144	4
NMHLD	34	192	4	72
NMHLD	34	264	5	72
NMTAP	34	336	6
NMTAP	35	0	6
NMTAP	35	96	4
NMTAP	35	96	5
NMSTR	35	192	3
NMSCL	35	192	3	96	96	0
NMSTR	35	288	0
NMSI_	35	288	0	96	48	6
NMHLD	36	0	5	192
CNSLL	36	48	6	0	144	2
NMHLD	36	336	2	288
NMSTR	36	336	7
NMSI_	36	336	7	96	48	1
CNSLR	37	96	1	0	144	5
EXHLD	37	336	4	144
EXHLD	37	336	6	144
NMHLD	38	192	3	96
NMHLD	38	192	4	96
NMHLD	38	336	1	144
NMHLD	38	336	3	144
NMSTR	39	192	7
NMSCL	39	192	7	96	96	4
NMSTR	39	288	4
NMSI_	39	288	4	96	48	2
NMHLD	40	0	1	192
CNSLL	40	48	2	0	144	6
NMSTR	40	336	3
NMSI_	40	336	3	96	48	5
NMHLD	40	336	6	288
CNSLR	41	96	5	0	144	1
NMHLD	41	336	3	96
NMHLD	41	336	7	96
NMTAP	42	96	2
NMTAP	42	96	6
NMTAP	42	144	2
NMTAP	42	144	6
NMTAP	42	192	1
NMTAP	42	192	5
NMTAP	42	240	1
NMTAP	42	240	5
NMTAP	42	288	0
NMTAP	42	288	4
NMSTR	42	336	0
NMSLR	42	336	0	96	144	5
NMSTR	42	336	4
NMSLR	42	336	4	96	144	1
BRTAP	43	288	3
BRTAP	43	288	7
EXTAP	44	0	0
EXTAP	44	0	6
NMTAP	44	48	5
NMTAP	44	48	7
NMSTR	44	96	0
NMSI_	44	96	0	96	48	4
NMTAP	44	96	6
NMTAP	44	144	1
NMTAP	44	144	7
NMTAP	44	192	0
NMTAP	44	192	2
NMTAP	44	288	3
NMTAP	44	288	5
NMTAP	44	336	4
NMHLD	44	336	6	96
NMTAP	45	48	7
NMSTR	45	96	0
NMSI_	45	96	0	96	48	4
NMSTR	45	96	5
NMSI_	45	96	5	96	48	7
EXTAP	45	168	0
EXTAP	45	168	5
NMTAP	45	288	3
NMTAP	45	288	6
NMTAP	45	336	2
NMTAP	46	0	1
NMTAP	46	0	4
NMTAP	46	48	5
NMTAP	46	96	3
NMTAP	46	96	6
NMTAP	46	144	2
NMTAP	46	192	1
NMTAP	46	192	3
NMTAP	46	264	0
NMTAP	46	264	7
NMTAP	46	336	4
NMSTR	46	336	6
NMSXL	46	336	6	96	144	2
NMTAP	47	48	3
NMTAP	47	144	2
NMTAP	47	240	1
NMTAP	47	288	1
NMTAP	47	288	3
NMSTR	48	0	7
NMSI_	48	0	7	96	48	3
NMSTR	48	96	3
NMSV_	48	96	3	96	48	0
NMSV_	48	96	3	96	48	6
NMTAP	48	96	7
EXTAP	48	192	3
NMTAP	48	288	1
NMTAP	48	288	7
NMTAP	48	336	0
NMHLD	48	336	2	96
NMTAP	49	48	3
NMSTR	49	96	1
NMSI_	49	96	1	96	48	3
NMSTR	49	96	4
NMSI_	49	96	4	96	48	0
EXTAP	49	168	1
EXTAP	49	168	4
NMTAP	49	288	6
NMTAP	49	336	5
NMSTR	50	0	4
NMSI_	50	0	4	96	48	1
NMSI_	50	0	4	96	48	7
NMTAP	50	96	4
NMTAP	50	192	0
NMTAP	50	192	6
NMTAP	50	264	3
NMTAP	50	264	4
NMSTR	50	336	1
NMSI_	50	336	1	96	48	5
NMSTR	50	336	7
NMSI_	50	336	7	96	48	3
NMTAP	51	192	5
NMTAP	51	216	4
NMTAP	51	240	5
BRTAP	51	288	6
BRTAP	51	288	7
EXTAP	52	0	1
EXTAP	52	0	7
NMTAP	52	48	0
NMTAP	52	48	2
NMTAP	52	96	1
NMSTR	52	96	7
NMSI_	52	96	7	96	48	3
NMTAP	52	144	0
NMTAP	52	144	6
NMTAP	52	192	5
NMTAP	52	192	7
NMTAP	52	288	2
NMTAP	52	288	4
NMHLD	52	336	1	96
NMTAP	52	336	3
NMTAP	53	48	0
NMSTR	53	96	2
NMSI_	53	96	2	96	48	0
NMSTR	53	96	7
NMSI_	53	96	7	96	48	3
EXTAP	53	168	2
EXTAP	53	168	7
NMTAP	53	288	4
NMTAP	53	336	5
EXTAP	54	0	3
EXTAP	54	0	6
NMTAP	54	48	2
NMTAP	54	96	1
NMTAP	54	96	4
NMTAP	54	144	5
NMTAP	54	192	4
NMTAP	54	192	6
NMTAP	54	264	0
NMTAP	54	264	7
NMSTR	54	336	1
NMSXR	54	336	1	96	144	5
NMTAP	54	336	3
NMTAP	55	48	4
BRTAP	55	144	3
BRSTR	55	192	3
BRSCR	55	192	3	96	96	7
EXTAP	56	0	3
NMTAP	56	48	2
NMTAP	56	96	0
NMTAP	56	96	1
NMTAP	56	144	7
NMSTR	56	192	6
NMSI_	56	192	6	96	48	2
NMSTR	56	240	0
NMSI_	56	240	0	96	48	4
NMTAP	56	288	6
NMTAP	56	336	0
NMTAP	57	48	3
NMTAP	57	48	5
NMSTR	57	96	1
NMSI_	57	96	1	96	48	3
NMSTR	57	96	4
NMSI_	57	96	4	96	48	0
EXTAP	57	168	1
EXTAP	57	168	4
NMTAP	57	288	2
NMTAP	57	288	6
EXTAP	58	0	1
EXTAP	58	0	5
EXTAP	58	48	0
EXTAP	58	48	6
EXTAP	58	96	1
EXTAP	58	96	5
EXTAP	58	144	0
EXTAP	58	144	6
EXTAP	58	192	1
EXTAP	58	192	5
EXTAP	58	264	3
EXTAP	58	264	4
EXSTR	58	336	0
NMSI_	58	336	0	96	48	5
EXSTR	58	336	1
NMSI_	58	336	1	96	48	4
CNSCL	59	96	4	0	48	2
CNSCR	59	96	5	0	48	7
NMTAP	59	192	1
NMTAP	59	216	0
NMTAP	59	240	1
NMTAP	59	264	0
NMTAP	59	288	1
NMTAP	59	312	0
NMTAP	59	336	1
NMTAP	60	0	2
NMTAP	60	0	6
NMTAP	60	48	3
NMTAP	60	48	5
BRTAP	60	96	1
BRTAP	60	96	7
EXTAP	60	192	3
EXTAP	60	192	4
NMTAP	60	240	6
NMTAP	60	264	7
NMSTR	60	312	1
NMSXL	60	312	1	96	216	4
NMSTR	60	336	0
NMSUL	60	336	0	96	192	5
NMTAP	61	336	3
NMTAP	61	336	4
NMHLD	62	48	2	192
NMTAP	62	48	3
NMTTP	62	144	1	E	0	M1
NMTTP	62	168	0	E	0	M1
NMTTP	62	192	7	E	0	M1
NMTTP	62	216	6	E	0	M1
NMTTP	62	240	5	E	0	M1
EXTAP	62	288	1
EXTAP	62	288	3
EXHLD	63	0	0	288
EXHLD	63	0	5	288
EXTAP	63	336	6
EXTAP	63	336	7
EXTAP	64	48	0
EXTAP	64	48	5
EXTAP	64	96	1
EXTAP	64	96	6
EXSTR	64	144	2
NMSLR	64	144	2	96	96	1
EXSTR	64	144	7
NMSLL	64	144	7	96	96	0
EXTAP	65	0	2
NMTAP	65	48	2
NMTAP	65	96	3
NMTAP	65	144	3
NMTAP	65	192	4
NMHLD	65	240	5	96
NMHLD	65	336	6	96
NMSTR	66	48	7
NMSCL	66	48	7	96	96	4
NMTAP	66	96	7
NMTAP	66	144	7
NMTAP	66	240	3
NMTAP	66	288	3
NMTAP	66	336	2
EXTAP	67	0	2
EXTAP	67	0	3
EXTAP	67	96	6
EXTAP	67	96	7
NMTAP	67	192	4
NMTAP	67	192	5
NMTAP	67	264	1
NMTAP	67	264	6
NMSTR	67	336	2
NMSCL	67	336	2	96	144	5
NMTAP	67	336	3
NMTAP	68	48	3
NMTAP	68	96	4
NMHLD	68	144	4	144
NMTAP	68	240	3
NMTAP	68	288	3
EXHLD	69	0	6	432
NMTTP	69	192	4	B	0	M1
NMTAP	69	336	2
NMHLD	70	48	1	336
NMTTP	70	192	3	B	0	M1
NMTAP	70	288	5
NMHLD	71	0	6	432
NMTTP	71	192	4	B	0	M1
NMTTP	71	192	4	A	0	M1
NMTAP	71	336	2
NMHLD	72	48	1	336
NMTTP	72	192	3	B	0	M1
NMTTP	72	192	3	A	0	M1
NMTAP	72	288	5
EXHLD	73	0	5	192
NMTTP	73	96	7	B	0	M1
NMTTP	73	96	7	A	0	M1
NMHLD	73	192	2	192
NMTTP	73	288	0	B	0	M1
NMTTP	73	288	0	A	0	M1
NMHLD	74	0	5	192
NMTTP	74	96	7	B	0	M1
NMTTP	74	96	7	A	0	M1
NMTAP	74	192	2
NMTAP	74	288	3
NMTAP	74	288	4
EXTAP	75	0	2
EXHLD	75	0	6	192
NMTTP	75	96	4	B	0	M1
NMTTP	75	96	4	A	0	M1
NMHLD	75	192	1	192
NMTTP	75	288	3	B	0	M1
NMTTP	75	288	3	A	0	M1
NMHLD	76	0	6	192
NMTTP	76	96	4	B	0	M1
NMTTP	76	96	4	A	0	M1
NMSTR	76	192	0
NMSI_	76	192	0	96	48	4
EXHLD	77	0	3	384
EXSTR	77	0	7
NMSCL	77	0	7	96	384	0
NMTAP	78	48	4
NMSTR	78	96	4
NMSI_	78	96	4	96	48	1
NMSTR	78	192	4
NMSI_	78	192	4	96	48	7
EXTAP	79	0	0
EXTAP	79	0	6
NMSTR	79	96	5
NMSI_	79	96	5	96	48	7
NMSTR	79	144	4
NMSI_	79	144	4	96	48	0
NMSTR	79	336	3
NMSLR	79	336	3	96	96	7
NMTAP	80	48	0
NMTAP	80	96	1
NMTAP	80	144	2
NMTAP	80	240	4
NMTAP	80	240	5
NMTAP	80	288	4
NMTAP	80	288	5
NMHLD	81	0	6	576
NMHLD	81	0	7	576
BRTAP	82	288	4
BRTAP	82	288	5
EXTAP	83	0	2
EXTAP	83	0	4
NMTAP	83	48	1
NMTAP	83	48	3
NMTAP	83	96	2
NMSTR	83	96	4
NMSI_	83	96	4	96	48	0
NMTAP	83	144	3
NMTAP	83	144	5
NMTAP	83	192	4
NMTAP	83	192	6
NMTAP	83	288	1
NMTAP	83	288	7
NMTAP	83	336	0
NMHLD	83	336	2	96
NMTAP	84	48	3
NMSTR	84	96	0
NMSI_	84	96	0	96	48	4
NMSTR	84	96	5
NMSI_	84	96	5	96	48	7
EXTAP	84	168	0
EXTAP	84	168	5
NMTAP	84	288	3
NMTAP	84	336	2
EXTAP	85	0	1
EXTAP	85	0	4
NMTAP	85	48	5
NMTAP	85	96	3
NMTAP	85	96	6
NMTAP	85	144	2
NMTAP	85	192	1
NMTAP	85	192	3
NMTAP	85	264	0
NMTAP	85	264	7
NMTAP	85	336	4
NMSTR	85	336	6
NMSXL	85	336	6	96	144	2
NMTAP	86	48	3
BRTAP	86	144	4
BRSTR	86	192	4
BRSCL	86	192	4	96	96	0
EXTAP	87	0	4
NMTAP	87	48	5
NMTAP	87	96	6
NMTAP	87	96	7
NMTAP	87	144	0
NMSTR	87	192	1
NMSI_	87	192	1	96	48	5
NMSTR	87	240	7
NMSI_	87	240	7	96	48	3
NMTAP	87	288	1
NMTAP	87	336	7
NMTAP	88	48	2
NMTAP	88	48	4
NMSTR	88	96	3
NMSI_	88	96	3	96	48	7
NMSTR	88	96	6
NMSI_	88	96	6	96	48	4
EXTAP	88	168	3
EXTAP	88	168	6
NMTAP	88	288	1
NMTAP	88	288	5
EXTAP	89	0	2
EXTAP	89	0	6
EXTAP	89	48	1
EXTAP	89	48	7
EXTAP	89	96	2
EXTAP	89	96	6
EXTAP	89	144	1
EXTAP	89	144	7
EXTAP	89	192	2
EXTAP	89	192	6
EXTAP	89	264	3
EXTAP	89	264	4
EXSTR	89	336	6
NMSI_	89	336	6	96	48	3
EXSTR	89	336	7
NMSI_	89	336	7	96	48	2
CNSCL	90	96	2	0	48	0
CNSCR	90	96	3	0	48	5
NMTAP	90	192	6
NMTAP	90	216	7
NMTAP	90	240	6
NMTAP	90	264	7
NMTAP	90	288	6
NMTAP	90	312	7
NMTAP	90	336	6
NMTAP	91	0	1
NMTAP	91	0	5
NMTAP	91	48	2
NMTAP	91	48	4
BRTAP	91	96	0
BRTAP	91	96	6
EXTAP	91	192	3
EXTAP	91	192	4
NMSTR	91	240	1
NMSV_	91	240	1	96	144	3
NMSTR	91	264	0
BRSLL	91	264	0	96	120	4
NMTAP	92	192	0
NMTAP	92	192	7
NMSTR	92	288	6
NMSI_	92	288	6	96	48	2
NMSTR	92	336	2
NMSI_	92	336	2	96	48	6
NMTAP	93	96	3
NMTAP	93	120	3
NMTAP	93	168	1
NMTAP	93	168	5
NMTAP	93	240	7
NMTAP	93	288	0
NMTAP	93	288	6
EXTAP	94	0	2
EXTAP	94	0	4
NMTAP	94	48	4
NMTAP	94	96	3
NMTAP	94	96	5
NMTAP	94	144	5
NMTAP	94	192	4
NMTAP	94	192	6
NMTAP	94	264	0
NMTAP	94	264	7
NMTAP	94	336	1
NMTAP	94	336	3
NMSTR	95	0	2
BRSI_	95	0	2	96	48	6
NMTAP	95	48	2
NMSTR	95	96	5
BRSI_	95	96	5	96	48	1
NMTAP	95	144	5
BXTAP	95	192	7
BXTAP	95	264	2
BXTAP	95	336	3
EXTAP	96	0	4
EXTAP	96	0	6
NMTAP	96	48	4
NMTAP	96	96	3
NMTAP	96	96	5
NMTAP	96	144	3
NMTAP	96	192	2
NMTAP	96	192	4
NMSTR	96	288	1
NMSI_	96	288	1	96	48	5
NMSTR	96	336	5
NMSI_	96	336	5	96	48	1
NMTAP	97	96	4
NMTAP	97	120	4
NMTAP	97	168	2
NMTAP	97	168	6
NMTAP	97	240	0
NMTAP	97	288	1
NMTAP	97	288	7
EXTAP	98	0	3
EXTAP	98	0	5
NMTAP	98	48	3
NMTAP	98	96	2
NMTAP	98	96	4
NMTAP	98	144	2
NMTAP	98	192	1
NMTAP	98	192	3
NMTAP	98	264	0
NMTAP	98	264	7
NMSTR	98	336	4
NMSXR	98	336	4	96	144	0
NMTAP	98	336	6
NMTAP	99	48	5
NMTAP	99	96	6
NMTAP	99	144	7
NMTAP	99	240	6
NMTAP	99	264	7
NMTAP	99	288	6
NMTAP	99	336	1
NMTAP	99	360	0
NMSTR	100	0	1
NMSI_	100	0	1	96	240	6
NMTTP	100	144	3	E	0	M1
NMTTP	100	240	5	E	0	M1
NMSTR	100	336	4
NMSI_	100	336	4	96	240	7
NMTTP	101	48	3	E	0	M1
NMTTP	101	96	2	B	0	M1
NMTTP	101	144	2	E	0	M1
NMTTP	101	240	1	E	0	M1
NMTTP	101	288	0	A	0	M1
NMHLD	102	0	1	96
NMHLD	102	0	6	96
NMTAP	102	192	2
NMTAP	102	264	1
NMTAP	102	264	3
NMSTR	102	336	0
NMSSL	102	336	0	96	288	4
NMSTR	102	336	4
BRSSL	102	336	4	96	288	0

T_REC_TAP	345
T_REC_BRK	12
T_REC_XTP	90
T_REC_BXX	3
T_REC_HLD	42
T_REC_XHO	16
T_REC_BHO	0
T_REC_BXH	0
T_REC_STR	78
T_REC_BST	2
T_REC_XST	11
T_REC_XBS	0
T_REC_TTP	30
T_REC_THO	0
T_REC_SLD	86
T_REC_BSL	7
T_REC_ALL	722
T_NUM_TAP	554
T_NUM_BRK	24
T_NUM_HLD	58
T_NUM_SLD	86
T_NUM_ALL	722
T_JUDGE_TAP	571
T_JUDGE_HLD	277
T_JUDGE_SLD	93
T_JUDGE_ALL	941
TTM_EACHPAIRS	176
TTM_SCR_TAP	277000
TTM_SCR_BRK	62400
TTM_SCR_HLD	58000
TTM_SCR_SLD	129000
TTM_SCR_ALL	526400
TTM_SCR_S	508300
TTM_SCR_SS	524000
TTM_RAT_ACV	10045

