VERSION	0.00.00	1.04.00
FES_MODE	0
BPM_DEF	170.000	170.000	170.000	170.000
MET_DEF	4	4
RESOLUTION	384
CLK_DEF	384
COMPATIBLE_CODE	MA2

BPM	0	0	170.000
MET	0	0	4	4

NMHLD	2	0	2	576
NMHLD	3	0	4	192
NMHLD	4	0	5	576
NMHLD	5	0	3	192
NMHLD	6	0	2	576
NMHLD	7	0	4	192
NMSTR	8	0	3
NMSXL	8	0	3	96	288	3
NMSXR	8	0	3	96	288	3
NMTAP	9	192	2
NMTAP	9	192	4
NMTAP	10	0	3
NMTAP	10	0	4
NMTAP	10	96	3
NMTAP	10	96	4
NMSTR	10	192	3
NMSCL	10	192	3	96	240	0
NMSTR	10	192	4
NMSCR	10	192	4	96	240	7
BRTAP	11	288	0
BRTAP	11	288	7
NMTAP	12	0	1
NMTAP	12	48	1
NMTAP	12	96	0
NMTAP	12	192	6
NMTAP	12	240	6
NMTAP	12	288	7
NMHLD	13	0	1	96
NMTAP	13	96	3
NMHLD	13	192	6	96
NMTAP	13	288	4
NMTAP	14	0	1
NMTAP	14	48	1
NMTAP	14	96	0
NMTAP	14	192	6
NMTAP	14	240	6
NMTAP	14	288	7
NMTAP	15	0	0
NMTAP	15	0	5
NMTAP	15	96	0
NMTAP	15	96	5
NMTAP	15	192	2
NMTAP	15	192	7
NMTAP	15	288	2
NMTAP	15	288	7
NMTAP	16	0	1
NMTAP	16	48	1
NMTAP	16	96	0
NMTAP	16	192	6
NMTAP	16	240	6
NMTAP	16	288	7
NMHLD	17	0	2	96
NMTAP	17	96	3
NMHLD	17	192	5	96
NMTAP	17	288	4
NMHLD	18	0	2	96
NMHLD	18	0	4	96
EXTAP	18	192	3
EXTAP	18	192	5
EXTAP	18	264	2
EXTAP	18	264	6
BXTAP	18	336	1
BXSTR	18	336	7
NMSUL	18	336	7	96	240	4
NMTAP	20	0	2
NMTAP	20	0	3
NMHLD	20	96	2	192
NMHLD	20	96	3	192
NMTAP	21	0	1
NMTAP	21	0	3
NMHLD	21	96	1	192
NMHLD	21	96	3	192
NMHLD	22	0	1	192
NMHLD	22	192	2	192
NMSTR	23	0	3
NMSV_	23	0	3	96	144	4
NMTAP	24	0	4
NMTAP	24	0	5
NMHLD	24	96	4	192
NMHLD	24	96	5	192
NMTAP	25	0	4
NMTAP	25	0	6
NMHLD	25	96	4	192
NMHLD	25	96	6	192
NMHLD	26	0	7	192
NMHLD	26	192	6	192
NMTAP	27	0	5
NMTAP	27	96	4
NMTAP	27	96	6
BRTAP	27	192	0
BRTAP	27	192	7
NMTAP	28	0	1
NMTAP	28	96	0
NMTAP	28	96	1
NMTAP	28	192	2
NMTAP	28	240	2
NMTAP	28	288	4
NMTAP	29	0	5
NMTAP	29	96	3
NMTAP	29	96	5
NMTAP	29	192	6
NMTAP	29	240	6
NMTAP	29	288	7
NMTTP	30	0	2	E	0	M1
NMTTP	30	96	4	E	0	M1
NMTTP	30	192	0	E	0	M1
NMTTP	30	288	6	E	0	M1
NMTAP	31	0	7
NMTAP	31	96	0
NMTAP	31	96	6
NMTAP	31	192	1
NMTAP	31	192	5
NMTAP	32	0	6
NMTAP	32	96	6
NMTAP	32	96	7
NMTAP	32	192	5
NMTAP	32	240	5
NMTAP	32	288	3
NMTAP	33	0	2
NMTAP	33	96	2
NMTAP	33	96	4
NMTAP	33	192	1
NMTAP	33	240	1
NMTAP	33	288	0
NMHLD	34	0	2	96
NMHLD	34	96	0	96
NMHLD	34	192	7	96
NMHLD	34	288	5	96
NMTTP	35	0	3	B	0	M1
NMTTP	35	0	4	B	0	M1
NMTTP	35	0	4	E	1	M1
EXSTR	36	0	1
NMSXR	36	0	1	96	480	5
NMHLD	36	0	3	576
NMHLD	38	0	4	576
EXSTR	38	0	6
NMSXL	38	0	6	96	480	2
NMSTR	40	0	1
NMSXL	40	0	1	96	480	7
NMHLD	40	0	5	576
NMTAP	41	288	6
NMTAP	42	0	6
NMTAP	42	0	7
NMTAP	42	96	5
NMTAP	42	144	5
NMTAP	42	192	4
NMTAP	42	288	3
NMTAP	42	288	6
NMTAP	42	336	3
NMTAP	42	336	6
EXTAP	43	48	2
EXTAP	43	48	5
EXTAP	43	96	2
EXTAP	43	96	5
EXTAP	43	192	3
EXTAP	43	192	4
BRTAP	43	288	0
BRTAP	43	288	7
NMTAP	44	0	0
NMTAP	44	0	1
NMTAP	44	96	2
NMTAP	44	96	3
NMTAP	44	192	4
NMTAP	44	192	5
NMTAP	44	288	6
NMTAP	44	288	7
NMSTR	45	0	6
NMSCL	45	0	6	96	96	3
NMSTR	45	0	7
NMSCR	45	0	7	96	96	2
NMTAP	45	288	2
NMTAP	45	288	3
NMTAP	46	0	0
NMTAP	46	48	0
NMTAP	46	96	7
NMHLD	46	192	6	72
NMHLD	46	264	5	72
NMTAP	46	336	4
NMTAP	47	48	2
NMTAP	47	48	3
NMTAP	47	96	2
NMTAP	47	96	3
NMTAP	47	192	1
NMTAP	47	192	4
NMTAP	47	288	0
NMTAP	47	288	5
NMTAP	48	0	6
NMTAP	48	0	7
NMTAP	48	96	4
NMTAP	48	96	5
NMTAP	48	192	2
NMTAP	48	192	3
NMTAP	48	288	0
NMTAP	48	288	1
NMSTR	49	0	0
NMSCL	49	0	0	96	96	5
NMSTR	49	0	1
NMSCR	49	0	1	96	96	4
NMTAP	49	288	4
NMTAP	49	288	5
NMTAP	50	0	2
NMTAP	50	48	2
NMTAP	50	96	3
NMTAP	50	192	2
NMTAP	50	192	4
NMTAP	50	264	1
NMTAP	50	264	5
BRSTR	50	336	0
NMSUL	50	336	0	96	144	3
BRSTR	50	336	6
NMSUR	50	336	6	96	144	3
NMTAP	51	288	2
NMTAP	51	288	4
NMTAP	52	0	2
NMTAP	52	0	3
NMTAP	52	96	0
NMTAP	52	96	1
NMTAP	52	192	6
NMTAP	52	192	7
NMTAP	52	288	4
NMTAP	52	288	5
NMSTR	53	0	4
NMSCL	53	0	4	96	96	1
NMSTR	53	0	5
NMSCR	53	0	5	96	96	0
NMTAP	53	288	0
NMTAP	53	288	1
NMTAP	54	0	2
NMTAP	54	48	2
NMTAP	54	96	4
NMHLD	54	192	5	72
NMHLD	54	264	6	72
NMTAP	54	336	7
NMTAP	55	48	0
NMTAP	55	48	1
NMTAP	55	144	2
NMTAP	55	144	6
BRTAP	55	192	2
BRTAP	55	192	6
NMTAP	56	0	4
NMTAP	56	0	5
NMTAP	56	96	6
NMTAP	56	96	7
NMTAP	56	192	0
NMTAP	56	192	1
NMTAP	56	288	2
NMTAP	56	288	3
NMSTR	57	0	2
NMSCL	57	0	2	96	96	7
NMSTR	57	0	3
NMSCR	57	0	3	96	96	6
NMTAP	57	288	0
NMTAP	57	288	6
EXTAP	58	0	1
EXTAP	58	0	5
EXTAP	58	48	1
EXTAP	58	48	5
EXTAP	58	96	1
EXTAP	58	96	5
EXTAP	58	192	2
EXTAP	58	192	4
EXTAP	58	264	3
EXTAP	58	264	5
EXSTR	58	336	4
NMSI_	58	336	4	96	144	0
EXSTR	58	336	6
NMSI_	58	336	6	96	144	3
NMTAP	59	288	1
NMTAP	59	288	5
NMTAP	60	0	2
NMTAP	60	0	6
NMTAP	60	48	2
NMTAP	60	48	6
NMTAP	60	96	2
NMTAP	60	96	6
NMTAP	60	192	1
NMTAP	60	192	7
NMTAP	60	264	0
NMTAP	60	264	6
BRSTR	60	336	0
NMSCR	60	336	0	96	192	3
BRSTR	60	336	7
NMSCL	60	336	7	96	192	4
CNSV_	61	240	3	0	144	1
CNSV_	61	240	4	0	144	6
NMTAP	62	192	0
NMTAP	62	192	7
NMTAP	62	288	0
NMTAP	62	288	7
NMHLD	63	0	1	192
NMTAP	63	192	3
NMTAP	63	288	2
NMTAP	63	288	3
NMTAP	63	336	2
NMTAP	63	336	3
NMTAP	64	48	3
NMTAP	64	48	4
NMTAP	64	144	4
NMTAP	64	144	5
NMTAP	64	240	3
NMTAP	64	240	6
NMTAP	64	288	3
NMTAP	64	288	6
NMTAP	65	0	7
NMTAP	65	48	7
NMTAP	65	96	1
NMTAP	65	96	7
NMTAP	65	192	0
NMTAP	65	240	0
NMTAP	65	288	0
NMTAP	65	288	6
NMTAP	66	0	5
NMTAP	66	48	5
NMTAP	66	96	4
NMTAP	66	96	5
NMTAP	66	192	2
NMTAP	66	240	2
NMTAP	66	288	2
NMTAP	66	288	3
NMTAP	67	0	1
NMTAP	67	48	1
NMTAP	67	96	3
NMTAP	67	144	3
NMTAP	67	192	2
NMTAP	67	240	2
NMTAP	67	288	2
NMTAP	67	288	3
NMTAP	68	0	5
NMTAP	68	48	5
NMTAP	68	96	4
NMTAP	68	144	4
NMTAP	68	192	6
NMTAP	68	240	6
NMTAP	68	288	6
NMTAP	68	288	7
NMHLD	69	0	0	768
NMTAP	69	192	2
NMTAP	70	0	3
NMTAP	70	96	3
NMTAP	70	192	4
NMHLD	71	0	7	576
NMTAP	71	192	5
NMTAP	72	0	4
NMTAP	72	96	4
NMTAP	72	192	3
NMTAP	72	288	2
NMTAP	72	288	6
NMHLD	73	0	2	192
NMTAP	73	96	3
NMHLD	73	192	5	192
NMTAP	73	288	4
NMHLD	74	0	1	192
NMTAP	74	96	3
NMHLD	74	192	6	192
NMTAP	74	288	4
NMHLD	75	0	2	192
NMTAP	75	96	0
NMHLD	75	192	5	192
NMTAP	75	288	7
NMHLD	76	0	3	192
NMTAP	76	96	0
NMHLD	76	192	4	96
NMSTR	76	288	7
NMSCL	76	288	7	96	384	0
NMTTP	78	96	7	E	0	M1
NMTTP	78	192	6	E	0	M1
NMTTP	78	288	5	E	0	M1
NMTTP	79	0	4	E	0	M1
NMTTP	79	96	3	E	0	M1
NMTTP	79	192	2	E	0	M1
NMTTP	79	288	1	E	0	M1
NMTTP	80	0	0	E	0	M1
NMTTP	80	96	0	C	0	M1
NMTTP	80	192	3	B	0	M1
NMTTP	80	192	4	B	0	M1
NMTHO	81	0	0	384	C	0	M1
BXTAP	82	288	0
BXTAP	82	288	7
NMTAP	83	0	0
NMTAP	83	0	1
NMTAP	83	96	4
NMTAP	83	96	5
NMTAP	83	192	6
NMTAP	83	192	7
NMTAP	83	288	2
NMTAP	83	288	3
NMSTR	84	0	0
NMSCR	84	0	0	96	96	3
NMSTR	84	0	4
NMSCR	84	0	4	96	96	7
NMTAP	84	288	3
NMTAP	84	288	7
NMTAP	85	0	6
NMTAP	85	48	6
NMTAP	85	96	4
NMHLD	85	192	3	72
NMHLD	85	264	2	72
NMTAP	85	336	1
NMTAP	86	48	0
NMTAP	86	48	1
NMTAP	86	144	2
NMTAP	86	144	6
BRTAP	86	192	2
BRTAP	86	192	6
NMTAP	87	0	6
NMTAP	87	0	7
NMTAP	87	96	2
NMTAP	87	96	3
NMTAP	87	192	0
NMTAP	87	192	1
NMTAP	87	288	4
NMTAP	87	288	5
NMSTR	88	0	3
NMSCL	88	0	3	96	96	0
NMSTR	88	0	7
NMSCL	88	0	7	96	96	4
NMTAP	88	288	1
NMTAP	88	288	5
NMTAP	89	0	0
NMTAP	89	0	6
NMTAP	89	48	0
NMTAP	89	48	6
NMTAP	89	96	0
NMTAP	89	96	6
NMTAP	89	192	1
NMTAP	89	192	7
NMTAP	89	264	2
NMTAP	89	264	6
BRSTR	89	336	3
NMSXR	89	336	3	96	240	0
BRSTR	89	336	5
NMSXL	89	336	5	96	240	0
NMTAP	91	0	1
NMTAP	91	0	7
NMTAP	91	48	1
NMTAP	91	48	7
NMTAP	91	96	1
NMTAP	91	96	7
BRSTR	91	192	2
BRSXR	91	192	2	96	288	4
BRSTR	91	192	5
BRSXL	91	192	5	96	288	3
NMTAP	93	0	3
NMTAP	93	0	4
NMTAP	93	96	2
NMTAP	93	96	5
NMTAP	93	192	1
NMTAP	93	192	6
NMTAP	93	288	0
NMTAP	93	288	7
NMTAP	94	0	1
NMTAP	94	48	0
NMTAP	94	96	2
NMTAP	94	96	7
NMTAP	94	192	6
NMTAP	94	240	7
NMTAP	94	288	0
NMTAP	94	288	5
NMTAP	95	0	6
NMTAP	95	0	7
NMTAP	95	96	0
NMTAP	95	96	1
NMTAP	95	192	0
NMTAP	95	192	7
NMTAP	95	264	1
NMTAP	95	264	6
NMTAP	95	336	2
NMTAP	95	336	5
BRTAP	96	0	2
BRTAP	96	0	5
NMTAP	96	96	3
NMTAP	96	96	4
NMTAP	96	192	2
NMTAP	96	240	3
NMTAP	96	288	1
NMTAP	96	288	4
NMTAP	97	0	5
NMTAP	97	48	4
NMTAP	97	96	3
NMTAP	97	96	6
NMTAP	97	192	1
NMTAP	97	240	0
NMTAP	97	288	2
NMTAP	97	288	7
NMHLD	98	0	0	96
NMHLD	98	0	7	96
NMTAP	98	192	1
NMTAP	98	192	6
NMTAP	98	264	2
NMTAP	98	264	5
NMTAP	98	336	3
NMTAP	98	336	4
BRTAP	99	0	3
BRTAP	99	0	4
NMTAP	99	96	5
NMTAP	99	96	6
NMTAP	99	192	0
NMTAP	99	192	7
NMTAP	99	288	1
NMTAP	99	288	2
EXSTR	100	0	3
NMSXR	100	0	3	96	288	3
EXTAP	100	0	4
EXSTR	101	0	4
NMSXL	101	0	4	96	288	4
EXSTR	102	0	3
BRSI_	102	0	3	96	168	1
CNSCL	102	264	1	0	72	0
CNSV_	102	336	0	0	240	6
CNSCL	103	192	6	0	72	5
CNSI_	103	264	5	0	168	3

T_REC_TAP	329
T_REC_BRK	14
T_REC_XTP	21
T_REC_BXX	3
T_REC_HLD	50
T_REC_XHO	0
T_REC_BHO	0
T_REC_BXH	0
T_REC_STR	18
T_REC_BST	8
T_REC_XST	7
T_REC_XBS	1
T_REC_TTP	18
T_REC_THO	1
T_REC_SLD	32
T_REC_BSL	3
T_REC_ALL	505
T_NUM_TAP	393
T_NUM_BRK	29
T_NUM_HLD	51
T_NUM_SLD	32
T_NUM_ALL	505
T_JUDGE_TAP	419
T_JUDGE_HLD	238
T_JUDGE_SLD	35
T_JUDGE_ALL	692
TTM_EACHPAIRS	153
TTM_SCR_TAP	196500
TTM_SCR_BRK	75400
TTM_SCR_HLD	51000
TTM_SCR_SLD	48000
TTM_SCR_ALL	370900
TTM_SCR_S	357000
TTM_SCR_SS	368000
TTM_RAT_ACV	10078

