VERSION	0.00.00	1.04.00
FES_MODE	0
BPM_DEF	195.000	195.000	195.000	195.000
MET_DEF	4	4
RESOLUTION	384
CLK_DEF	384
COMPATIBLE_CODE	MA2

BPM	0	0	195.000
MET	0	0	4	4

NMTTP	1	240	3	B	0	M1
NMTTP	1	240	4	B	0	M1
NMTTP	1	240	4	E	1	M1
EXSTR	6	288	0
NMSI_	6	288	0	96	144	6
CNSUR	7	144	6	0	144	2
CNSUL	7	288	2	0	192	5
EXHLD	8	240	2	144
EXHLD	8	240	5	144
EXHLD	9	96	2	48
EXHLD	9	96	5	48
EXHLD	9	192	2	48
EXHLD	9	192	5	48
EXTAP	9	288	2
EXTAP	9	288	5
NMTAP	10	0	3
NMTAP	10	0	4
NMTAP	10	48	1
NMTAP	10	72	3
NMTAP	10	96	2
NMTAP	10	144	6
NMTAP	10	168	4
NMTAP	10	192	5
NMTAP	10	264	2
NMTAP	10	264	6
NMTAP	10	288	2
NMTAP	10	288	6
NMTAP	11	0	1
NMTAP	11	0	7
NMTAP	11	48	6
NMTAP	11	96	4
NMTAP	11	96	5
NMTAP	11	144	3
NMTAP	11	192	2
NMTAP	11	192	4
NMTAP	11	240	2
NMTAP	11	240	4
NMTAP	11	288	1
NMHLD	11	336	0	96
NMHLD	11	336	1	96
NMTAP	12	96	2
NMTAP	12	96	3
NMTAP	12	144	4
NMTAP	12	192	3
NMTAP	12	192	5
NMTAP	12	240	3
NMTAP	12	240	5
NMTAP	12	336	6
NMTAP	12	336	7
NMTAP	13	48	6
NMTAP	13	72	4
NMTAP	13	96	5
NMTAP	13	144	1
NMTAP	13	168	3
NMTAP	13	192	2
EXTAP	13	240	3
EXTAP	13	240	5
EXTAP	13	288	6
EXTAP	13	336	6
EXTAP	14	0	0
EXTAP	14	0	7
EXTAP	14	48	1
EXTAP	14	96	2
EXTAP	14	96	6
EXTAP	14	144	2
EXTAP	14	144	6
NMTAP	14	240	4
NMSTR	14	288	5
NMSCR	14	288	5	96	48	0
NMTAP	15	0	4
NMTAP	15	48	3
NMSTR	15	96	2
NMSCL	15	96	2	96	48	7
NMTAP	15	192	3
NMTAP	15	240	4
NMTAP	15	288	5
NMTAP	15	336	6
NMTAP	16	0	0
NMTAP	16	0	7
NMTAP	16	48	1
NMTAP	16	96	2
NMTAP	16	96	3
NMTAP	16	144	2
NMTAP	16	144	3
NMTAP	16	192	4
NMTAP	16	240	3
NMTAP	16	240	5
NMTAP	16	288	3
NMTAP	16	288	5
NMTAP	17	0	6
NMHLD	17	48	6	48
NMTAP	17	96	4
NMHLD	17	144	4	48
NMTAP	17	192	3
NMHLD	17	240	3	48
NMTAP	17	288	1
NMHLD	17	336	1	48
NMSTR	18	0	7
NMSI_	18	0	7	96	48	3
NMTAP	18	48	7
NMSTR	18	96	0
NMSI_	18	96	0	96	48	4
NMTAP	18	144	0
NMSTR	18	192	5
NMSI_	18	192	5	96	48	2
NMTAP	18	240	5
BRTAP	18	288	1
NMTAP	19	0	0
NMTAP	19	0	1
NMTAP	19	48	2
NMTAP	19	96	1
NMTAP	19	96	3
NMSTR	19	192	0
NMSI_	19	192	0	96	48	4
NMTAP	19	192	6
BRTAP	19	288	0
NMTAP	19	288	4
NMHLD	19	336	5	96
NMHLD	20	48	4	96
NMTAP	20	144	7
NMSTR	20	192	7
NMSI_	20	192	7	96	48	3
NMTAP	20	288	1
BRTAP	20	288	7
NMSTR	21	0	2
NMSI_	21	0	2	96	48	7
NMSTR	21	0	4
NMSI_	21	0	4	96	48	6
NMSTR	21	192	3
NMSI_	21	192	3	96	48	1
NMSTR	21	192	5
NMSI_	21	192	5	96	48	0
NMTAP	22	0	2
NMTAP	22	0	4
NMTAP	22	48	2
NMTAP	22	48	4
NMTAP	22	96	5
NMTAP	22	144	5
NMTAP	22	192	4
NMTAP	22	192	6
NMTAP	22	240	4
NMTAP	22	240	6
NMTAP	22	288	7
NMTAP	22	336	7
NMHLD	23	0	0	48
NMHLD	23	0	6	48
NMHLD	23	96	1	48
NMHLD	23	96	7	48
NMHLD	23	192	2	48
NMHLD	23	192	4	48
NMHLD	23	288	3	48
NMHLD	23	288	5	48
NMSTR	24	0	0
BRSI_	24	0	0	96	48	2
NMSTR	24	0	7
BRSI_	24	0	7	96	48	5
BRTAP	24	192	0
BRTAP	24	192	1
NMTAP	24	288	7
NMSTR	25	0	0
NMSI_	25	0	0	96	96	4
NMSTR	25	0	6
NMSI_	25	0	6	96	48	1
CNSI_	25	144	1	0	48	3
EXTAP	25	288	3
EXTAP	25	288	5
NMSTR	26	0	6
NMSUL	26	0	6	96	48	2
NMTAP	26	64	2
NMTAP	26	128	1
NMSTR	26	192	1
NMSV_	26	192	1	96	48	4
NMTAP	26	256	5
NMTAP	26	320	6
NMSTR	27	0	7
NMSCL	27	0	7	96	48	4
NMTAP	27	64	3
NMTAP	27	128	2
NMSTR	27	192	2
NMSV_	27	192	2	96	48	4
NMTAP	27	256	5
NMTAP	27	320	6
NMSTR	28	0	6
NMSV_	28	0	6	96	48	5
NMTAP	28	64	3
NMTAP	28	128	2
CNSI_	28	144	5	0	48	3
NMSTR	28	192	2
NMSCL	28	192	2	96	48	0
EXTAP	28	256	4
NMTAP	28	320	5
EXTAP	29	0	6
EXTAP	29	48	6
EXSTR	29	96	7
BRSXR	29	96	7	96	96	6
EXSTR	29	192	0
BRSXL	29	192	0	96	96	1
NMSTR	30	0	7
NMSUL	30	0	7	96	192	4
NMHLD	31	0	2	48
NMHLD	31	0	4	48
NMHLD	31	96	1	48
NMHLD	31	96	3	48
NMHLD	31	192	3	48
NMHLD	31	192	4	48
NMHLD	31	288	2	48
NMHLD	31	288	3	48
NMHLD	32	0	1	48
NMHLD	32	0	4	48
NMSTR	32	96	2
NMSCL	32	96	2	96	96	7
NMSTR	32	96	3
NMSCR	32	96	3	96	96	6
NMHLD	33	0	2	48
NMHLD	33	0	4	48
NMHLD	33	96	1	48
NMHLD	33	96	3	48
NMHLD	33	192	3	48
NMHLD	33	192	4	48
NMHLD	33	288	2	48
NMHLD	33	288	3	48
NMHLD	34	0	1	48
NMHLD	34	0	4	48
NMSTR	34	96	2
NMSCL	34	96	2	96	96	7
NMSTR	34	96	3
NMSCR	34	96	3	96	96	6
NMSTR	35	0	1
NMSCR	35	0	1	96	96	5
NMTAP	35	0	5
NMTAP	35	96	6
NMTAP	35	192	7
NMHLD	35	240	7	96
NMSTR	35	336	4
NMSXR	35	336	4	96	192	0
NMTAP	36	48	5
NMTAP	36	144	6
NMTAP	36	240	7
NMTAP	36	336	6
NMSTR	37	0	6
NMSLL	37	0	6	96	96	2
NMTAP	37	96	1
NMTAP	37	192	0
NMHLD	37	240	0	96
NMSTR	37	336	3
NMSXL	37	336	3	96	240	7
NMTAP	38	48	2
NMTAP	38	144	1
NMTAP	38	240	0
NMTAP	38	288	0
NMTAP	39	0	7
NMTAP	39	96	4
NMSTR	39	96	6
NMSI_	39	96	6	96	48	1
NMSTR	39	192	5
NMSI_	39	192	5	96	48	2
EXSTR	39	288	0
NMSCL	39	288	0	96	96	4
NMSCR	39	288	0	96	96	4
EXTAP	40	192	3
EXTAP	40	192	5
EXTAP	40	240	2
EXTAP	40	240	6
EXTAP	40	288	2
EXTAP	40	288	6
NMTAP	41	0	0
NMSTR	41	96	1
NMSI_	41	96	1	96	96	6
NMTAP	41	192	3
NMTAP	41	288	3
NMTAP	42	0	0
NMSTR	42	96	1
NMSI_	42	96	1	96	96	6
NMSTR	42	96	2
NMSI_	42	96	2	96	96	5
NMHLD	43	0	4	96
NMHLD	43	0	7	96
NMTAP	43	192	3
NMSTR	43	192	5
NMSI_	43	192	5	96	48	2
NMSTR	43	288	2
NMSUR	43	288	2	96	192	5
NMSTR	44	288	5
NMSLR	44	288	5	96	96	1
NMHLD	45	0	2	576
CNSI_	45	96	1	0	96	6
CNSI_	45	192	6	0	96	4
CNSV_	45	288	4	0	96	3
CNSI_	46	0	3	0	96	0
BXTAP	46	192	0
NMSTR	47	0	6
NMSI_	47	0	6	96	48	3
NMTAP	47	48	6
NMTAP	47	96	2
NMTAP	47	144	2
NMSTR	47	192	1
NMSI_	47	192	1	96	48	4
NMTAP	47	240	1
NMTAP	47	288	5
NMTAP	47	336	5
NMSTR	48	0	6
NMSI_	48	0	6	96	48	2
NMTAP	48	48	6
NMSTR	48	96	0
NMSI_	48	96	0	96	48	4
NMTAP	48	144	0
NMSTR	48	192	7
NMSI_	48	192	7	96	48	3
NMTAP	48	240	7
NMSTR	48	288	1
NMSI_	48	288	1	96	48	5
NMTAP	48	336	1
NMTAP	49	0	6
NMTAP	49	48	6
NMTAP	49	96	4
NMTAP	49	144	4
NMTAP	49	192	3
NMTAP	49	240	3
NMTAP	49	288	1
NMSTR	49	336	1
NMSXL	49	336	1	96	192	0
NMTAP	50	48	7
NMTAP	50	96	7
NMHLD	50	144	6	144
EXTAP	50	288	7
NMTAP	51	0	4
NMTAP	51	0	5
NMTAP	51	96	2
NMTAP	51	96	3
NMTAP	51	192	0
NMTAP	51	192	1
NMSTR	51	288	6
NMSSR	51	288	6	96	192	2
NMTAP	51	288	7
NMTAP	52	0	0
NMTAP	52	96	1
NMTAP	52	144	1
NMTAP	52	240	0
NMSTR	52	288	0
NMSCR	52	288	0	96	192	5
NMTAP	53	0	5
NMTAP	53	96	6
NMTAP	53	144	6
NMTAP	53	240	7
NMSTR	53	288	7
NMSCL	53	288	7	96	192	2
NMTAP	54	0	2
NMTAP	54	96	1
NMTAP	54	144	1
NMTAP	54	240	0
NMSTR	54	288	0
NMSI_	54	288	0	96	48	4
NMSTR	55	0	7
NMSI_	55	0	7	96	48	5
NMSTR	55	96	1
NMSI_	55	96	1	96	48	3
NMSTR	55	192	6
NMSI_	55	192	6	96	48	4
NMSTR	55	288	0
NMSUL	55	288	0	96	96	2
NMTAP	56	0	6
EXTAP	56	144	7
EXTAP	56	192	7
NMTAP	56	288	3
NMTAP	56	288	6
NMSTR	57	0	1
NMSI_	57	0	1	96	48	7
NMSTR	57	192	0
NMSV_	57	192	0	96	48	3
NMSV_	57	192	0	96	48	5
NMSTR	58	0	6
NMSI_	58	0	6	96	96	0
NMSI_	58	0	6	96	144	0
CNSI_	58	192	0	0	96	4
CNSV_	58	240	0	0	48	2
NMSTR	59	0	6
NMSI_	59	0	6	96	48	1
NMSTR	59	96	2
NMSI_	59	96	2	96	48	5
NMSTR	59	192	7
NMSI_	59	192	7	96	48	3
EXTAP	60	0	1
EXTAP	60	0	7
EXTAP	60	48	1
EXTAP	60	48	7
BRTAP	60	144	3
BRTAP	60	144	5
NMTAP	60	240	2
NMTAP	60	240	3
NMTAP	60	288	2
NMSTR	60	288	3
BRSI_	60	288	3	96	48	5
NMSTR	61	0	3
BRSI_	61	0	3	96	48	6
NMSTR	61	96	3
BRSI_	61	96	3	96	48	7
NMSTR	61	192	3
BRSI_	61	192	3	96	48	0
EXTAP	61	288	3
BRHLD	62	0	7	96
NMTAP	62	96	1
NMTAP	62	144	1
NMTAP	62	192	5
NMTAP	62	240	5
NMTAP	62	288	3
NMTTP	63	0	3	B	1	M1
NMTTP	63	0	3	E	0	M1
NMTTP	63	0	3	D	0	M1
NMTTP	63	0	4	E	0	M1
NMTTP	63	0	4	D	0	M1
NMTTP	63	96	0	C	1	M1
NMTTP	63	96	1	B	0	M1
NMTTP	63	96	2	E	0	M1
NMTTP	63	96	5	B	0	M1
NMTTP	63	96	5	E	0	M1
NMTTP	63	192	0	A	0	M1
NMTTP	63	192	0	D	0	M1
NMTTP	63	192	6	A	0	M1
NMTTP	63	192	7	A	1	M1
NMTTP	63	192	7	D	0	M1
EXSTR	63	288	0
NMSCR	63	288	0	96	192	6
EXTAP	64	0	7
EXTAP	64	48	7
EXTAP	64	96	7
EXTAP	64	144	7
EXSTR	64	192	7
NMSI_	64	192	7	96	48	3
EXTAP	64	288	0
NMHLD	65	0	1	96
NMTAP	65	96	3
NMTAP	65	144	3
NMTAP	65	240	2
NMTAP	65	240	7
NMTAP	65	288	2
NMTAP	65	288	7
NMHLD	66	0	6	96
NMTAP	66	96	4
NMTAP	66	144	4
NMTAP	66	240	0
NMTAP	66	240	5
NMTAP	66	288	0
NMTAP	66	288	5
NMTAP	67	0	1
NMTAP	67	48	1
NMTAP	67	96	6
NMTAP	67	144	6
NMTAP	67	192	3
NMTAP	67	192	7
NMTAP	67	240	3
NMTAP	67	240	7
NMTAP	67	288	3
NMTAP	67	288	7
NMHLD	68	0	6	96
NMHLD	68	96	4	96
NMHLD	68	192	2	96
NMSTR	68	288	0
BRSCR	68	288	0	96	144	7
BRTAP	69	0	0
BRHLD	69	0	7	672
CNSUR	69	144	7	0	144	1
NMSTR	70	0	2
BRSI_	70	0	2	96	48	5
NMTTP	70	96	2	A	1	M1
BXTAP	70	288	4
NMSTR	71	0	2
NMSI_	71	0	2	96	48	7
NMTAP	71	48	2
NMSTR	71	96	6
NMSI_	71	96	6	96	48	3
NMTAP	71	144	6
NMSTR	71	192	0
NMSCR	71	192	0	96	144	4
NMTAP	71	240	0
NMTAP	71	288	5
NMTAP	71	336	5
NMTAP	72	0	6
NMTAP	72	48	6
NMSTR	72	96	7
NMSF_	72	96	7	96	48	3
NMTAP	72	144	7
EXTAP	72	336	2
EXTAP	72	336	4
NMTAP	73	48	1
NMTAP	73	72	3
NMTAP	73	96	0
NMTAP	73	144	6
NMTAP	73	168	4
NMTAP	73	192	7
NMTAP	73	240	2
NMTAP	73	288	2
NMSTR	73	336	1
NMSUL	73	336	1	96	144	4
NMTAP	73	336	4
EXTAP	74	48	4
EXTAP	74	96	5
EXTAP	74	144	6
NMTAP	74	240	6
NMSTR	74	288	7
NMSI_	74	288	7	96	48	3
NMTAP	75	0	3
NMTAP	75	48	2
NMSTR	75	96	2
BRSI_	75	96	2	96	48	0
NMTAP	75	192	6
NMHLD	75	240	7	96
NMTAP	75	336	4
NMTAP	76	0	4
NMSTR	76	96	1
BRSI_	76	96	1	96	48	7
NMTAP	76	192	3
NMTAP	76	240	4
NMSTR	76	288	4
NMSCR	76	288	4	96	96	0
NMSTR	77	0	0
NMSCR	77	0	0	96	96	4
NMTAP	77	96	4
NMTAP	77	192	0
NMTAP	77	240	0
NMTAP	77	336	2
NMHLD	77	336	6	96
NMTAP	78	48	4
NMTAP	78	96	3
NMTAP	78	144	2
NMSTR	78	192	1
BRSV_	78	192	1	96	48	4
NMSTR	78	192	7
BRSV_	78	192	7	96	48	4
BRTAP	78	288	1
BRTAP	78	288	7
NMSTR	79	0	5
NMSI_	79	0	5	96	48	0
NMTAP	79	48	5
NMSTR	79	96	1
NMSI_	79	96	1	96	48	4
NMTAP	79	144	1
NMSTR	79	192	7
NMSCL	79	192	7	96	144	3
NMTAP	79	240	7
NMTAP	79	288	2
NMTAP	79	336	2
NMTAP	80	0	1
NMTAP	80	48	1
NMSTR	80	96	0
NMSF_	80	96	0	96	48	4
NMTAP	80	144	0
EXTAP	80	336	3
EXTAP	80	336	5
BXTAP	81	48	2
BXTAP	81	48	6
BXTAP	81	96	2
BXTAP	81	96	6
BXTAP	81	144	7
BXTAP	81	192	7
BXTAP	81	240	6
BXTAP	81	288	5
BXTAP	81	336	4
BXTAP	82	0	3
BXTAP	82	48	2
BXTAP	82	96	1
BXSTR	82	144	0
NMSCR	82	144	0	96	48	3
NMTAP	82	240	5
NMTAP	82	288	6
NMSTR	82	336	7
NMSCL	82	336	7	96	48	4
NMTAP	83	0	7
NMTAP	83	48	2
NMTAP	83	96	1
NMSTR	83	144	0
NMSCR	83	144	0	96	48	3
NMTAP	83	192	0
NMTAP	83	240	5
NMTAP	83	288	6
NMSTR	83	336	7
NMSCL	83	336	7	96	48	4
NMTAP	84	0	7
NMTAP	84	48	3
NMTAP	84	96	2
NMSTR	84	144	1
NMSLR	84	144	1	96	96	5
NMTAP	84	192	1
NMTAP	84	240	7
NMTAP	84	288	7
EXSTR	85	0	6
NMSI_	85	0	6	96	48	2
EXSTR	85	0	7
NMSI_	85	0	7	96	48	3
EXTAP	85	96	6
EXTAP	85	96	7
EXSTR	85	192	0
NMSI_	85	192	0	96	48	4
EXSTR	85	192	1
NMSI_	85	192	1	96	48	5
EXTAP	85	288	0
EXTAP	85	288	1
NMTAP	86	0	3
NMTAP	86	0	6
NMTAP	86	48	2
NMTAP	86	96	1
NMTAP	86	96	5
NMTAP	86	144	1
NMTAP	86	144	5
NMTAP	86	192	2
NMTAP	86	216	4
NMTAP	86	240	3
NMTAP	86	264	4
NMTAP	86	288	2
NMTAP	86	312	4
NMTAP	86	336	3
NMTAP	86	360	4
NMTAP	87	0	3
NMSTR	87	96	4
NMSI_	87	96	4	96	48	1
NMTAP	87	96	5
BRSTR	87	192	4
NMSI_	87	192	4	96	48	7
BRTAP	87	192	6
BRTAP	87	288	2
NMHLD	87	336	2	96
NMTAP	88	48	3
NMSTR	88	96	3
NMSI_	88	96	3	96	48	6
BRTAP	88	192	1
BRSTR	88	192	3
NMSI_	88	192	3	96	48	0
BRTAP	88	288	3
NMTAP	88	288	5
NMSTR	89	0	2
NMSI_	89	0	2	96	48	7
NMSTR	89	0	4
NMSI_	89	0	4	96	48	6
EXTAP	89	96	2
EXTAP	89	96	4
NMSTR	89	192	3
NMSI_	89	192	3	96	48	1
NMSTR	89	192	5
NMSI_	89	192	5	96	48	0
EXTAP	89	288	3
EXTAP	89	288	5
NMTAP	90	0	2
NMTAP	90	0	4
NMTAP	90	48	2
NMTAP	90	48	4
NMTAP	90	96	3
NMTAP	90	96	5
NMTAP	90	144	3
NMTAP	90	144	5
NMTAP	90	192	2
NMTAP	90	192	6
NMTAP	90	240	2
NMTAP	90	240	6
NMTAP	90	288	1
NMTAP	90	288	5
NMTAP	90	336	1
NMTAP	90	336	5
NMHLD	91	0	0	48
NMHLD	91	0	6	48
NMHLD	91	96	1	48
NMHLD	91	96	7	48
NMHLD	91	192	3	48
NMHLD	91	192	6	48
EXTAP	91	288	1
EXTAP	91	288	4
NMTTP	92	0	2	B	0	M1
NMTTP	92	0	3	E	0	M1
NMTTP	92	0	3	D	0	M1
NMTTP	92	0	5	B	0	M1
NMTTP	92	0	5	E	0	M1
NMTTP	92	0	5	D	0	M1
NMTTP	92	96	1	B	0	M1
NMTTP	92	96	2	E	0	M1
EXTAP	92	192	4
EXTAP	92	240	4
EXTAP	92	288	3
NMTTP	93	0	0	B	0	M1
NMTTP	93	0	1	B	0	M1
NMTTP	93	0	1	E	0	M1
NMTTP	93	0	2	B	0	M1
NMTTP	93	0	3	E	0	M1
NMTTP	93	0	5	B	0	M1
NMTTP	93	0	5	E	0	M1
NMTTP	93	0	6	B	0	M1
NMTTP	93	0	6	A	0	M1
NMTTP	93	0	7	B	0	M1
NMTTP	93	0	7	E	1	M1
NMTTP	93	0	7	A	0	M1
EXTAP	93	288	3
EXTAP	93	288	5
NMSTR	94	0	6
NMSUL	94	0	6	96	48	2
NMTAP	94	64	2
NMTAP	94	128	1
NMTAP	94	160	1
NMSTR	94	192	0
NMSUR	94	192	0	96	48	4
NMTAP	94	256	5
NMTAP	94	320	6
NMTAP	94	352	6
NMSTR	95	0	7
NMSCL	95	0	7	96	48	4
NMTAP	95	64	3
NMTAP	95	128	2
NMTAP	95	160	2
NMSTR	95	192	1
NMSV_	95	192	1	96	48	4
NMTAP	95	256	4
NMTAP	95	320	5
NMTAP	95	352	5
NMSTR	96	0	6
NMSV_	96	0	6	96	48	5
NMTAP	96	64	2
NMTAP	96	128	1
CNSI_	96	144	5	0	48	3
NMTAP	96	160	1
NMSTR	96	192	0
NMSI_	96	192	0	96	48	3
NMTAP	96	256	4
NMTAP	96	320	5
NMTAP	96	352	5
EXTAP	97	0	6
EXTAP	97	48	1
EXTAP	97	48	7
EXTAP	97	96	1
EXSTR	97	96	7
BRSXR	97	96	7	96	96	6
NMSTR	97	192	0
BRSXL	97	192	0	96	96	1
NMSTR	98	0	7
NMSV_	98	0	7	96	48	4
NMSTR	98	96	0
NMSV_	98	96	0	96	48	3
BRTAP	98	192	7
NMHLD	99	0	2	24
NMHLD	99	0	4	24
NMHLD	99	48	2	24
NMHLD	99	48	4	24
NMHLD	99	96	1	24
NMHLD	99	96	3	24
NMHLD	99	144	1	24
NMHLD	99	144	3	24
NMHLD	99	192	3	24
NMHLD	99	192	4	24
NMHLD	99	240	3	24
NMHLD	99	240	4	24
NMHLD	99	288	2	24
NMHLD	99	288	3	24
NMHLD	99	336	2	24
NMHLD	99	336	3	24
BXHLD	100	0	1	48
BXHLD	100	0	4	48
NMSTR	100	96	2
NMSCL	100	96	2	96	96	7
NMSTR	100	96	3
NMSCR	100	96	3	96	96	6
NMTAP	100	144	2
NMTAP	100	144	3
NMHLD	101	0	2	24
NMHLD	101	0	4	24
NMHLD	101	48	2	24
NMHLD	101	48	4	24
NMHLD	101	96	1	24
NMHLD	101	96	3	24
NMHLD	101	144	1	24
NMHLD	101	144	3	24
NMHLD	101	192	3	24
NMHLD	101	192	4	24
NMHLD	101	240	3	24
NMHLD	101	240	4	24
NMHLD	101	288	2	24
NMHLD	101	288	3	24
NMHLD	101	336	2	24
NMHLD	101	336	3	24
BXHLD	102	0	1	48
BXHLD	102	0	4	48
NMSTR	102	96	2
NMSCL	102	96	2	96	96	7
NMSTR	102	96	3
NMSCR	102	96	3	96	96	6
NMTAP	102	144	2
NMTAP	102	144	3
NMHLD	103	0	1	24
NMHLD	103	0	5	24
NMHLD	103	48	1	24
NMHLD	103	48	5	24
NMHLD	103	96	0	24
NMHLD	103	96	4	24
NMHLD	103	144	0	24
NMHLD	103	144	4	24
NMHLD	103	192	2	24
NMHLD	103	192	5	24
NMHLD	103	240	2	24
NMHLD	103	240	5	24
NMHLD	103	288	1	24
NMHLD	103	288	4	24
NMHLD	103	336	1	24
NMHLD	103	336	4	24
BXHLD	104	0	0	48
BXHLD	104	0	5	48
NMSTR	104	96	1
NMSCL	104	96	1	96	48	7
NMSTR	104	96	4
NMSCR	104	96	4	96	48	6
NMTAP	104	144	1
NMTAP	104	144	4
NMHLD	105	0	6	24
NMHLD	105	0	7	24
NMHLD	105	48	6	24
NMHLD	105	48	7	24
NMHLD	105	96	0	24
NMHLD	105	96	5	24
NMHLD	105	144	0	24
NMHLD	105	144	5	24
NMHLD	105	192	2	24
NMHLD	105	192	4	24
NMHLD	105	240	2	24
NMHLD	105	240	4	24
NMHLD	105	288	1	24
NMHLD	105	288	3	24
NMHLD	105	336	1	24
NMHLD	105	336	3	24
BXHLD	106	0	0	48
BXHLD	106	0	4	48
NMSTR	106	96	1
NMSCL	106	96	1	96	96	6
NMSTR	106	96	3
NMSCR	106	96	3	96	96	6
NMTAP	106	144	1
NMTAP	106	144	3
NMTAP	107	0	6
NMTAP	107	48	6
NMTAP	107	96	4
NMTAP	107	144	4
NMTAP	107	192	7
NMTAP	107	240	7
NMTAP	107	288	1
NMHLD	107	336	1	96
NMSTR	108	48	3
NMSI_	108	48	3	96	48	7
NMSTR	108	144	2
NMSCR	108	144	2	96	48	5
NMHLD	108	240	6	96
NMTAP	108	336	1
NMTAP	109	0	1
NMTAP	109	48	5
NMTAP	109	96	5
NMTAP	109	144	4
NMTAP	109	192	7
NMTAP	109	240	7
NMTAP	109	288	1
NMHLD	109	336	1	96
NMSTR	110	48	3
NMSI_	110	48	3	96	48	7
NMSTR	110	144	0
NMSI_	110	144	0	96	48	3
NMTAP	110	240	6
NMTAP	110	288	6
NMTAP	110	336	4
NMTAP	110	336	7
NMSTR	111	0	4
NMSI_	111	0	4	96	48	1
NMTAP	111	0	7
NMTAP	111	96	4
NMSTR	111	96	6
NMSI_	111	96	6	96	48	3
NMSTR	111	192	2
NMSI_	111	192	2	96	48	7
NMTAP	111	192	6
NMTAP	111	288	2
NMTAP	111	288	4
NMTAP	112	0	0
NMSTR	112	0	3
NMSI_	112	0	3	96	48	6
NMSTR	112	96	1
NMSI_	112	96	1	96	48	4
NMTAP	112	96	3
NMTAP	112	192	1
NMSTR	112	192	5
NMSI_	112	192	5	96	48	0
NMTAP	112	288	3
NMTAP	112	288	5
NMSTR	113	0	4
NMSI_	113	0	4	96	48	1
NMTAP	113	0	7
NMTAP	113	96	4
NMSTR	113	96	6
NMSI_	113	96	6	96	48	3
NMSTR	113	192	2
NMSI_	113	192	2	96	48	7
NMTAP	113	192	6
NMTAP	113	288	2
NMTAP	113	288	4
NMTAP	114	0	1
NMTAP	114	0	3
NMTAP	114	48	2
NMTAP	114	96	4
NMTAP	114	96	6
NMTAP	114	144	5
NMTAP	114	192	0
NMTAP	114	192	3
NMTAP	114	240	1
NMTAP	114	288	4
NMTAP	114	288	7
NMTAP	114	336	6
NMTAP	115	0	2
NMTAP	115	0	4
NMTAP	115	48	1
NMTAP	115	96	0
NMTAP	115	96	7
NMTAP	115	144	6
NMTAP	115	192	4
NMTAP	115	192	5
NMTAP	115	240	3
NMTAP	115	288	2
NMTAP	115	288	4
NMTAP	115	336	1
NMTAP	116	0	0
NMTAP	116	0	1
NMTAP	116	48	0
NMTAP	116	48	1
NMTAP	116	96	2
NMTAP	116	96	3
NMTAP	116	144	2
NMTAP	116	144	3
NMTAP	116	192	4
NMTAP	116	192	5
NMTAP	116	240	4
NMTAP	116	240	5
NMTAP	116	288	0
NMTAP	116	288	6
NMTAP	116	336	0
NMTAP	116	336	6
NMTAP	117	0	1
NMTAP	117	24	5
NMTAP	117	48	1
NMTAP	117	72	5
NMTAP	117	96	0
NMTAP	117	120	4
NMTAP	117	144	0
NMTAP	117	168	4
NMTAP	117	192	7
NMTAP	117	216	3
NMTAP	117	240	7
BRTAP	117	288	2
BRTAP	117	288	6
BRTAP	117	336	0
BRTAP	117	336	4

T_REC_TAP	388
T_REC_BRK	19
T_REC_XTP	63
T_REC_BXX	14
T_REC_HLD	123
T_REC_XHO	6
T_REC_BHO	2
T_REC_BXH	8
T_REC_STR	121
T_REC_BST	2
T_REC_XST	11
T_REC_XBS	1
T_REC_TTP	39
T_REC_THO	0
T_REC_SLD	122
T_REC_BSL	16
T_REC_ALL	935
T_NUM_TAP	622
T_NUM_BRK	62
T_NUM_HLD	129
T_NUM_SLD	122
T_NUM_ALL	935
T_JUDGE_TAP	658
T_JUDGE_HLD	189
T_JUDGE_SLD	138
T_JUDGE_ALL	985
TTM_EACHPAIRS	195
TTM_SCR_TAP	311000
TTM_SCR_BRK	161200
TTM_SCR_HLD	129000
TTM_SCR_SLD	183000
TTM_SCR_ALL	784200
TTM_SCR_S	754700
TTM_SCR_SS	778000
TTM_RAT_ACV	10079

