VERSION	0.00.00	1.04.00
FES_MODE	0
BPM_DEF	195.000	195.000	195.000	195.000
MET_DEF	4	4
RESOLUTION	384
CLK_DEF	384
COMPATIBLE_CODE	MA2

BPM	0	0	195.000
MET	0	0	4	4

NMSTR	3	0	2
NMSUR	3	0	2	96	576	5
NMSTR	5	0	6
NMSSL	5	0	6	96	480	2
NMSTR	7	0	1
NMSCL	7	0	1	96	192	6
CNSCR	7	288	6	0	384	1
EXSTR	9	0	4
NMSI_	9	0	4	96	192	7
NMTAP	10	0	0
NMTAP	10	0	7
NMTAP	10	96	0
NMTAP	10	96	7
NMTAP	10	192	0
NMTAP	10	192	7
NMTAP	11	0	0
NMTAP	11	0	1
NMTAP	11	96	2
NMTAP	11	96	3
NMTAP	11	192	4
NMTAP	11	192	5
NMTAP	11	288	6
NMTAP	11	288	7
NMTAP	12	0	4
NMTAP	12	0	5
NMTAP	12	96	2
NMTAP	12	96	3
BRTAP	12	192	1
BRTAP	12	192	4
NMHLD	13	0	6	288
NMTAP	13	0	7
NMTAP	13	96	7
NMTAP	13	192	4
NMTAP	13	288	4
NMTAP	14	0	0
NMHLD	14	0	1	288
NMTAP	14	96	0
NMTAP	14	192	3
NMTAP	14	288	3
NMTAP	15	0	1
NMTAP	15	0	3
NMTAP	15	96	3
NMTAP	15	96	4
NMTAP	15	192	4
NMTAP	15	192	6
NMTAP	15	288	0
NMTAP	15	288	7
NMSTR	16	0	0
NMSCL	16	0	0	96	192	3
NMSTR	16	0	1
NMSUL	16	0	1	96	192	2
NMTAP	17	0	1
NMTAP	17	0	3
NMTAP	17	96	0
NMTAP	17	96	7
NMTAP	17	192	4
NMTAP	17	192	6
NMTAP	17	288	3
NMTAP	17	288	4
NMSTR	18	0	2
NMSUR	18	0	2	96	192	1
NMSTR	18	0	3
NMSCR	18	0	3	96	192	0
NMTAP	19	0	2
NMTAP	19	0	4
NMTAP	19	96	2
NMTAP	19	96	4
NMTAP	19	192	0
NMTAP	19	288	0
NMTAP	20	0	3
NMTAP	20	0	5
NMTAP	20	96	3
NMTAP	20	96	5
NMTAP	20	192	7
NMTAP	20	288	7
NMTAP	21	0	0
NMTAP	21	96	1
NMTAP	21	192	2
NMTAP	21	192	3
NMTAP	21	288	1
NMTAP	21	288	4
NMTAP	22	0	7
NMTAP	22	96	6
NMTAP	22	192	4
NMTAP	22	192	5
NMTAP	22	288	3
NMSTR	22	288	6
NMSXL	22	288	6	96	288	3
NMTAP	24	0	1
NMTAP	24	96	1
NMTAP	24	96	3
NMTAP	24	192	6
NMSTR	24	288	4
NMSF_	24	288	4	96	192	0
NMTAP	24	288	6
EXHLD	26	0	0	128
EXTAP	26	128	1
EXHLD	26	192	1	128
EXTAP	26	320	2
EXHLD	27	0	2	128
EXTAP	27	128	3
EXTAP	27	192	3
EXHLD	28	0	7	128
EXTAP	28	128	6
EXHLD	28	192	6	128
EXTAP	28	320	5
EXHLD	29	0	5	128
EXTAP	29	128	4
EXTAP	29	192	4
EXTAP	29	192	5
EXTAP	29	288	4
EXTAP	29	288	5
NMTAP	30	0	3
NMTAP	30	0	4
NMTAP	30	96	2
NMTAP	30	96	3
BRTAP	30	192	0
BRTAP	30	192	6
NMHLD	31	0	0	48
NMHLD	31	0	1	48
NMHLD	31	96	0	48
NMHLD	31	96	1	48
NMHLD	31	192	0	48
NMHLD	31	192	7	48
NMHLD	31	288	0	48
NMHLD	31	288	7	48
NMSTR	32	0	6
NMSXR	32	0	6	96	192	7
NMTAP	32	0	7
NMHLD	33	0	0	48
NMHLD	33	0	6	48
NMHLD	33	96	0	48
NMHLD	33	96	6	48
NMHLD	33	192	1	48
NMHLD	33	192	7	48
NMHLD	33	288	1	48
NMHLD	33	288	7	48
NMSTR	34	0	0
NMSCR	34	0	0	96	96	3
NMSTR	34	0	7
NMSCL	34	0	7	96	96	4
NMHLD	35	0	5	192
NMTAP	35	192	4
NMTAP	36	0	5
NMTAP	36	96	5
NMTAP	36	192	4
NMTAP	36	192	5
NMHLD	37	0	6	192
NMTAP	37	192	4
NMTAP	38	0	6
NMTAP	38	96	6
NMTAP	38	192	4
NMTAP	38	192	6
NMTAP	39	0	6
NMTAP	39	48	6
NMTAP	39	96	6
NMTAP	39	192	7
NMTAP	39	240	7
NMTAP	39	288	7
NMTAP	40	0	0
NMTAP	40	48	0
NMTAP	40	96	0
NMTAP	40	192	1
NMTAP	40	192	7
NMHLD	41	0	2	192
NMTAP	41	192	3
NMTAP	42	0	2
NMTAP	42	96	2
NMTAP	42	192	2
NMTAP	42	192	3
NMHLD	43	0	1	192
NMTAP	43	192	3
NMTAP	44	0	1
NMTAP	44	96	1
NMTAP	44	192	1
NMTAP	44	192	3
NMSTR	45	0	2
NMSUL	45	0	2	96	192	5
NMSTR	46	0	6
NMSCL	46	0	6	96	192	3
NMTAP	47	0	2
NMTAP	47	96	2
NMTAP	47	96	3
NMTAP	47	192	1
NMTAP	47	240	1
NMTAP	47	288	3
NMTAP	48	0	1
NMTAP	48	48	1
NMTAP	48	96	7
NMTAP	48	192	6
NMTAP	48	240	6
NMTAP	48	288	0
NMTAP	49	0	4
NMTAP	49	0	5
NMTAP	49	96	6
NMTAP	49	144	6
NMTAP	49	192	7
NMTAP	49	288	0
NMTAP	50	0	1
NMTAP	50	0	7
NMTAP	50	96	2
NMTAP	50	96	6
NMTAP	50	192	3
NMTAP	50	192	5
EXSTR	51	0	6
NMSSR	51	0	6	96	384	2
EXTAP	52	192	3
EXTAP	52	192	4
NMTAP	53	0	2
NMSTR	53	96	1
NMSCR	53	96	1	96	96	4
NMTAP	53	96	3
NMTAP	54	0	5
NMTAP	54	96	4
NMSTR	54	96	6
NMSCL	54	96	6	96	96	3
NMHLD	55	0	2	96
NMHLD	55	96	3	96
NMHLD	55	192	4	96
NMTAP	55	288	5
NMTAP	56	0	4
NMTAP	56	0	5
NMTAP	56	96	3
NMTAP	56	96	4
NMTAP	56	192	2
NMTAP	56	192	5
NMTAP	57	0	1
NMTAP	57	0	3
NMSTR	57	96	0
NMSCR	57	96	0	96	96	4
NMTAP	58	0	5
NMTAP	58	96	4
NMTAP	58	96	6
NMTAP	58	192	3
NMTAP	58	192	5
NMTAP	58	288	2
NMSTR	58	288	4
NMSXL	58	288	4	96	192	4
NMSXR	58	288	4	96	192	4
NMTAP	60	0	3
NMTAP	60	48	3
NMTAP	60	144	2
NMTAP	60	144	4
BRTAP	60	240	1
BRTAP	60	240	5
EXTAP	61	0	6
EXTAP	61	0	7
EXTAP	61	96	6
EXTAP	61	96	7
EXTAP	61	192	0
EXTAP	61	192	1
EXSTR	61	288	0
NMSXL	61	288	0	96	288	4
NMSXR	61	288	0	96	288	4
EXTAP	61	288	1
NMHLD	63	0	6	192
NMTAP	63	96	4
NMHLD	63	192	1	192
NMTAP	63	288	3
NMSTR	64	0	4
NMSI_	64	0	4	96	96	7
NMTTP	65	0	1	E	0	M1
NMTTP	65	96	2	E	0	M1
NMTTP	65	192	3	E	0	M1
NMTTP	65	288	4	B	0	M1
NMTTP	65	288	4	E	0	M1
NMTTP	66	0	7	E	0	M1
NMTTP	66	96	6	E	0	M1
NMTTP	66	192	5	E	0	M1
NMTTP	66	288	3	B	0	M1
NMTTP	66	288	4	E	0	M1
NMTTP	67	0	0	B	0	M1
NMTTP	67	96	2	B	0	M1
NMTTP	67	192	4	B	0	M1
NMTTP	67	288	6	B	0	M1
NMTTP	68	0	0	B	0	M1
NMTTP	68	0	0	E	0	M1
NMTTP	68	0	7	B	0	M1
NMTTP	68	192	3	B	0	M1
NMTTP	68	192	4	B	0	M1
NMTTP	68	192	4	E	0	M1
BRSTR	69	0	2
BRSXR	69	0	2	96	384	4
BRSTR	69	0	5
BRSXL	69	0	5	96	384	3
NMTAP	71	0	0
NMTAP	71	0	1
NMTAP	71	96	3
NMTAP	71	96	5
NMTAP	71	192	6
NMTAP	71	192	7
NMTAP	71	288	2
NMTAP	71	288	4
NMTAP	72	0	0
NMTAP	72	0	1
NMTAP	72	96	2
NMTAP	72	96	4
BRTAP	72	192	0
BRTAP	72	192	6
NMTAP	73	0	6
NMTAP	73	0	7
NMTAP	73	96	6
NMTAP	73	96	7
NMTAP	73	192	0
NMTAP	73	192	1
NMTAP	73	288	0
NMTAP	73	288	1
NMTAP	74	0	2
NMTAP	74	0	3
NMTAP	74	96	2
NMTAP	74	96	3
NMTAP	74	192	1
NMTAP	74	192	4
NMSTR	75	0	6
NMSI_	75	0	6	96	48	3
NMSTR	75	0	7
NMSI_	75	0	7	96	48	3
NMSTR	75	192	0
NMSI_	75	192	0	96	48	4
NMSTR	75	192	1
NMSI_	75	192	1	96	48	4
NMSTR	76	0	6
NMSI_	76	0	6	96	48	3
NMSTR	76	0	7
NMSI_	76	0	7	96	48	3
NMTAP	76	192	0
NMTAP	76	192	1
NMTAP	76	288	0
NMTAP	76	288	1
NMTAP	77	0	3
NMHLD	77	0	5	288
NMTAP	77	96	3
NMTAP	77	192	7
NMTAP	77	288	7
NMHLD	78	0	2	288
NMTAP	78	0	4
NMTAP	78	96	4
BRTAP	78	192	0
BRTAP	78	288	0
NMTAP	79	0	6
NMTAP	79	0	7
NMTAP	79	96	2
NMTAP	79	96	4
NMTAP	79	192	0
NMTAP	79	192	1
NMTAP	79	288	3
NMTAP	79	288	5
NMTAP	80	0	6
NMTAP	80	0	7
NMTAP	80	96	3
NMTAP	80	96	5
BRTAP	80	192	1
BRTAP	80	192	7
NMTAP	81	0	0
NMTAP	81	0	1
NMTAP	81	96	0
NMTAP	81	96	1
NMTAP	81	192	6
NMTAP	81	192	7
NMTAP	81	288	6
NMTAP	81	288	7
NMTAP	82	0	4
NMTAP	82	0	5
NMTAP	82	96	4
NMTAP	82	96	5
NMTAP	82	192	3
NMTAP	82	192	6
NMTAP	83	0	0
NMHLD	83	0	1	96
NMTAP	83	96	3
NMHLD	83	192	6	96
NMTAP	83	192	7
NMTAP	83	288	4
NMHLD	84	0	2	96
NMTAP	84	0	3
NMTAP	84	96	0
NMTAP	84	192	4
NMHLD	84	192	5	96
NMTAP	84	288	7
NMTAP	85	0	6
NMTAP	85	0	7
NMTAP	85	96	4
NMTAP	85	96	5
NMTAP	85	192	2
NMTAP	85	192	3
NMTAP	85	288	0
NMTAP	85	288	1
NMSTR	86	0	0
NMSUR	86	0	0	96	192	6
NMSTR	86	0	1
NMSCR	86	0	1	96	192	5
NMTAP	87	0	6
NMTAP	87	0	7
NMTAP	87	96	6
NMTAP	87	96	7
NMTAP	87	192	4
NMTAP	87	192	5
NMTAP	87	288	4
NMTAP	87	288	5
NMTAP	88	0	0
NMTAP	88	0	1
NMTAP	88	96	0
NMTAP	88	96	1
NMTAP	88	192	2
NMTAP	88	192	3
NMTAP	88	288	2
NMTAP	88	288	3
NMTAP	89	0	6
NMTAP	89	0	7
NMTAP	89	96	4
NMTAP	89	96	5
NMTAP	89	192	2
NMTAP	89	192	3
NMTAP	89	288	0
NMTAP	89	288	1
NMSTR	90	0	0
BRSXL	90	0	0	96	480	3
BRSXR	90	0	0	96	480	5
NMTAP	90	0	1
NMTAP	92	0	4
NMTAP	92	0	6
NMTAP	92	96	4
NMTAP	92	96	6
NMTAP	92	192	1
NMTAP	92	192	3
NMTAP	92	288	1
NMTAP	92	288	3
NMSTR	93	0	0
NMSCR	93	0	0	96	96	3
NMSTR	93	0	7
NMSCL	93	0	7	96	96	4
EXHLD	94	0	0	128
EXTAP	94	128	2
EXHLD	94	192	2	128
EXTAP	94	320	4
EXHLD	95	0	4	128
EXTAP	95	128	5
BXTAP	95	192	5
EXHLD	96	0	7	128
EXTAP	96	128	5
EXHLD	96	192	5	128
EXTAP	96	320	3
EXHLD	97	0	3	128
EXTAP	97	128	2
BXTAP	97	192	2
BXTAP	97	192	3
BXTAP	97	288	2
BXTAP	97	288	3
NMTAP	98	0	3
NMTAP	98	0	4
NMTAP	98	96	4
NMTAP	98	96	5
BRTAP	98	192	2
BRTAP	98	192	7
NMHLD	99	0	0	48
NMHLD	99	0	1	48
NMHLD	99	96	0	48
NMHLD	99	96	1	48
NMHLD	99	192	2	48
NMHLD	99	192	3	48
NMHLD	99	288	2	48
NMHLD	99	288	3	48
NMTAP	100	0	0
NMSTR	100	0	1
NMSXL	100	0	1	96	192	0
NMHLD	101	0	6	48
NMHLD	101	0	7	48
NMHLD	101	96	6	48
NMHLD	101	96	7	48
NMHLD	101	192	4	48
NMHLD	101	192	5	48
NMHLD	101	288	4	48
NMHLD	101	288	5	48
NMSTR	102	0	6
NMSXR	102	0	6	96	192	7
NMTAP	102	0	7
EXHLD	103	0	0	48
EXHLD	103	0	1	48
NMHLD	103	96	0	48
NMHLD	103	96	1	48
NMHLD	103	192	6	48
NMHLD	103	192	7	48
NMHLD	103	288	6	48
NMHLD	103	288	7	48
NMTAP	104	0	0
NMSTR	104	0	1
NMSXR	104	0	1	96	192	3
NMHLD	105	0	4	48
NMHLD	105	0	5	48
NMHLD	105	96	4	48
NMHLD	105	96	5	48
NMHLD	105	192	2	48
NMHLD	105	192	3	48
NMHLD	105	288	2	48
NMHLD	105	288	3	48
NMTAP	106	0	4
NMSTR	106	0	5
NMSXL	106	0	5	96	192	4
NMHLD	107	0	1	96
NMTAP	107	96	3
NMTAP	107	192	6
NMTAP	107	240	6
NMTAP	107	288	4
NMTAP	108	0	6
NMTAP	108	0	7
NMTAP	108	96	0
NMTAP	108	96	7
NMTAP	108	192	0
NMTAP	108	192	1
NMTAP	108	288	2
NMTAP	108	288	7
NMHLD	109	0	6	96
NMTAP	109	96	4
NMTAP	109	192	1
NMTAP	109	240	1
NMTAP	109	288	3
NMTAP	110	0	0
NMTAP	110	0	1
NMTAP	110	96	0
NMTAP	110	96	7
NMTAP	110	192	6
NMTAP	110	192	7
NMTAP	110	288	0
NMTAP	110	288	5
NMTAP	111	0	2
NMTAP	111	0	3
NMTAP	111	96	1
NMTAP	111	192	0
NMTAP	111	192	7
NMTAP	111	288	6
NMTAP	112	0	4
NMTAP	112	0	5
NMTAP	112	96	6
NMTAP	112	192	0
NMTAP	112	192	7
NMTAP	112	288	1
NMTAP	113	0	2
NMTAP	113	0	3
NMTAP	113	96	4
NMTAP	113	192	3
NMTAP	113	192	5
NMTAP	113	288	3
NMTAP	113	288	5
EXTAP	114	0	2
EXTAP	114	0	3
NMTAP	114	96	2
NMTAP	114	96	3
NMTAP	114	192	0
NMTAP	114	192	1
NMTAP	114	288	0
NMTAP	114	288	1
NMTAP	115	0	4
NMTAP	115	0	5
NMTAP	115	96	4
NMTAP	115	96	5
NMTAP	115	192	6
NMTAP	115	192	7
NMTAP	115	288	6
NMTAP	115	288	7
NMTAP	116	0	2
NMTAP	116	0	3
NMTAP	116	96	0
NMTAP	116	96	1
NMTAP	116	192	4
NMTAP	116	192	5
NMTAP	116	288	6
NMTAP	116	288	7
NMTAP	117	0	2
NMTAP	117	0	3
NMTAP	117	96	0
NMTAP	117	96	1
NMTAP	117	192	3
NMTAP	117	192	4
NMTAP	117	288	1
NMTAP	117	288	6
BRTAP	117	336	1
BRTAP	117	336	6

T_REC_TAP	347
T_REC_BRK	16
T_REC_XTP	28
T_REC_BXX	5
T_REC_HLD	65
T_REC_XHO	14
T_REC_BHO	0
T_REC_BXH	0
T_REC_STR	34
T_REC_BST	2
T_REC_XST	3
T_REC_XBS	0
T_REC_TTP	20
T_REC_THO	0
T_REC_SLD	38
T_REC_BSL	4
T_REC_ALL	576
T_NUM_TAP	432
T_NUM_BRK	27
T_NUM_HLD	79
T_NUM_SLD	38
T_NUM_ALL	576
T_JUDGE_TAP	455
T_JUDGE_HLD	150
T_JUDGE_SLD	42
T_JUDGE_ALL	647
TTM_EACHPAIRS	193
TTM_SCR_TAP	216000
TTM_SCR_BRK	70200
TTM_SCR_HLD	79000
TTM_SCR_SLD	57000
TTM_SCR_ALL	422200
TTM_SCR_S	406950
TTM_SCR_SS	419500
TTM_RAT_ACV	10064

