VERSION	0.00.00	1.04.00
FES_MODE	0
BPM_DEF	195.000	195.000	195.000	195.000
MET_DEF	4	4
RESOLUTION	384
CLK_DEF	384
COMPATIBLE_CODE	MA2

BPM	0	0	195.000
MET	0	0	4	4

NMHLD	3	0	2	384
NMHLD	4	0	3	384
NMHLD	5	0	4	384
NMTAP	6	0	5
NMHLD	7	0	5	384
NMHLD	8	0	4	384
NMHLD	9	0	3	384
NMTAP	10	0	2
BXTAP	11	0	2
NMTAP	11	96	2
NMTAP	11	192	2
NMTAP	11	192	3
NMTAP	12	0	1
NMTAP	12	96	1
NMTAP	12	192	0
NMTAP	12	192	1
NMTAP	13	0	7
NMTAP	13	96	7
NMTAP	13	192	6
NMTAP	13	192	7
NMTAP	14	0	4
NMTAP	14	0	5
NMTAP	14	96	4
NMTAP	14	96	5
NMTAP	14	192	4
NMTAP	14	192	5
NMTAP	15	0	5
NMTAP	15	96	5
NMTAP	15	192	4
NMTAP	15	192	5
NMTAP	16	0	6
NMTAP	16	96	6
NMTAP	16	192	6
NMTAP	16	192	7
NMTAP	17	0	0
NMTAP	17	96	0
NMTAP	17	192	0
NMTAP	17	192	1
NMTAP	18	0	2
NMTAP	18	0	3
NMTAP	18	96	2
NMTAP	18	96	3
NMTAP	18	192	2
NMTAP	18	192	3
NMTAP	19	0	2
NMTAP	19	96	2
NMTAP	19	192	2
NMTAP	19	192	3
NMTAP	19	288	2
NMTAP	19	288	3
NMTAP	20	0	1
NMTAP	20	96	1
NMTAP	20	192	0
NMTAP	20	192	1
NMTAP	21	0	7
NMTAP	21	96	7
NMTAP	21	192	6
NMTAP	21	192	7
NMTAP	21	288	6
NMTAP	21	288	7
NMTAP	22	0	5
NMTAP	22	96	5
NMTAP	22	192	4
NMTAP	22	192	5
NMTAP	23	0	3
NMTAP	23	0	4
NMTAP	24	0	2
NMTAP	24	96	2
NMTAP	24	192	3
NMTAP	24	288	3
NMTAP	25	0	4
NMTAP	25	96	4
NMTAP	25	192	4
NMTAP	25	192	5
NMHLD	26	0	5	192
NMTAP	26	192	4
NMHLD	27	0	6	192
NMTAP	27	192	7
NMHLD	28	0	1	192
NMTAP	28	192	0
NMHLD	29	0	2	192
NMTAP	29	192	3
NMTAP	30	0	3
NMTAP	30	0	4
NMTAP	30	192	3
NMTAP	30	192	4
NMTAP	31	0	5
NMTAP	31	96	5
NMTAP	31	192	5
NMTAP	32	0	4
NMTAP	32	96	4
NMTAP	32	192	4
NMTAP	33	0	3
NMTAP	33	96	3
NMTAP	33	192	3
NMTAP	34	0	2
NMTAP	34	0	4
NMTAP	34	96	2
NMTAP	34	96	4
NMTAP	34	192	2
NMTAP	34	192	4
NMSTR	35	0	3
NMSI_	35	0	3	96	288	0
NMTAP	36	192	7
NMSTR	37	0	6
NMSI_	37	0	6	96	288	2
NMTAP	38	192	1
NMSTR	39	0	0
NMSI_	39	0	0	96	288	4
NMTAP	40	192	5
NMSTR	41	0	6
NMSI_	41	0	6	96	288	3
NMTAP	42	192	2
NMSTR	43	0	1
NMSI_	43	0	1	96	288	5
NMTAP	44	192	6
NMTAP	45	0	7
NMTAP	45	96	7
NMTAP	45	192	0
NMTAP	45	192	7
NMTAP	46	0	0
NMTAP	46	96	0
NMTAP	46	192	0
NMTAP	46	192	7
NMTAP	47	0	1
NMTAP	47	96	1
NMTAP	47	192	0
NMTAP	47	192	1
NMTAP	48	0	2
NMTAP	48	96	2
NMTAP	48	192	2
NMTAP	48	192	3
NMTAP	49	0	4
NMTAP	49	96	4
NMTAP	49	192	4
NMTAP	49	192	5
NMTAP	50	0	6
NMTAP	50	0	7
NMTAP	50	96	6
NMTAP	50	96	7
NMTAP	50	192	6
NMTAP	50	192	7
NMTAP	51	0	5
NMTAP	51	96	5
NMTAP	51	192	4
NMTAP	51	192	5
NMTAP	52	0	3
NMTAP	52	96	3
NMTAP	52	192	3
NMTAP	52	192	4
NMHLD	53	0	2	192
NMHLD	53	192	3	192
NMHLD	54	0	4	192
NMTAP	54	192	5
NMHLD	55	0	5	192
NMHLD	55	192	4	192
NMHLD	56	0	3	192
NMTAP	56	192	2
NMHLD	57	0	1	192
NMHLD	57	192	0	192
NMHLD	58	0	7	192
NMTAP	58	192	6
NMHLD	59	0	6	192
NMHLD	59	192	7	192
NMHLD	60	0	0	192
NMTAP	60	192	1
NMTTP	61	0	1	B	0	L1
NMTTP	61	96	2	B	0	L1
NMTTP	61	192	3	E	0	L1
NMTTP	62	0	6	B	0	L1
NMTTP	62	96	5	B	0	L1
NMTTP	62	192	5	E	0	L1
NMTTP	63	0	2	B	0	L1
NMTTP	63	96	3	B	0	L1
NMTTP	63	192	4	B	0	L1
NMTTP	63	288	5	B	0	L1
NMTTP	64	0	0	C	0	L1
NMTTP	65	0	0	B	0	L1
NMTTP	65	96	1	B	0	L1
NMTTP	65	192	2	B	0	L1
NMTTP	65	192	3	B	0	L1
NMTTP	66	0	7	B	0	L1
NMTTP	66	96	6	B	0	L1
NMTTP	66	192	4	B	0	L1
NMTTP	66	192	5	B	0	L1
NMTTP	67	0	0	B	0	L1
NMTTP	67	96	1	B	0	L1
NMTTP	67	192	2	B	0	L1
NMTTP	67	288	3	B	0	L1
NMTTP	68	0	4	B	0	L1
NMTTP	68	96	5	B	0	L1
NMTTP	68	192	6	B	0	L1
NMTTP	68	288	7	B	0	L1
NMTTP	69	0	0	C	1	L1
BRTAP	71	0	1
NMTAP	71	96	1
NMTAP	71	192	0
NMTAP	71	192	1
NMTAP	71	288	0
NMTAP	71	288	1
NMTAP	72	0	7
NMTAP	72	96	7
NMTAP	72	192	6
NMTAP	72	192	7
NMTAP	73	0	5
NMTAP	73	96	5
NMTAP	73	192	6
NMTAP	73	192	7
NMTAP	73	288	6
NMTAP	73	288	7
NMTAP	74	0	0
NMTAP	74	96	0
NMTAP	74	192	0
NMTAP	74	192	1
NMTAP	75	0	1
NMTAP	75	96	1
NMTAP	75	192	2
NMTAP	75	192	3
NMTAP	75	288	2
NMTAP	75	288	3
NMTAP	76	0	4
NMTAP	76	96	4
NMTAP	76	192	4
NMTAP	76	192	5
NMTAP	77	0	6
NMTAP	77	96	6
NMTAP	77	192	4
NMTAP	77	192	5
NMTAP	77	288	4
NMTAP	77	288	5
NMTAP	78	0	3
NMTAP	78	96	3
NMTAP	78	192	2
NMTAP	78	192	3
NMTAP	79	0	2
NMTAP	79	96	2
NMTAP	79	192	0
NMTAP	79	192	1
NMTAP	79	288	0
NMTAP	79	288	1
NMTAP	80	0	7
NMTAP	80	96	6
NMTAP	80	192	4
NMTAP	80	192	5
NMTAP	81	0	5
NMTAP	81	96	5
NMTAP	81	192	6
NMTAP	81	192	7
NMTAP	81	288	6
NMTAP	81	288	7
NMTAP	82	0	0
NMTAP	82	96	1
NMTAP	82	192	2
NMTAP	82	192	3
NMTAP	83	0	1
NMTAP	83	96	1
NMTAP	83	192	2
NMTAP	83	192	3
NMTAP	83	288	2
NMTAP	83	288	3
NMTAP	84	0	4
NMTAP	84	96	5
NMTAP	84	192	6
NMTAP	84	192	7
NMTAP	85	0	6
NMTAP	85	96	6
NMTAP	85	192	4
NMTAP	85	192	5
NMTAP	85	288	4
NMTAP	85	288	5
NMTAP	86	0	3
NMTAP	86	96	2
NMTAP	86	192	0
NMTAP	86	192	1
NMTAP	87	0	0
NMTAP	87	96	0
NMTAP	87	192	1
NMTAP	87	288	1
NMTAP	88	0	2
NMTAP	88	96	2
NMTAP	88	192	3
NMTAP	88	192	4
NMTAP	89	0	4
NMTAP	89	96	4
NMTAP	89	192	5
NMTAP	89	288	5
NMTAP	90	0	6
NMTAP	90	96	6
NMTAP	90	192	0
NMTAP	90	192	7
NMTAP	90	288	0
NMTAP	90	288	7
NMTAP	91	0	1
NMTAP	91	0	6
NMTAP	92	0	0
NMTAP	92	96	0
NMTAP	92	192	0
NMTAP	92	192	7
NMTAP	93	0	7
NMTAP	93	96	7
NMTAP	93	192	0
NMTAP	93	192	7
NMHLD	94	0	1	192
NMTAP	94	192	0
NMHLD	95	0	2	192
NMTAP	95	192	3
NMHLD	96	0	5	192
NMTAP	96	192	4
NMHLD	97	0	6	192
NMTAP	97	192	7
NMTAP	98	0	0
NMTAP	98	0	7
NMTAP	98	192	0
NMTAP	98	192	7
NMTTP	99	0	7	E	0	L1
NMTTP	99	96	6	B	0	L1
NMTTP	99	192	5	B	0	L1
NMTTP	100	0	1	E	0	L1
NMTTP	100	96	1	B	0	L1
NMTTP	100	192	2	B	0	L1
NMTTP	101	0	5	B	0	L1
NMTTP	101	96	4	B	0	L1
NMTTP	101	192	3	B	0	L1
NMTTP	101	288	2	B	0	L1
NMTTP	102	0	0	C	0	L1
NMTTP	103	0	1	E	0	L1
NMTTP	103	96	1	B	0	L1
NMTTP	103	192	2	B	0	L1
NMTTP	104	0	7	E	0	L1
NMTTP	104	96	6	B	0	L1
NMTTP	104	192	5	B	0	L1
NMTTP	105	0	2	B	0	L1
NMTTP	105	96	3	B	0	L1
NMTTP	105	192	4	B	0	L1
NMTTP	105	288	5	B	0	L1
NMTTP	106	0	0	C	0	L1
NMTAP	107	0	0
NMTAP	107	96	0
NMTAP	107	192	0
NMTAP	107	192	1
NMTAP	108	0	2
NMTAP	108	96	2
NMTAP	108	192	2
NMTAP	108	192	3
NMTAP	109	0	4
NMTAP	109	96	4
NMTAP	109	192	5
NMTAP	109	288	5
NMTAP	110	0	6
NMTAP	110	96	6
NMTAP	110	192	6
NMTAP	110	192	7
NMTAP	111	0	5
NMTAP	111	96	5
NMTAP	111	192	4
NMTAP	111	192	5
NMTAP	112	0	2
NMTAP	112	96	2
NMTAP	112	192	2
NMTAP	112	192	3
NMTAP	113	0	1
NMTAP	113	96	1
NMTAP	113	192	0
NMTAP	113	192	7
NMTAP	114	0	1
NMTAP	114	96	1
NMTAP	114	192	0
NMTAP	114	192	1
NMTAP	114	288	0
NMTAP	114	288	1
NMTAP	115	0	2
NMTAP	115	96	2
NMTAP	115	192	2
NMTAP	115	192	3
NMTAP	115	288	2
NMTAP	115	288	3
NMTAP	116	0	4
NMTAP	116	96	4
NMTAP	116	192	4
NMTAP	116	192	5
NMTAP	116	288	4
NMTAP	116	288	5
NMTAP	117	0	6
NMTAP	117	96	6
NMSTR	117	192	0
NMSI_	117	192	0	96	288	3
NMSTR	117	192	7
NMSI_	117	192	7	96	288	4

T_REC_TAP	296
T_REC_BRK	1
T_REC_XTP	0
T_REC_BXX	1
T_REC_HLD	26
T_REC_XHO	0
T_REC_BHO	0
T_REC_BXH	0
T_REC_STR	7
T_REC_BST	0
T_REC_XST	0
T_REC_XBS	0
T_REC_TTP	50
T_REC_THO	0
T_REC_SLD	7
T_REC_BSL	0
T_REC_ALL	388
T_NUM_TAP	353
T_NUM_BRK	2
T_NUM_HLD	26
T_NUM_SLD	7
T_NUM_ALL	388
T_JUDGE_TAP	355
T_JUDGE_HLD	128
T_JUDGE_SLD	7
T_JUDGE_ALL	490
TTM_EACHPAIRS	80
TTM_SCR_TAP	176500
TTM_SCR_BRK	5200
TTM_SCR_HLD	26000
TTM_SCR_SLD	10500
TTM_SCR_ALL	218200
TTM_SCR_S	211500
TTM_SCR_SS	218000
TTM_RAT_ACV	10009

