VERSION	0.00.00	1.04.00
FES_MODE	0
BPM_DEF	176.000	176.000	176.000	176.000
MET_DEF	4	4
RESOLUTION	384
CLK_DEF	384
COMPATIBLE_CODE	MA2

BPM	0	0	176.000
MET	0	0	4	4

NMSTR	1	288	0
NMSI_	1	288	0	96	48	4
NMSTR	1	288	6
NMSI_	1	288	6	96	48	1
EXTAP	2	0	0
EXTAP	2	0	6
EXSTR	3	48	3
NMSXL	3	48	3	96	144	3
NMSXR	3	48	3	96	144	3
NMSTR	4	0	1
NMSI_	4	0	1	96	48	5
NMTAP	4	0	5
NMTAP	4	96	7
NMTAP	4	144	7
NMTAP	4	192	4
NMTAP	4	192	6
NMTAP	4	288	4
NMTAP	4	288	5
NMTAP	5	0	2
NMTAP	5	0	3
NMSTR	5	96	1
NMSXL	5	96	1	96	144	4
NMTAP	5	96	4
NMSTR	6	0	6
NMSI_	6	0	6	96	48	2
NMTAP	6	96	0
NMTAP	6	144	0
NMTAP	6	192	1
NMTAP	6	192	3
NMTAP	6	288	2
NMTAP	6	288	3
NMTAP	7	0	4
NMTAP	7	0	5
NMTAP	7	96	3
NMSTR	7	96	6
NMSXR	7	96	6	96	144	3
NMSTR	8	0	1
NMSI_	8	0	1	96	48	5
NMTAP	8	0	5
NMTAP	8	96	7
NMTAP	8	144	7
NMTAP	8	192	4
NMTAP	8	192	6
NMTAP	8	288	4
NMTAP	8	288	5
NMTAP	9	0	2
NMTAP	9	0	3
NMSTR	9	96	1
NMSXL	9	96	1	96	144	4
NMTAP	9	96	4
NMSTR	9	288	6
NMSI_	9	288	6	96	48	2
NMSTR	10	0	0
NMSI_	10	0	0	96	48	3
NMSTR	10	96	4
NMSI_	10	96	4	96	48	7
NMTAP	10	192	2
NMSTR	10	240	1
NMSI_	10	240	1	96	48	5
NMHLD	10	336	7	96
NMSTR	11	48	4
NMSUL	11	48	4	96	144	3
NMTAP	12	0	2
NMHLD	12	0	6	96
NMTAP	12	96	4
NMTAP	12	144	4
NMTAP	12	240	3
NMSTR	12	288	3
NMSV_	12	288	3	96	96	1
NMTAP	13	0	5
CNSCL	13	96	1	0	144	5
NMTAP	13	96	4
NMTAP	13	144	4
NMTAP	13	240	3
NMTAP	13	288	3
NMSTR	14	0	4
NMSCR	14	0	4	96	48	7
NMSTR	14	96	1
NMSCR	14	96	1	96	48	4
EXHLD	14	192	7	96
NMTAP	14	288	4
NMTAP	14	336	4
NMTAP	15	0	3
NMTAP	15	0	5
NMTAP	15	48	3
NMSTR	15	48	5
NMSCL	15	48	5	96	48	2
NMTAP	15	144	1
NMTAP	15	240	0
NMSTR	15	288	0
NMSCL	15	288	0	96	96	6
CNSUR	16	96	6	0	96	2
NMTHO	16	192	0	96	C	0	M1
EXTAP	17	0	0
EXTAP	17	0	7
EXTAP	17	48	0
EXTAP	17	48	7
NMTAP	17	144	2
NMSTR	17	144	5
NMSLR	17	144	5	96	144	3
EXTAP	17	240	0
EXTAP	17	288	0
NMTAP	18	0	1
NMHLD	18	48	1	48
NMTAP	18	96	3
NMHLD	18	144	3	48
NMTAP	18	192	4
NMHLD	18	240	4	48
NMTAP	18	288	6
NMHLD	18	336	6	48
NMSTR	19	0	0
NMSCR	19	0	0	96	96	4
NMTAP	19	96	7
NMTAP	19	144	7
NMTAP	19	240	6
NMSTR	19	288	4
NMSI_	19	288	4	96	48	0
NMSTR	19	288	5
NMSI_	19	288	5	96	48	7
NMSTR	20	96	2
NMSI_	20	96	2	96	48	0
NMSTR	20	96	3
NMSI_	20	96	3	96	48	7
NMSTR	20	288	5
NMSCR	20	288	5	96	96	0
NMTAP	21	0	4
CNSLL	21	96	0	0	96	4
NMTAP	21	96	3
NMTAP	21	144	3
NMTAP	21	240	2
NMSTR	21	288	2
NMSCR	21	288	2	96	48	4
NMSTR	22	0	6
NMSCR	22	0	6	96	48	0
NMSTR	22	96	2
NMSUR	22	96	2	96	144	4
NMTAP	22	192	7
NMHLD	22	288	6	96
NMTAP	23	0	7
NMTAP	23	96	0
NMTAP	23	96	5
NMTAP	23	144	0
NMTAP	23	144	5
BRTAP	23	240	7
BRTAP	23	288	7
NMHLD	24	0	1	96
NMHLD	24	0	5	96
NMHLD	24	192	2	48
NMHLD	24	192	6	48
NMHLD	24	288	1	48
NMHLD	24	288	5	48
NMTAP	25	0	2
NMTAP	25	0	6
NMSTR	25	48	2
BRSV_	25	48	2	96	48	0
NMSTR	25	48	6
BRSV_	25	48	6	96	48	4
EXTAP	25	240	1
EXTAP	25	240	5
EXTAP	25	288	3
EXSTR	25	288	7
NMSI_	25	288	7	96	48	3
NMHLD	26	0	0	288
NMTAP	26	0	7
NMSTR	26	288	7
BRSXL	26	288	7	96	144	7
BRSXR	26	288	7	96	144	7
EXTAP	27	240	1
EXTAP	27	240	7
EXSTR	27	288	1
NMSCR	27	288	1	96	96	5
EXTAP	27	288	7
NMTAP	28	0	5
NMSTR	28	96	6
NMSCL	28	96	6	96	96	2
NMTAP	28	192	0
NMSTR	28	288	1
NMSCR	28	288	1	96	96	5
NMTAP	29	0	7
NMSTR	29	96	6
NMSCL	29	96	6	96	96	2
NMTAP	29	192	0
NMHLD	29	288	1	96
NMTAP	30	0	3
NMTAP	30	96	0
NMTAP	30	96	1
NMTAP	30	144	0
NMTAP	30	144	1
NMTAP	30	192	2
NMTAP	30	192	7
NMTAP	30	288	3
NMHLD	30	288	5	96
NMTAP	31	0	4
NMTAP	31	96	6
NMTAP	31	96	7
NMTAP	31	144	6
NMTAP	31	144	7
NMTAP	31	192	0
NMTAP	31	192	5
NMSTR	31	288	2
NMSCL	31	288	2	96	96	6
NMTAP	31	288	4
NMTAP	32	0	6
NMSTR	32	96	5
NMSCR	32	96	5	96	96	1
NMTAP	32	192	2
NMTAP	32	288	3
NMTAP	33	0	2
NMTAP	33	0	4
NMTAP	33	96	3
NMTAP	33	144	3
NMTAP	33	240	4
NMTAP	33	240	5
NMSTR	33	288	6
NMSI_	33	288	6	96	48	1
NMTAP	34	0	3
NMSTR	34	48	2
NMSI_	34	48	2	96	48	5
NMTAP	34	144	6
NMSTR	34	192	7
NMSI_	34	192	7	96	48	3
NMSTR	34	288	0
NMSI_	34	288	0	96	48	4
NMTAP	35	0	0
NMTAP	35	0	5
NMSTR	35	96	2
NMSI_	35	96	2	96	48	5
NMSTR	35	96	6
NMSI_	35	96	6	96	48	1
NMTAP	35	192	2
NMTAP	35	192	6
NMTAP	35	288	3
NMTAP	35	288	7
NMSTR	36	0	0
NMSV_	36	0	0	96	48	5
NMSTR	36	0	1
NMSCR	36	0	1	96	48	4
NMTAP	36	96	0
NMTAP	36	96	1
EXTAP	36	192	3
EXTAP	36	192	6
NMTAP	36	288	3
NMTAP	36	288	5
NMTAP	36	336	6
NMTAP	37	0	6
NMSTR	37	0	7
NMSV_	37	0	7	96	48	1
NMTAP	37	96	5
CNSI_	37	144	1	0	48	3
NMTAP	37	192	4
NMTAP	37	288	2
NMTAP	37	288	6
NMTAP	37	336	2
NMHLD	37	336	6	96
EXTAP	38	48	4
EXSTR	38	96	4
NMSCL	38	96	4	96	96	0
NMSTR	38	192	0
NMSLL	38	192	0	96	96	4
NMSTR	38	288	4
NMSLL	38	288	4	96	96	0
NMTAP	39	0	0
NMTAP	39	96	4
NMSTR	39	192	1
NMSI_	39	192	1	96	48	4
NMSTR	39	192	5
NMSI_	39	192	5	96	48	0
NMTAP	39	288	1
NMTAP	39	288	5
NMSTR	40	0	2
NMSCL	40	0	2	96	48	7
NMSTR	40	0	3
NMSV_	40	0	3	96	48	6
NMTAP	40	96	2
NMTAP	40	96	3
NMTAP	40	192	4
NMTAP	40	192	5
NMTAP	40	288	2
NMTAP	40	288	4
NMTAP	40	336	5
NMSTR	41	0	4
NMSI_	41	0	4	96	48	0
NMSTR	41	0	6
NMSI_	41	0	6	96	48	3
NMTAP	41	96	4
NMTAP	41	96	6
NMTAP	41	192	0
NMSTR	41	240	0
NMSCR	41	240	0	96	96	6
BXHLD	41	336	5	144
EXTAP	42	96	0
EXTAP	42	144	0
NMTAP	42	240	2
NMTAP	42	240	4
NMTTP	42	336	0	C	1	M1
EXTAP	43	48	0
EXTAP	43	48	7
EXTAP	43	96	0
EXTAP	43	96	7
NMSTR	43	192	3
NMSI_	43	192	3	96	48	7
NMSTR	43	192	6
NMSI_	43	192	6	96	48	3
NMTAP	43	288	3
NMTAP	43	288	6
NMSTR	44	0	0
NMSI_	44	0	0	96	48	4
NMSTR	44	0	1
NMSI_	44	0	1	96	48	4
NMTAP	44	96	0
NMTAP	44	96	1
NMTAP	44	192	5
NMTAP	44	288	3
NMSTR	44	288	7
NMSUL	44	288	7	96	48	2
EXTAP	45	0	1
EXTAP	45	96	0
NMTAP	45	192	1
NMTAP	45	192	4
NMTAP	45	288	2
NMTAP	45	288	3
NMTAP	45	336	4
NMTAP	46	0	3
NMTAP	46	0	5
NMTAP	46	48	2
NMSTR	46	96	1
NMSV_	46	96	1	96	48	4
NMTAP	46	96	4
EXTAP	46	192	7
EXSTR	46	240	7
NMSI_	46	240	7	96	48	3
NMTAP	46	336	2
NMTAP	46	336	7
NMTAP	47	48	0
NMTAP	47	96	0
NMSTR	47	192	2
NMSI_	47	192	2	96	48	0
NMSTR	47	192	4
NMSI_	47	192	4	96	48	7
NMTAP	47	288	2
NMTAP	47	288	4
NMSTR	48	0	6
NMSLL	48	0	6	96	48	2
NMSTR	48	0	7
NMSV_	48	0	7	96	48	2
NMTAP	48	192	0
NMTAP	48	288	0
NMTAP	48	288	1
NMSTR	48	336	0
NMSXR	48	336	0	96	96	6
NMSTR	48	336	1
NMSCR	48	336	1	96	96	6
NMSTR	49	192	7
NMSCR	49	192	7	96	48	1
EXTAP	49	288	4
CNSV_	49	336	1	0	96	4
NMSTR	50	240	3
NMSI_	50	240	3	96	48	0
NMSTR	50	240	4
NMSI_	50	240	4	96	48	7
EXTAP	50	336	3
EXTAP	50	336	4
NMSTR	51	48	2
NMSI_	51	48	2	96	48	0
NMSTR	51	48	5
NMSI_	51	48	5	96	48	7
EXTAP	51	144	2
EXTAP	51	144	5
EXTAP	51	240	1
EXTAP	51	240	6
EXTAP	51	288	1
EXTAP	51	288	6
NMTAP	52	0	2
NMTAP	52	48	2
NMTAP	52	96	3
NMTAP	52	144	1
NMTAP	52	192	7
NMSTR	52	240	0
NMSUR	52	240	0	96	48	5
NMTAP	52	288	6
NMHLD	52	336	6	96
NMTAP	53	48	7
NMTAP	53	96	7
NMTAP	53	144	6
NMTAP	53	192	0
NMTAP	53	240	3
NMTAP	53	288	2
NMTAP	53	336	4
NMSTR	54	0	5
NMSI_	54	0	5	96	48	2
NMTAP	54	48	5
NMSTR	54	96	1
NMSI_	54	96	1	96	48	6
NMTAP	54	144	1
NMSTR	54	192	3
NMSI_	54	192	3	96	48	7
NMTAP	54	240	3
NMSTR	54	288	0
NMSI_	54	288	0	96	48	4
NMTAP	54	336	0
NMTAP	55	0	6
NMTAP	55	48	6
NMTAP	55	96	3
NMTAP	55	144	5
NMTAP	55	192	1
NMTAP	55	240	3
NMSTR	55	288	0
BRSI_	55	288	0	96	48	4
NMTAP	55	288	4
NMTAP	55	336	0
NMTAP	55	336	4
BXHLD	56	0	5	96
NMTAP	56	96	3
NMTAP	56	144	3
NMTAP	56	192	2
NMTAP	56	240	2
NMTAP	56	288	0
NMTAP	56	288	1
NMTAP	56	336	0
NMHLD	56	336	1	96
NMTTP	57	48	1	E	0	M1
NMTTP	57	96	2	E	0	M1
NMTTP	57	144	3	E	0	M1
NMTTP	57	192	4	E	0	M1
EXSTR	57	288	6
NMSI_	57	288	6	96	48	4
NMTAP	58	0	2
NMSTR	58	48	1
NMSI_	58	48	1	96	48	3
NMTAP	58	144	6
NMSTR	58	192	7
NMSI_	58	192	7	96	48	3
NMTAP	58	288	1
NMSTR	58	336	0
NMSI_	58	336	0	96	48	4
NMTAP	59	48	5
NMSTR	59	96	6
NMSI_	59	96	6	96	48	2
NMTAP	59	192	0
NMTAP	59	240	0
NMTHO	59	336	0	144	C	0	M1
NMTTP	59	336	2	B	0	M1
NMTTP	59	336	3	B	0	M1
NMTTP	59	336	3	E	0	M1
NMTTP	60	192	0	B	0	M1
NMTTP	60	192	0	A	0	M1
NMTTP	60	192	1	B	0	M1
NMTTP	60	192	1	E	0	M1
NMTTP	60	192	1	A	0	M1
NMTTP	60	192	1	D	1	M1
NMTHO	60	336	0	144	C	0	M1
NMTTP	60	336	4	B	0	M1
NMTTP	60	336	5	B	0	M1
NMTTP	60	336	5	E	0	M1
NMTTP	61	192	6	B	0	M1
NMTTP	61	192	6	A	0	M1
NMTTP	61	192	7	B	0	M1
NMTTP	61	192	7	E	0	M1
NMTTP	61	192	7	A	0	M1
NMTTP	61	192	7	D	1	M1
NMTHO	61	336	0	144	C	0	M1
NMTTP	61	336	2	B	0	M1
NMTTP	61	336	3	B	0	M1
NMTTP	61	336	3	E	0	M1
NMTTP	62	192	0	B	0	M1
NMTTP	62	192	0	A	0	M1
NMTTP	62	192	1	B	0	M1
NMTTP	62	192	1	E	0	M1
NMTTP	62	192	1	A	0	M1
NMTTP	62	192	1	D	1	M1
NMSTR	62	336	7
NMSCL	62	336	7	96	48	4
NMSTR	63	144	0
NMSCR	63	144	0	96	48	3
NMTHO	63	336	0	144	C	0	M1
NMTTP	63	336	4	B	0	M1
NMTTP	63	336	5	B	0	M1
NMTTP	63	336	5	E	0	M1
NMTTP	64	192	6	B	0	M1
NMTTP	64	192	6	A	0	M1
NMTTP	64	192	7	B	0	M1
NMTTP	64	192	7	E	0	M1
NMTTP	64	192	7	A	0	M1
NMTTP	64	192	7	D	1	M1
NMTHO	64	336	0	144	C	0	M1
NMTTP	64	336	2	B	0	M1
NMTTP	64	336	3	B	0	M1
NMTTP	64	336	3	E	0	M1
NMTTP	65	192	0	B	0	M1
NMTTP	65	192	0	A	0	M1
NMTTP	65	192	1	B	0	M1
NMTTP	65	192	1	E	0	M1
NMTTP	65	192	1	A	0	M1
NMTTP	65	192	1	D	1	M1
NMSTR	65	336	6
NMSI_	65	336	6	96	48	1
CNSV_	66	96	1	0	96	4
NMSTR	66	288	0
NMSV_	66	288	0	96	48	3
NMSTR	66	288	5
NMSV_	66	288	5	96	48	3
NMTAP	67	144	0
NMTAP	67	144	6
NMTAP	67	192	0
NMTAP	67	192	6
NMSTR	67	240	7
NMSI_	67	240	7	96	72	3
NMTAP	67	288	2
NMHLD	67	336	2	240
CNSCL	68	24	3	0	72	0
CNSI_	68	96	0	0	48	4
CNSI_	68	144	4	0	48	6
NMTAP	68	288	0
NMTAP	68	288	1
NMTAP	68	336	0
NMHLD	68	336	1	96
NMTAP	69	48	7
NMSTR	69	96	7
NMSCL	69	96	7	96	96	2
NMTAP	69	192	2
NMTAP	69	240	1
NMHLD	69	288	0	192
BRTAP	70	0	2
BRTAP	70	96	1
BRTAP	70	192	0
NMTAP	70	288	7
NMSTR	70	336	7
NMSCR	70	336	7	96	144	5
NMSUR	70	336	7	96	144	5
NMTAP	71	288	6
NMTAP	71	288	7
NMTAP	71	336	5
NMTAP	71	336	7
NMTAP	72	48	0
NMTAP	72	48	1
NMTAP	72	96	0
NMTAP	72	96	2
NMTAP	72	192	2
NMTAP	72	192	3
NMSTR	72	240	1
NMSI_	72	240	1	96	48	7
NMTAP	72	240	3
NMTAP	72	336	4
NMTAP	73	48	4
NMTAP	73	48	5
NMTAP	73	96	4
NMTAP	73	96	6
NMSTR	73	192	0
NMSI_	73	192	0	96	48	6
NMHLD	73	240	0	240
CNSI_	73	336	6	0	48	2
CNSCR	74	0	2	0	48	4
EXTAP	74	96	7
NMSTR	74	144	7
NMSI_	74	144	7	96	48	1
NMSI_	74	144	7	96	48	5
NMSTR	74	240	7
NMSF_	74	240	7	96	48	3
EXTAP	75	48	0
EXTAP	75	48	6
EXTAP	75	96	0
EXTAP	75	96	6
NMTAP	75	192	2
NMTAP	75	192	4
NMSTR	75	288	0
NMSCL	75	288	0	96	48	5
NMSTR	75	288	1
NMSCR	75	288	1	96	48	4
NMTAP	76	0	0
NMTAP	76	0	1
NMSTR	76	96	6
NMSCL	76	96	6	96	48	3
NMSTR	76	96	7
NMSCR	76	96	7	96	48	2
NMTAP	76	192	6
NMTAP	76	192	7
NMSTR	76	288	0
NMSCL	76	288	0	96	48	5
NMSTR	76	288	1
NMSCR	76	288	1	96	48	4
NMTAP	77	0	0
NMTAP	77	0	1
NMSTR	77	96	7
NMSXR	77	96	7	96	96	7
NMTAP	77	192	2
NMTAP	77	288	0
NMHLD	77	336	0	96
NMTAP	78	48	3
NMSTR	78	96	3
NMSI_	78	96	3	96	48	6
NMSTR	78	192	3
NMSXR	78	192	3	96	192	0
EXTAP	78	288	5
EXTAP	78	336	5
NMTAP	79	48	6
NMTAP	79	96	6
NMSTR	79	192	6
NMSI_	79	192	6	96	48	2
NMSTR	79	192	7
NMSI_	79	192	7	96	48	3
NMTAP	79	288	6
NMTAP	79	288	7
NMSTR	80	0	0
NMSI_	80	0	0	96	48	4
NMSTR	80	0	1
NMSI_	80	0	1	96	48	5
NMTAP	80	96	0
NMTAP	80	96	1
NMTAP	80	192	6
NMTAP	80	192	7
NMTAP	80	240	6
NMTAP	80	240	7
NMTAP	80	288	1
NMSTR	80	288	5
NMSV_	80	288	5	96	96	3
NMTAP	80	336	1
NMTAP	80	336	5
NMTAP	81	48	0
NMTAP	81	96	0
CNSI_	81	96	3	0	96	1
NMTAP	81	192	7
NMTAP	81	240	7
NMTAP	81	336	0
NMTAP	81	336	6
NMSTR	82	0	0
NMSCR	82	0	0	96	96	4
NMTAP	82	0	6
NMSTR	82	96	4
BRSCR	82	96	4	96	96	0
NMSTR	82	192	0
NMSCR	82	192	0	96	96	4
NMSTR	82	288	4
BRSCR	82	288	4	96	96	0
NMTAP	83	0	0
NMTAP	83	96	4
NMTAP	83	192	2
NMTAP	83	192	6
NMSTR	83	240	2
NMSCL	83	240	2	96	120	6
NMTAP	83	240	6
NMTAP	83	336	4
NMTAP	84	48	3
CNSCR	84	72	6	0	120	2
NMTAP	84	96	3
NMTAP	84	192	5
NMSTR	84	240	5
NMSCR	84	240	5	96	120	1
NMTAP	84	336	3
NMTAP	85	48	4
CNSCL	85	72	1	0	120	5
NMTAP	85	96	4
NMTAP	85	192	2
NMSTR	85	240	2
NMSI_	85	240	2	96	48	0
NMSTR	85	336	5
NMSI_	85	336	5	96	48	7
NMTAP	86	48	3
NMTAP	86	96	3
NMSTR	86	192	3
NMSI_	86	192	3	96	48	0
NMSTR	86	192	4
NMSI_	86	192	4	96	48	7
BRTAP	86	288	3
BRTAP	86	288	4
EXTAP	87	48	0
EXTAP	87	48	7
EXTAP	87	96	0
EXTAP	87	96	7
NMTAP	87	192	1
NMTAP	87	192	5
NMSTR	87	288	0
NMSCR	87	288	0	96	48	3
NMSTR	87	288	6
NMSCL	87	288	6	96	48	3
NMTAP	88	96	1
NMTAP	88	96	5
NMTAP	88	192	2
NMTAP	88	192	6
NMSTR	88	288	4
NMSCL	88	288	4	96	48	1
NMSTR	88	288	5
NMSUL	88	288	5	96	48	0
EXTAP	89	96	7
NMTAP	89	192	4
NMTAP	89	192	5
NMTAP	89	288	2
NMTAP	89	288	3
NMTAP	89	336	1
NMTAP	90	0	0
NMTAP	90	0	7
NMTAP	90	96	3
NMTAP	90	96	4
NMTAP	90	144	3
NMTAP	90	144	4
NMSTR	90	240	6
NMSXL	90	240	6	96	144	3
NMTAP	90	240	7
BRHLD	90	336	2	144
NMTAP	91	192	0
NMTAP	91	192	1
NMSTR	91	240	0
NMSI_	91	240	0	96	48	4
NMTAP	91	240	1
NMTAP	91	336	0
NMSTR	91	336	1
NMSLR	91	336	1	96	48	5
NMTAP	92	48	6
NMTAP	92	96	6
NMTAP	92	192	6
NMTAP	92	192	7
NMTAP	92	240	6
NMSTR	92	240	7
NMSI_	92	240	7	96	48	3
NMSTR	92	336	6
NMSLL	92	336	6	96	48	2
NMTAP	92	336	7
NMTAP	93	48	1
NMTAP	93	96	1
NMSTR	93	192	0
NMSI_	93	192	0	96	48	3
NMTAP	93	192	4
NMTAP	93	288	0
NMSTR	93	288	5
NMSI_	93	288	5	96	48	1
NMSTR	94	0	2
NMSI_	94	0	2	96	48	6
NMTAP	94	0	5
NMTAP	94	96	2
NMSTR	94	96	4
NMSI_	94	96	4	96	48	7
NMSTR	94	192	0
NMSI_	94	192	0	96	48	4
NMTAP	94	192	4
NMTAP	94	288	0
NMTAP	94	288	6
NMSTR	95	0	3
NMSCL	95	0	3	96	48	0
NMSTR	95	0	5
NMSCR	95	0	5	96	48	0
NMTAP	95	96	3
NMTAP	95	96	5
NMTAP	95	192	6
NMTAP	95	192	7
NMTAP	95	240	6
NMSTR	95	240	7
NMSI_	95	240	7	96	48	3
NMSTR	95	336	6
NMSLL	95	336	6	96	48	2
NMTAP	95	336	7
NMTAP	96	48	1
NMTAP	96	96	1
NMTAP	96	192	0
NMTAP	96	192	1
NMSTR	96	240	0
NMSI_	96	240	0	96	48	4
NMTAP	96	240	1
NMTAP	96	336	0
NMSTR	96	336	1
NMSLR	96	336	1	96	48	5
NMTAP	97	48	6
NMTAP	97	96	6
NMTAP	97	192	0
NMTAP	97	192	7
NMTAP	97	288	0
NMSTR	97	288	1
NMSXL	97	288	1	96	336	6
NMHLD	98	0	0	336
BRTAP	98	0	1
NMTAP	99	144	4
NMTAP	99	144	6
NMTAP	99	240	2
NMTAP	99	240	4
NMTAP	99	288	2
NMTAP	99	288	4
NMTAP	100	0	1
NMSTR	100	0	5
NMSI_	100	0	5	96	48	0
NMTAP	100	96	3
NMTAP	100	144	3
NMTAP	100	192	7
NMTAP	100	240	7
NMTAP	100	288	0
NMTAP	100	288	1
NMTAP	100	336	0
NMTAP	100	336	1
NMSTR	101	48	5
NMSXL	101	48	5	96	144	0
NMTAP	101	144	0
NMTAP	101	240	3
NMTAP	101	288	3
NMSTR	102	0	2
NMSI_	102	0	2	96	48	7
NMTAP	102	0	6
NMTAP	102	96	4
NMTAP	102	144	4
NMTAP	102	192	0
NMTAP	102	240	0
NMTAP	102	288	6
NMTAP	102	288	7
NMTAP	102	336	6
NMTAP	102	336	7
NMSTR	103	48	2
NMSXR	103	48	2	96	144	7
NMTAP	103	144	7
NMTAP	103	240	4
NMTAP	103	288	4
NMTAP	104	0	1
NMSTR	104	0	5
NMSI_	104	0	5	96	48	0
NMTAP	104	96	3
NMTAP	104	144	3
NMTAP	104	192	7
NMTAP	104	240	7
NMTAP	104	288	0
NMTAP	104	288	1
NMTAP	104	336	0
NMTAP	104	336	1
NMSTR	105	48	5
NMSXL	105	48	5	96	144	0
NMTAP	105	144	0
NMTAP	105	240	3
NMTAP	105	288	3
BRTAP	106	0	1
BRTAP	106	0	3
BRTAP	106	96	3
BRTAP	106	96	4
BRTAP	106	192	4
BRTAP	106	192	6
NMSTR	106	240	0
NMSI_	106	240	0	96	48	4
NMTAP	106	264	7
NMTAP	106	288	0
BRSTR	106	336	6
NMSI_	106	336	6	96	48	2
BRSTR	107	48	3
NMSI_	107	48	3	96	48	0
NMSI_	107	48	3	96	48	7
BRTAP	107	144	3
EXTAP	107	240	0
EXTAP	107	240	7
EXSTR	107	288	0
NMSCR	107	288	0	96	48	3
EXSTR	107	288	7
NMSCL	107	288	7	96	48	4
BRTAP	108	0	0
BRTAP	108	0	7

T_REC_TAP	366
T_REC_BRK	17
T_REC_XTP	49
T_REC_BXX	0
T_REC_HLD	25
T_REC_XHO	1
T_REC_BHO	1
T_REC_BXH	2
T_REC_STR	145
T_REC_BST	2
T_REC_XST	8
T_REC_XBS	0
T_REC_TTP	50
T_REC_THO	6
T_REC_SLD	153
T_REC_BSL	7
T_REC_ALL	832
T_NUM_TAP	618
T_NUM_BRK	29
T_NUM_HLD	32
T_NUM_SLD	153
T_NUM_ALL	832
T_JUDGE_TAP	637
T_JUDGE_HLD	86
T_JUDGE_SLD	160
T_JUDGE_ALL	883
TTM_EACHPAIRS	183
TTM_SCR_TAP	309000
TTM_SCR_BRK	75400
TTM_SCR_HLD	32000
TTM_SCR_SLD	229500
TTM_SCR_ALL	645900
TTM_SCR_S	623750
TTM_SCR_SS	643000
TTM_RAT_ACV	10045

