VERSION	0.00.00	1.04.00
FES_MODE	0
BPM_DEF	176.000	176.000	176.000	176.000
MET_DEF	4	4
RESOLUTION	384
CLK_DEF	384
COMPATIBLE_CODE	MA2

BPM	0	0	176.000
MET	0	0	4	4

EXTAP	2	0	3
EXHLD	2	0	4	672
NMTAP	3	288	3
BRTAP	4	0	2
NMTAP	4	96	1
NMTAP	4	144	1
NMTAP	4	192	7
NMTAP	4	288	0
NMTAP	4	288	6
NMTAP	5	0	5
NMTAP	5	96	6
NMTAP	5	144	6
NMTAP	5	192	0
NMTAP	5	288	1
NMTAP	5	288	7
NMTAP	6	0	2
NMTAP	6	96	1
NMTAP	6	144	1
NMTAP	6	192	7
NMTAP	6	288	0
NMTAP	6	288	6
NMTAP	7	0	1
NMTAP	7	0	5
NMTAP	7	96	2
NMTAP	7	96	4
NMTAP	7	192	1
NMTAP	7	192	5
NMTAP	7	288	1
NMTAP	7	288	5
NMTAP	8	0	5
NMTAP	8	96	6
NMTAP	8	144	6
NMTAP	8	192	4
NMTAP	8	288	3
NMTAP	8	288	5
NMTAP	9	0	2
NMTAP	9	96	1
NMTAP	9	144	1
NMTAP	9	192	3
NMTAP	9	288	2
NMTAP	9	288	4
EXTAP	10	0	3
EXTAP	10	0	5
EXTAP	10	96	2
EXTAP	10	96	6
EXSTR	10	192	1
NMSUR	10	192	1	96	288	4
EXTAP	10	192	7
NMTAP	12	0	5
NMHLD	12	96	5	576
NMTAP	12	288	4
NMTAP	13	96	4
NMTAP	13	240	3
NMTAP	13	288	3
NMTAP	14	0	2
NMHLD	14	96	2	576
NMTAP	14	288	3
NMTAP	15	96	3
NMTAP	15	240	4
NMTAP	15	288	4
NMTAP	16	0	5
NMHLD	16	96	5	192
NMTAP	16	288	4
NMTAP	17	0	3
NMHLD	17	96	2	192
NMTAP	17	288	3
NMHLD	18	0	2	96
NMHLD	18	0	3	96
NMHLD	18	192	3	96
NMHLD	18	192	4	96
EXTAP	19	0	4
EXTAP	19	0	5
NMSTR	19	96	6
NMSI_	19	96	6	96	96	2
NMTAP	20	0	1
NMHLD	20	96	1	576
NMTTP	20	288	3	B	0	M1
NMTTP	21	96	2	B	0	M1
NMTAP	21	240	0
NMTAP	21	288	0
NMTAP	22	0	2
NMTAP	22	0	7
NMTAP	22	96	3
NMHLD	22	96	6	576
NMTTP	22	288	4	B	0	M1
NMTTP	23	96	3	B	0	M1
EXTAP	23	240	4
EXTAP	23	288	4
NMHLD	24	0	3	96
NMHLD	24	0	5	96
NMHLD	24	192	2	96
NMHLD	24	192	4	96
NMTAP	25	0	3
NMTAP	25	0	5
NMTAP	25	96	4
NMTAP	25	144	4
NMTAP	25	240	2
NMTAP	25	240	3
NMTAP	25	288	2
NMTAP	25	288	3
EXHLD	26	0	0	192
EXHLD	26	0	1	192
NMSTR	26	288	0
NMSCL	26	288	0	96	96	5
NMSTR	26	288	1
NMSCR	26	288	1	96	96	4
EXTAP	27	288	4
EXTAP	27	288	5
NMSTR	28	0	6
NMSI_	28	0	6	96	96	2
NMSTR	28	192	1
NMSCL	28	192	1	96	96	6
NMSTR	29	0	5
NMSCL	29	0	5	96	96	2
NMTAP	29	192	1
NMTAP	29	288	1
NMTAP	30	0	1
NMTAP	30	0	3
NMTAP	30	96	2
NMTAP	30	96	4
NMTAP	30	192	5
NMTAP	30	240	5
NMTAP	30	288	4
NMTAP	31	0	6
NMTAP	31	0	7
NMTAP	31	96	0
NMTAP	31	96	5
NMTAP	31	192	1
NMTAP	31	192	4
NMTAP	31	288	1
NMTAP	31	288	4
NMSTR	32	0	0
NMSI_	32	0	0	96	96	4
NMSTR	32	192	5
NMSI_	32	192	5	96	96	0
NMSTR	33	0	2
NMSI_	33	0	2	96	96	5
NMTAP	33	192	6
NMSTR	33	288	7
NMSCL	33	288	7	96	288	1
EXTAP	35	0	0
EXTAP	35	0	6
NMTAP	35	192	2
NMTAP	35	192	5
NMTAP	35	288	0
NMTAP	35	288	1
BXTAP	35	336	0
BXTAP	35	336	1
NMTAP	36	48	3
NMTAP	36	48	7
NMTAP	36	96	3
NMTAP	36	96	7
NMTAP	36	192	4
NMTAP	36	192	5
NMTAP	36	288	1
NMTAP	36	288	3
NMHLD	36	336	1	96
NMTAP	36	336	3
NMTAP	37	48	0
NMTAP	37	96	0
NMTAP	37	192	2
NMTAP	37	192	7
NMTAP	37	288	6
NMHLD	37	336	6	96
NMTAP	38	48	4
NMTAP	38	96	4
NMTAP	38	192	3
NMTAP	38	192	5
NMTAP	38	288	1
NMTAP	38	288	7
BRTAP	38	336	1
BRTAP	38	336	7
EXTAP	39	48	2
EXTAP	39	48	6
EXTAP	39	96	2
EXTAP	39	96	6
NMTAP	39	192	4
NMTAP	39	192	5
NMTAP	39	288	1
NMTAP	39	288	3
NMTAP	39	336	1
NMTAP	39	336	3
NMTAP	40	48	0
NMTAP	40	48	4
NMTAP	40	96	0
NMTAP	40	96	4
NMTAP	40	192	6
NMTAP	40	192	7
NMTAP	40	288	4
NMTAP	40	288	5
NMTAP	40	336	4
NMHLD	40	336	5	96
NMTAP	41	48	0
NMTAP	41	96	0
EXSTR	41	192	0
NMSI_	41	192	0	96	48	4
EXSTR	41	192	1
NMSI_	41	192	1	96	48	4
EXSTR	42	0	6
NMSI_	42	0	6	96	48	3
EXSTR	42	0	7
NMSI_	42	0	7	96	48	3
EXTAP	42	192	0
EXTAP	42	192	1
NMTAP	42	288	2
NMTAP	42	288	7
NMTAP	42	336	2
NMTAP	42	336	7
NMTAP	43	48	3
NMTAP	43	48	6
BXTAP	43	96	3
BXTAP	43	96	6
NMTAP	43	192	2
NMTAP	43	192	5
NMTAP	43	288	0
NMTAP	43	288	1
BXTAP	43	336	0
BXTAP	43	336	1
NMTAP	44	48	2
NMTAP	44	48	7
NMTAP	44	96	2
NMTAP	44	96	7
NMTAP	44	192	3
NMTAP	44	192	5
NMTAP	44	288	4
NMTAP	44	288	6
NMTAP	44	336	4
NMHLD	44	336	6	96
NMTAP	45	48	7
NMTAP	45	96	7
NMTAP	45	192	0
NMTAP	45	192	6
NMTAP	45	288	1
NMHLD	45	336	1	96
NMTAP	46	48	3
NMTAP	46	96	3
NMTAP	46	192	2
NMTAP	46	192	4
NMTAP	46	288	0
NMTAP	46	288	6
BRTAP	46	336	0
BRTAP	46	336	6
NMTAP	47	48	1
NMTAP	47	48	7
NMTAP	47	96	1
NMTAP	47	96	7
NMTAP	47	192	4
NMTAP	47	192	5
NMTAP	47	288	1
NMTAP	47	288	3
NMTAP	47	336	1
NMTAP	47	336	3
NMTAP	48	48	0
NMTAP	48	48	4
NMTAP	48	96	0
NMTAP	48	96	4
NMTAP	48	192	2
NMTAP	48	192	6
NMTAP	48	288	4
NMTAP	48	288	5
NMTAP	48	336	4
NMTAP	48	336	5
NMTAP	49	48	1
NMTAP	49	48	3
NMTAP	49	96	1
NMTAP	49	96	3
EXSTR	49	192	0
BRSI_	49	192	0	96	48	4
EXTAP	49	288	7
BXHLD	49	336	7	480
BXTAP	51	48	0
BXTAP	51	144	0
EXTAP	51	240	1
EXTAP	51	240	7
EXTAP	51	288	1
EXTAP	51	288	7
NMSTR	52	0	6
NMSCL	52	0	6	96	96	3
NMTAP	52	192	2
NMTAP	52	288	1
NMSTR	53	0	0
NMSI_	53	0	0	96	96	4
NMTAP	53	192	5
NMTAP	53	288	6
NMSTR	54	0	7
NMSI_	54	0	7	96	96	3
NMTAP	54	192	2
NMSTR	54	288	1
NMSSR	54	288	1	96	192	5
BXHLD	56	0	6	192
NMTAP	56	96	4
NMTAP	56	144	4
NMTAP	56	192	4
NMTAP	56	288	3
NMTAP	56	288	5
NMHLD	57	0	2	192
NMTAP	57	96	3
NMTAP	57	144	3
NMTAP	57	192	3
NMTAP	57	288	1
NMTAP	57	288	4
EXTAP	58	0	6
EXTAP	58	0	7
EXTAP	58	48	6
EXTAP	58	48	7
EXTAP	58	144	0
EXTAP	58	144	7
EXTAP	58	192	0
EXTAP	58	192	7
EXTAP	58	288	0
EXTAP	58	288	1
EXTAP	58	336	0
EXTAP	58	336	1
EXTAP	59	48	0
EXTAP	59	48	7
EXTAP	59	96	0
EXTAP	59	96	7
EXTAP	59	192	1
EXTAP	59	192	6
EXSTR	59	240	1
NMSI_	59	240	1	96	48	4
EXSTR	59	240	6
NMSI_	59	240	6	96	48	3
NMTTP	60	336	1	B	0	M1
NMTTP	60	336	2	B	1	M1
NMTTP	60	336	2	E	0	M1
NMTTP	60	336	3	B	0	M1
NMTTP	60	336	3	E	0	M1
NMTTP	61	336	4	B	0	M1
NMTTP	61	336	5	B	1	M1
NMTTP	61	336	5	E	0	M1
NMTTP	61	336	6	B	0	M1
NMTTP	61	336	6	E	0	M1
NMTHO	62	336	0	192	C	0	M1
EXHLD	63	336	0	144
EXHLD	63	336	1	144
EXTAP	64	192	7
EXTAP	64	240	7
EXHLD	64	336	6	144
EXHLD	64	336	7	144
EXTAP	65	192	5
EXSTR	65	240	5
BRSXL	65	240	5	96	336	3
BXHLD	67	0	1	192
NMTAP	67	192	3
NMTAP	67	240	3
NMTAP	67	288	3
NMHLD	67	336	2	240
NMHLD	67	336	4	240
NMTAP	68	288	1
NMTAP	68	288	5
NMSTR	68	336	1
BRSV_	68	336	1	96	192	3
NMSTR	68	336	5
BRSCR	68	336	5	96	192	1
EXTAP	70	0	2
EXTAP	70	96	1
EXTAP	70	192	0
NMSTR	70	288	0
NMSF_	70	288	0	96	144	4
EXTAP	71	288	2
EXTAP	71	288	6
BXTAP	71	336	2
BXTAP	71	336	6
NMTAP	72	48	1
NMTAP	72	48	5
NMTAP	72	96	1
NMTAP	72	96	5
NMTAP	72	192	2
NMTAP	72	192	4
NMTAP	72	288	1
NMTAP	72	288	3
NMHLD	72	336	1	96
NMTAP	72	336	3
NMTAP	73	48	0
NMTAP	73	96	0
NMSTR	73	192	6
NMSI_	73	192	6	96	48	4
NMSTR	73	192	7
NMSI_	73	192	7	96	48	3
NMSTR	74	0	0
NMSI_	74	0	0	96	48	4
NMSTR	74	0	1
NMSI_	74	0	1	96	48	3
NMTAP	74	192	6
NMTAP	74	192	7
EXTAP	74	288	0
EXTAP	74	288	5
BXTAP	74	336	0
BXTAP	74	336	5
NMTAP	75	48	2
NMTAP	75	48	3
NMTAP	75	96	2
NMTAP	75	96	3
NMTAP	75	192	3
NMTAP	75	192	4
NMTAP	75	288	6
NMTAP	75	288	7
EXTAP	75	336	6
EXTAP	75	336	7
NMTAP	76	48	5
NMTAP	76	96	4
NMTAP	76	96	6
NMTAP	76	192	2
NMTAP	76	240	2
NMTAP	76	288	3
NMHLD	76	336	1	96
NMTAP	77	48	0
NMTAP	77	96	0
NMTAP	77	192	1
NMTAP	77	192	7
NMTAP	77	288	3
NMTAP	77	288	5
NMTAP	77	336	3
NMTAP	77	336	5
NMTAP	78	48	6
NMHLD	78	96	6	96
NMTAP	78	192	4
NMTAP	78	288	0
NMTAP	78	288	1
BRTAP	78	336	0
BRTAP	78	336	1
NMTAP	79	48	2
NMTAP	79	48	7
NMTAP	79	96	2
NMTAP	79	96	7
NMTAP	79	192	4
NMTAP	79	192	5
NMTAP	79	288	1
NMTAP	79	288	2
EXTAP	79	336	1
EXTAP	79	336	2
NMTAP	80	48	6
NMTAP	80	48	7
NMTAP	80	96	6
NMTAP	80	96	7
NMTAP	80	192	5
NMTAP	80	240	5
NMTAP	80	288	4
NMHLD	80	336	6	96
EXTAP	81	48	5
EXTAP	81	96	5
NMTAP	81	192	0
NMTAP	81	192	7
NMTAP	81	288	2
NMTAP	81	336	2
NMTAP	81	336	3
NMTAP	82	48	5
NMTAP	82	96	4
NMTAP	82	96	5
NMTAP	82	192	6
NMTAP	82	192	7
NMTAP	82	288	0
NMTAP	82	288	5
BRTAP	82	336	0
BRTAP	82	336	5
NMTAP	83	48	1
NMTAP	83	48	4
NMTAP	83	96	1
NMTAP	83	96	4
NMTAP	83	192	2
NMTAP	83	192	3
NMTAP	83	288	1
NMTAP	83	288	7
BRTAP	83	336	1
BRTAP	83	336	7
NMTAP	84	48	0
NMTAP	84	48	5
NMTAP	84	96	0
NMTAP	84	96	5
NMTAP	84	192	2
NMTAP	84	240	2
NMTAP	84	288	3
BRTAP	84	336	0
NMTAP	85	48	6
NMHLD	85	96	6	96
NMTAP	85	192	4
NMTAP	85	288	3
NMTAP	85	288	5
NMTAP	85	336	3
NMTAP	85	336	5
NMTAP	86	48	0
NMTAP	86	48	1
NMTAP	86	96	0
NMTAP	86	96	1
NMTAP	86	192	3
NMTAP	86	192	4
BRTAP	86	288	0
BRTAP	86	288	6
BRTAP	86	336	0
BRTAP	86	336	6
NMTAP	87	48	1
NMTAP	87	48	5
NMTAP	87	96	1
NMTAP	87	96	5
NMTAP	87	192	3
NMTAP	87	192	4
NMTAP	87	288	6
NMHLD	87	336	6	96
NMTAP	88	48	0
NMTAP	88	96	0
NMTAP	88	192	1
NMTAP	88	192	7
NMTAP	88	288	4
NMTAP	88	288	5
NMTAP	88	336	4
NMTAP	88	336	5
EXTAP	89	48	2
BXTAP	89	96	1
BXTAP	89	96	3
NMSTR	89	192	0
NMSI_	89	192	0	96	48	4
NMSTR	89	192	1
NMSI_	89	192	1	96	48	5
NMSTR	90	0	6
NMSI_	90	0	6	96	48	2
NMSTR	90	0	7
NMSI_	90	0	7	96	48	3
NMTAP	90	192	0
NMTAP	90	192	1
NMTAP	90	288	2
NMTAP	90	288	7
NMTAP	90	336	2
NMTAP	90	336	7
NMTAP	91	48	0
NMTAP	91	48	5
BRTAP	91	96	0
BRTAP	91	96	5
NMTAP	91	192	2
NMTAP	91	192	3
NMSTR	91	240	2
NMSCL	91	240	2	96	96	7
NMSTR	91	240	3
NMSCR	91	240	3	96	96	6
NMTAP	92	192	4
NMTAP	92	192	5
NMSTR	92	240	4
NMSCL	92	240	4	96	96	1
NMSTR	92	240	5
NMSCR	92	240	5	96	96	0
NMTAP	93	192	2
NMTAP	93	192	3
NMTAP	93	240	2
NMHLD	93	240	3	96
NMHLD	93	336	4	96
NMHLD	94	48	5	96
NMHLD	94	144	6	96
NMHLD	94	240	7	96
NMTAP	94	336	0
NMTAP	95	48	1
NMTAP	95	48	6
NMTAP	95	96	1
NMTAP	95	96	6
NMTAP	95	192	4
NMTAP	95	192	5
NMSTR	95	240	4
NMSCL	95	240	4	96	96	1
NMSTR	95	240	5
NMSCR	95	240	5	96	96	0
NMTAP	96	192	2
NMTAP	96	192	3
NMSTR	96	240	2
NMSCL	96	240	2	96	96	7
NMSTR	96	240	3
NMSCR	96	240	3	96	96	6
NMTAP	97	192	4
NMTAP	97	192	5
NMSTR	97	240	4
BRSI_	97	240	4	96	48	0
NMTAP	97	240	5
NMHLD	97	336	6	384
NMTTP	98	336	0	C	0	M1
EXTAP	99	240	0
EXTAP	99	240	7
EXTAP	99	288	0
EXTAP	99	288	7
NMHLD	100	0	1	96
NMTAP	100	96	3
NMTAP	100	144	3
NMTAP	100	192	2
NMTAP	100	288	3
NMTAP	100	288	5
NMTAP	101	0	6
NMTAP	101	0	7
NMTAP	101	96	0
NMTAP	101	96	1
NMTAP	101	192	2
NMTAP	101	192	3
NMTAP	101	288	1
NMTAP	101	288	4
NMHLD	102	0	6	96
NMTAP	102	96	4
NMTAP	102	144	4
NMTAP	102	192	5
NMTAP	102	288	2
NMTAP	102	288	4
NMTAP	103	0	0
NMTAP	103	0	1
NMTAP	103	96	6
NMTAP	103	96	7
NMSTR	103	192	1
NMSI_	103	192	1	96	48	4
NMSTR	103	192	5
NMSI_	103	192	5	96	48	0
EXTAP	104	0	3
EXTAP	104	0	7
NMTAP	104	96	6
NMTAP	104	144	6
NMHLD	104	192	4	96
NMHLD	104	288	2	96
NMHLD	105	0	0	96
NMHLD	105	96	6	96
NMHLD	105	192	4	96
NMTAP	105	288	5
EXTAP	106	0	2
EXTAP	106	0	3
EXTAP	106	96	1
EXTAP	106	96	4
EXTAP	106	192	0
EXTAP	106	192	5
NMTAP	106	288	6
NMSTR	106	336	6
NMSI_	106	336	6	96	96	3
CNSI_	107	144	3	0	96	1
EXTAP	107	240	0
EXSTR	107	288	0
BRSF_	107	288	0	96	48	4

T_REC_TAP	360
T_REC_BRK	18
T_REC_XTP	73
T_REC_BXX	14
T_REC_HLD	41
T_REC_XHO	7
T_REC_BHO	0
T_REC_BXH	3
T_REC_STR	37
T_REC_BST	0
T_REC_XST	10
T_REC_XBS	0
T_REC_TTP	15
T_REC_THO	1
T_REC_SLD	41
T_REC_BSL	6
T_REC_ALL	626
T_NUM_TAP	495
T_NUM_BRK	41
T_NUM_HLD	49
T_NUM_SLD	41
T_NUM_ALL	626
T_JUDGE_TAP	527
T_JUDGE_HLD	196
T_JUDGE_SLD	47
T_JUDGE_ALL	770
TTM_EACHPAIRS	198
TTM_SCR_TAP	247500
TTM_SCR_BRK	106600
TTM_SCR_HLD	49000
TTM_SCR_SLD	61500
TTM_SCR_ALL	464600
TTM_SCR_S	446700
TTM_SCR_SS	460500
TTM_RAT_ACV	10089

