VERSION	0.00.00	1.04.00
FES_MODE	0
BPM_DEF	176.000	176.000	176.000	176.000
MET_DEF	4	4
RESOLUTION	384
CLK_DEF	384
COMPATIBLE_CODE	MA2

BPM	0	0	176.000
MET	0	0	4	4

NMHLD	2	0	0	576
NMHLD	2	0	7	576
NMTAP	4	0	1
NMTAP	4	192	1
NMTAP	5	0	2
NMTAP	5	192	2
NMTAP	6	0	3
NMTAP	6	192	3
NMTAP	7	0	4
NMTAP	7	0	5
NMTAP	8	0	6
NMTAP	8	192	6
NMTAP	9	0	5
NMTAP	9	192	5
EXTAP	10	0	4
EXTAP	10	192	4
NMTAP	11	0	2
NMTAP	11	0	3
NMTAP	12	0	2
NMTAP	12	96	2
NMTAP	12	192	2
NMTAP	13	0	1
NMTAP	13	96	1
NMTAP	13	192	1
NMTAP	14	0	0
NMTAP	14	96	0
NMTAP	14	192	0
NMTAP	15	0	6
NMTAP	15	0	7
NMTAP	15	96	6
NMTAP	15	96	7
NMTAP	15	192	6
NMTAP	15	192	7
NMTAP	16	0	5
NMTAP	16	96	5
NMTAP	16	192	5
NMTAP	17	0	6
NMTAP	17	96	6
NMTAP	17	192	6
NMTAP	18	0	7
NMTAP	18	96	7
NMTAP	18	192	7
NMTAP	19	0	0
NMTAP	19	0	7
NMTAP	19	96	0
NMTAP	19	96	7
NMTAP	19	192	0
NMTAP	19	192	7
NMTTP	20	0	1	B	0	L1
NMTTP	20	96	2	B	0	L1
NMTTP	20	192	3	B	0	L1
NMTTP	21	0	6	B	0	L1
NMTTP	21	96	5	B	0	L1
NMTTP	21	192	4	B	0	L1
NMTTP	22	0	1	B	0	L1
NMTTP	22	96	2	B	0	L1
NMTTP	22	192	3	B	0	L1
NMTTP	22	288	4	B	0	L1
NMTTP	23	0	5	B	0	L1
NMTTP	23	96	6	B	0	L1
NMTTP	23	192	0	B	0	L1
NMTTP	23	192	7	B	0	L1
NMTTP	24	0	3	B	0	L1
NMTTP	24	96	2	B	0	L1
NMTTP	24	192	1	B	0	L1
NMTTP	25	0	4	B	0	L1
NMTTP	25	96	5	B	0	L1
NMTTP	25	192	6	B	0	L1
NMTTP	26	0	2	B	0	L1
NMTTP	26	96	1	B	0	L1
NMTTP	26	192	0	B	0	L1
NMTTP	26	288	7	B	0	L1
NMTTP	27	0	6	B	0	L1
NMTTP	27	96	5	B	0	L1
NMTTP	27	192	3	B	0	L1
NMTTP	27	192	4	B	0	L1
NMSTR	28	0	1
NMSCR	28	0	1	96	192	4
NMSTR	29	0	5
NMSCR	29	0	5	96	192	0
NMSTR	30	0	1
NMSI_	30	0	1	96	192	5
NMTAP	31	0	6
NMTAP	31	192	6
NMTAP	31	192	7
NMSTR	32	0	6
NMSCL	32	0	6	96	192	3
NMSTR	33	0	2
NMSCL	33	0	2	96	192	7
NMSTR	34	0	6
NMSI_	34	0	6	96	192	2
NMTAP	35	0	1
EXTAP	35	192	0
EXTAP	35	192	1
NMTAP	36	0	2
NMTAP	36	96	2
NMTAP	36	192	2
NMTAP	36	192	3
NMTAP	37	0	1
NMTAP	37	96	1
NMTAP	37	192	0
NMTAP	37	192	1
NMTAP	38	0	7
NMTAP	38	96	7
NMTAP	38	192	6
NMTAP	38	192	7
NMTAP	39	0	4
NMTAP	39	0	5
NMTAP	39	96	4
NMTAP	39	96	5
NMTAP	39	192	4
NMTAP	39	192	5
NMTAP	40	0	5
NMTAP	40	96	5
NMTAP	40	192	4
NMTAP	40	192	5
NMTAP	41	0	6
NMTAP	41	96	6
NMTAP	41	192	6
NMTAP	41	192	7
NMTAP	42	0	0
NMTAP	42	96	0
NMTAP	42	192	0
NMTAP	42	192	1
NMTAP	43	0	2
NMTAP	43	0	3
NMTAP	43	96	2
NMTAP	43	96	3
NMTAP	43	192	2
NMTAP	43	192	3
NMTAP	44	0	2
NMTAP	44	96	2
NMTAP	44	192	1
NMTAP	44	288	1
NMTAP	45	0	0
NMTAP	45	96	0
NMTAP	45	192	6
NMTAP	45	192	7
NMTAP	46	0	5
NMTAP	46	96	5
NMTAP	46	192	6
NMTAP	46	288	6
NMTAP	47	0	7
NMTAP	47	96	7
NMTAP	47	192	0
NMTAP	47	192	1
NMTAP	48	0	1
NMTAP	48	96	1
NMTAP	48	192	2
NMTAP	48	288	2
NMTAP	49	0	3
NMTAP	49	96	3
NMTAP	49	192	4
NMTAP	49	192	5
NMTAP	50	0	6
NMTAP	50	96	6
NMTAP	50	192	5
NMTAP	50	288	5
NMTAP	51	0	4
NMTAP	51	96	4
NMTAP	51	192	2
NMTAP	51	192	3
NMTAP	52	0	2
NMTAP	52	96	2
NMTAP	52	192	2
NMTAP	52	288	2
NMTAP	53	0	1
NMTAP	53	96	1
NMTAP	53	192	1
NMTAP	53	288	1
NMTAP	54	0	0
NMTAP	54	96	0
NMTAP	54	192	0
NMTAP	54	288	0
NMTAP	55	0	7
NMTAP	55	96	7
NMTAP	55	192	6
NMTAP	55	192	7
NMTAP	56	0	5
NMTAP	56	96	5
NMTAP	56	192	5
NMTAP	56	288	5
NMTAP	57	0	6
NMTAP	57	96	6
NMTAP	57	192	6
NMTAP	57	288	6
NMTAP	58	0	7
NMTAP	58	96	7
NMTAP	58	192	7
NMTAP	58	288	7
NMTAP	59	0	0
NMTAP	59	96	0
NMTAP	59	192	0
NMTAP	59	192	1
NMHLD	60	0	2	192
NMHLD	60	192	3	192
NMHLD	61	0	4	192
NMTAP	61	192	5
NMHLD	62	0	5	192
NMHLD	62	192	4	192
NMHLD	63	0	3	192
NMTAP	63	192	2
NMHLD	64	0	1	192
NMHLD	64	192	2	192
NMHLD	65	0	3	192
NMTAP	65	192	4
NMHLD	66	0	6	192
NMHLD	66	192	5	192
NMHLD	67	0	4	192
NMTAP	67	192	3
EXTAP	68	0	2
EXTAP	68	0	3
NMTAP	68	192	2
NMTAP	68	192	3
NMTAP	69	0	0
NMTAP	69	0	1
NMTAP	69	192	0
NMTAP	69	192	1
NMTAP	70	0	6
NMTAP	70	0	7
NMTAP	70	192	6
NMTAP	70	192	7
NMTAP	71	0	4
NMTAP	71	0	5
NMTAP	71	192	4
NMTAP	71	192	5
NMTAP	72	0	5
NMTAP	72	96	5
NMTAP	72	192	6
NMTAP	72	288	6
NMTAP	73	0	7
NMTAP	73	96	7
NMTAP	73	192	0
NMTAP	73	288	0
NMTAP	74	0	1
NMTAP	74	96	1
NMTAP	74	192	2
NMTAP	74	288	2
NMHLD	75	0	3	192
NMHLD	75	0	4	192
NMTAP	76	0	2
NMTAP	76	96	2
NMTAP	76	192	0
NMTAP	76	192	1
NMTAP	76	288	0
NMTAP	76	288	1
NMTAP	77	0	7
NMTAP	77	96	6
NMTAP	77	192	4
NMTAP	77	192	5
NMTAP	78	0	5
NMTAP	78	96	5
NMTAP	78	192	6
NMTAP	78	192	7
NMTAP	78	288	6
NMTAP	78	288	7
NMTAP	79	0	0
NMTAP	79	96	1
NMTAP	79	192	2
NMTAP	79	192	3
NMTAP	80	0	1
NMTAP	80	96	1
NMTAP	80	192	2
NMTAP	80	192	3
NMTAP	80	288	2
NMTAP	80	288	3
NMTAP	81	0	4
NMTAP	81	96	5
NMTAP	81	192	6
NMTAP	81	192	7
NMTAP	82	0	6
NMTAP	82	96	6
NMTAP	82	192	4
NMTAP	82	192	5
NMTAP	82	288	4
NMTAP	82	288	5
NMTAP	83	0	3
NMTAP	83	96	2
NMTAP	83	192	0
NMTAP	83	192	1
NMTAP	84	0	0
NMTAP	84	96	1
NMTAP	84	192	2
NMTAP	84	288	3
NMTAP	85	0	4
NMTAP	85	96	5
NMTAP	85	192	6
NMTAP	85	192	7
NMTAP	86	0	7
NMTAP	86	96	6
NMTAP	86	192	5
NMTAP	86	288	4
NMTAP	87	0	3
NMTAP	87	96	2
NMTAP	87	192	0
NMTAP	87	192	1
NMTAP	88	0	2
NMTAP	88	96	1
NMTAP	88	192	0
NMTAP	88	288	7
NMTAP	89	0	6
NMTAP	89	96	5
NMTAP	89	192	3
NMTAP	89	192	4
NMTAP	90	0	5
NMTAP	90	96	6
NMTAP	90	192	7
NMTAP	90	288	0
NMTAP	91	0	1
NMTAP	91	96	2
NMTAP	91	192	3
NMTAP	91	192	4
NMTAP	92	0	5
NMTAP	92	96	5
NMTAP	92	192	5
NMTAP	92	288	4
NMTAP	92	288	5
NMTAP	93	0	6
NMTAP	93	96	6
NMTAP	93	192	6
NMTAP	93	288	6
NMTAP	93	288	7
NMTAP	94	0	0
NMTAP	94	96	0
NMTAP	94	192	0
NMTAP	94	288	0
NMTAP	94	288	1
NMTAP	95	0	2
NMTAP	95	96	2
NMTAP	95	192	3
NMTAP	95	192	4
NMTAP	96	0	2
NMTAP	96	96	2
NMTAP	96	192	2
NMTAP	96	288	2
NMTAP	96	288	3
NMTAP	97	0	1
NMTAP	97	96	1
NMTAP	97	192	1
NMTAP	97	288	0
NMTAP	97	288	1
NMTAP	98	0	7
NMTAP	98	96	7
NMTAP	98	192	7
NMTAP	98	288	6
NMTAP	98	288	7
NMTAP	99	0	5
NMTAP	99	96	5
NMTAP	99	192	3
NMTAP	99	192	4
NMHLD	100	0	5	192
NMTAP	100	192	4
NMHLD	101	0	6	192
NMTAP	101	192	7
NMHLD	102	0	1	192
NMTAP	102	192	0
NMTAP	103	0	2
NMTAP	103	0	3
NMTAP	103	96	2
NMTAP	103	96	3
NMTAP	103	192	1
NMTAP	103	192	4
NMHLD	104	0	2	192
NMTAP	104	192	3
NMHLD	105	0	1	192
NMTAP	105	192	0
NMHLD	106	0	6	192
NMTAP	106	192	7
NMTAP	107	0	4
NMTAP	107	0	5
NMTAP	107	96	4
NMTAP	107	96	5
NMTAP	107	192	3
NMTAP	107	192	6
BRTAP	108	0	3
BRTAP	108	0	4

T_REC_TAP	306
T_REC_BRK	2
T_REC_XTP	6
T_REC_BXX	0
T_REC_HLD	22
T_REC_XHO	0
T_REC_BHO	0
T_REC_BXH	0
T_REC_STR	6
T_REC_BST	0
T_REC_XST	0
T_REC_XBS	0
T_REC_TTP	28
T_REC_THO	0
T_REC_SLD	6
T_REC_BSL	0
T_REC_ALL	376
T_NUM_TAP	346
T_NUM_BRK	2
T_NUM_HLD	22
T_NUM_SLD	6
T_NUM_ALL	376
T_JUDGE_TAP	348
T_JUDGE_HLD	104
T_JUDGE_SLD	6
T_JUDGE_ALL	458
TTM_EACHPAIRS	69
TTM_SCR_TAP	173000
TTM_SCR_BRK	5200
TTM_SCR_HLD	22000
TTM_SCR_SLD	9000
TTM_SCR_ALL	209200
TTM_SCR_S	202750
TTM_SCR_SS	209000
TTM_RAT_ACV	10009

