VERSION	0.00.00	1.04.00
FES_MODE	0
BPM_DEF	190.000	190.000	190.000	190.000
MET_DEF	4	4
RESOLUTION	384
CLK_DEF	384
COMPATIBLE_CODE	MA2

BPM	0	0	190.000
MET	0	0	4	4

EXTAP	2	288	3
EXTAP	2	288	4
NMHLD	3	0	1	96
NMHLD	3	0	3	96
NMTAP	3	144	1
NMTAP	3	144	3
NMTAP	3	240	3
NMTAP	3	240	4
NMTAP	3	336	4
NMTAP	3	336	6
NMHLD	4	0	4	96
NMHLD	4	0	6	96
NMTAP	4	144	4
NMTAP	4	144	6
NMTAP	4	240	3
NMTAP	4	240	4
NMTAP	4	336	1
NMTAP	4	336	3
NMHLD	5	0	1	96
NMHLD	5	0	3	96
NMTAP	5	144	1
NMTAP	5	144	3
NMTAP	5	240	3
NMTAP	5	240	4
NMTAP	5	336	4
NMTAP	5	336	6
NMTAP	6	0	4
NMSTR	6	0	6
NMSCL	6	0	6	96	96	1
BRTAP	6	288	0
BRTAP	6	288	7
NMSTR	7	0	6
NMSI_	7	0	6	96	48	4
NMTAP	7	96	7
NMTAP	7	144	0
NMSTR	7	192	1
NMSI_	7	192	1	96	48	3
NMTAP	7	288	0
NMTAP	7	336	7
NMSTR	8	0	6
NMSI_	8	0	6	96	48	4
NMTAP	8	96	7
NMTAP	8	144	0
NMSTR	8	192	1
NMSI_	8	192	1	96	48	4
NMTAP	8	288	7
NMTAP	8	336	6
NMSTR	9	0	5
NMSI_	9	0	5	96	48	7
NMTAP	9	96	4
NMTAP	9	144	3
NMSTR	9	192	2
NMSI_	9	192	2	96	48	0
NMTAP	9	288	4
NMTAP	9	336	5
NMTAP	10	0	6
NMTAP	10	48	6
NMTAP	10	96	0
NMTAP	10	144	0
NMSTR	10	192	0
NMSI_	10	192	0	96	48	3
NMSTR	10	192	6
NMSI_	10	192	6	96	48	3
NMTAP	11	0	2
NMTAP	11	0	4
NMTAP	11	96	2
NMTAP	11	96	7
NMTAP	11	192	2
NMTAP	11	192	3
NMTAP	11	288	2
NMTAP	11	288	6
NMTAP	11	336	6
NMTAP	12	0	2
NMSTR	12	0	6
NMSCL	12	0	6	96	96	3
NMTAP	12	96	2
NMTAP	12	192	2
NMTAP	12	288	2
NMTAP	12	288	4
NMTAP	13	0	3
NMTAP	13	0	5
NMTAP	13	96	0
NMTAP	13	96	5
NMTAP	13	192	4
NMTAP	13	192	5
NMTAP	13	288	1
NMTAP	13	288	5
NMTAP	13	336	1
NMSTR	14	0	1
NMSXR	14	0	1	96	192	3
NMTAP	14	0	5
NMTAP	14	96	5
NMTAP	14	192	5
NMTAP	14	288	5
NMTAP	15	0	2
NMTAP	15	0	4
NMTAP	15	96	0
NMTAP	15	96	2
NMTAP	15	192	2
NMTAP	15	192	3
NMTAP	15	288	2
NMTAP	15	288	4
NMTAP	15	336	4
NMTAP	16	0	2
NMSTR	16	0	4
NMSXL	16	0	4	96	192	3
NMTAP	16	96	2
NMTAP	16	192	2
NMTAP	16	288	2
NMTAP	17	0	1
NMTAP	17	0	3
NMTAP	17	96	2
NMTAP	17	96	3
NMTAP	17	192	4
NMTAP	17	192	5
NMSTR	17	288	6
NMSI_	17	288	6	96	96	2
NMSI_	17	288	6	96	96	3
NMTAP	17	288	7
BRTAP	18	192	1
BRTAP	18	192	5
NMTAP	18	240	0
NMTAP	18	264	6
NMTAP	18	288	0
NMTAP	18	312	6
NMTAP	18	336	0
NMTAP	18	360	6
NMSTR	19	0	1
NMSCR	19	0	1	96	48	3
NMTAP	19	96	0
NMTAP	19	144	7
NMSTR	19	192	6
NMSCL	19	192	6	96	48	4
NMTAP	19	288	7
NMTAP	19	336	0
NMSTR	20	0	1
NMSCR	20	0	1	96	48	3
NMTAP	20	96	0
NMTAP	20	144	7
NMSTR	20	192	6
NMSCL	20	192	6	96	72	3
NMTAP	20	288	0
NMTAP	20	336	1
NMSTR	21	0	2
NMSCL	21	0	2	96	48	0
NMTAP	21	96	3
NMTAP	21	144	4
NMSTR	21	192	5
NMSCR	21	192	5	96	48	7
NMTAP	21	288	3
NMTAP	21	336	2
NMTAP	22	0	1
NMTAP	22	48	1
NMTAP	22	96	7
NMTAP	22	144	7
NMSTR	22	192	1
NMSI_	22	192	1	96	48	4
NMSTR	22	192	7
NMSI_	22	192	7	96	48	4
NMTAP	23	0	3
NMTAP	23	0	5
NMTAP	23	96	1
NMTAP	23	96	5
NMTAP	23	192	5
NMTAP	23	192	7
NMTAP	23	288	4
NMTAP	23	288	5
NMTAP	23	336	4
NMSTR	24	0	4
NMSCL	24	0	4	96	120	0
NMTAP	24	0	5
NMTAP	24	96	5
NMTAP	24	192	5
CNSI_	24	216	0	0	72	3
NMTAP	24	288	5
NMTAP	25	0	2
NMTAP	25	0	4
NMTAP	25	96	2
NMTAP	25	96	6
NMTAP	25	192	0
NMTAP	25	192	2
NMTAP	25	288	2
NMTAP	25	288	3
NMTAP	25	336	3
NMTAP	26	0	2
NMSTR	26	0	3
NMSI_	26	0	3	96	96	7
NMTAP	26	96	2
NMTAP	26	192	2
CNSCL	26	192	7	0	96	4
NMTAP	26	288	2
NMTAP	27	0	3
NMTAP	27	0	5
NMTAP	27	96	5
NMTAP	27	96	7
NMTAP	27	192	0
NMTAP	27	192	5
NMTAP	27	288	1
NMTAP	27	288	5
NMTAP	27	336	1
NMSTR	28	0	1
NMSCL	28	0	1	96	96	6
NMTAP	28	0	5
NMTAP	28	96	5
NMTAP	28	192	5
CNSCR	28	192	6	0	96	1
NMTAP	28	288	5
NMHLD	29	0	5	96
NMHLD	29	96	7	96
NMHLD	29	192	0	96
NMTAP	29	288	1
NMTAP	29	336	2
NMTAP	30	0	3
NMSTR	30	96	4
NMSI_	30	96	4	96	48	0
NMSTR	30	96	5
NMSI_	30	96	5	96	48	1
BRTAP	30	192	4
BRTAP	30	192	5
NMTAP	31	0	2
NMTAP	31	0	3
NMTAP	31	96	0
NMTAP	31	96	2
NMTAP	31	192	2
NMTAP	31	192	4
NMTAP	31	288	2
NMTAP	31	288	6
NMTAP	31	336	6
NMTAP	32	0	2
NMSTR	32	0	6
NMSI_	32	0	6	96	48	4
NMSTR	32	96	2
NMSI_	32	96	2	96	48	4
NMTAP	32	192	5
NMTAP	32	288	3
NMTAP	32	288	5
NMTAP	33	0	4
NMTAP	33	0	5
NMTAP	33	96	0
NMTAP	33	96	5
NMTAP	33	192	3
NMTAP	33	192	5
NMTAP	33	288	2
NMTAP	33	288	5
NMTAP	33	336	2
NMTAP	33	336	5
NMTAP	34	0	2
NMTAP	34	0	5
NMTTP	34	96	3	A	0	M1
NMTTP	34	96	3	D	0	M1
NMTTP	34	96	4	A	0	M1
NMTTP	34	96	4	D	0	M1
NMTTP	34	96	5	D	0	M1
NMTTP	34	192	1	A	0	M1
NMTTP	34	192	2	E	0	M1
NMTTP	34	192	2	D	0	M1
NMTTP	34	192	6	E	0	M1
NMTTP	34	192	6	A	0	M1
NMTTP	34	192	6	D	0	M1
NMTAP	34	240	0
NMTAP	34	264	7
NMTAP	34	288	0
NMTAP	34	312	7
NMTAP	34	336	0
NMTAP	35	0	1
NMTAP	35	0	7
NMTAP	35	48	2
NMTAP	35	96	3
NMTAP	35	96	4
NMTAP	35	144	5
NMTAP	35	192	0
NMTAP	35	192	6
NMTAP	35	240	5
NMTAP	35	288	3
NMTAP	35	288	4
NMTAP	35	336	2
EXTAP	36	0	1
NMTTP	36	0	5	B	0	M1
NMTTP	36	0	5	E	1	M1
NMTTP	36	0	5	A	0	M1
NMTTP	36	96	2	B	0	M1
NMTTP	36	96	2	A	0	M1
NMTTP	36	96	3	E	1	M1
EXTAP	36	96	6
EXTAP	36	192	0
NMTTP	36	192	3	B	0	M1
NMTTP	36	192	4	B	0	M1
NMTTP	36	192	4	E	1	M1
NMTAP	36	288	0
NMTAP	36	288	7
NMTAP	37	0	0
NMTAP	37	0	1
NMTAP	37	48	2
NMTAP	37	48	7
NMTAP	37	144	6
NMTAP	37	144	7
NMTAP	37	192	6
NMTAP	37	192	7
NMTAP	37	240	0
NMTAP	37	240	5
NMTAP	37	336	3
NMTAP	37	336	4
NMSTR	38	0	3
NMSCL	38	0	3	96	48	0
NMSTR	38	0	4
NMSCR	38	0	4	96	48	7
BRTAP	38	192	1
BRTAP	38	192	6
EXSTR	38	288	2
NMSI_	38	288	2	96	48	7
NMTAP	39	0	2
NMSTR	39	0	6
NMSI_	39	0	6	96	48	3
NMSTR	39	96	0
NMSI_	39	96	0	96	48	4
NMTAP	39	96	6
NMTAP	39	192	0
NMTAP	39	192	4
NMTAP	39	288	3
NMSTR	39	288	5
NMSI_	39	288	5	96	48	0
NMSTR	40	0	1
NMSI_	40	0	1	96	48	4
NMTAP	40	0	5
NMTAP	40	96	1
NMSTR	40	96	7
NMSI_	40	96	7	96	48	3
NMTAP	40	192	2
NMTAP	40	192	7
NMSTR	40	288	0
NMSLR	40	288	0	96	96	4
NMTAP	40	288	4
NMSTR	41	0	4
NMSLR	41	0	4	96	96	0
NMSTR	41	96	0
NMSLR	41	96	0	96	96	4
NMSTR	41	192	4
NMSLR	41	192	4	96	96	0
NMSTR	41	288	0
NMSUR	41	288	0	96	144	1
BRTAP	42	0	4
CNSCR	42	144	1	0	144	7
EXSTR	42	288	5
NMSI_	42	288	5	96	48	0
NMSTR	43	0	1
NMSI_	43	0	1	96	48	4
NMTAP	43	0	5
NMTAP	43	96	1
NMSTR	43	96	7
NMSI_	43	96	7	96	48	3
NMTAP	43	192	3
NMTAP	43	192	7
NMSTR	43	288	2
NMSI_	43	288	2	96	48	7
NMTAP	43	288	4
NMTAP	44	0	2
NMSTR	44	0	6
NMSI_	44	0	6	96	48	3
NMSTR	44	96	0
NMSI_	44	96	0	96	48	4
NMTAP	44	96	6
NMTAP	44	192	0
NMTAP	44	192	5
NMTAP	44	288	3
NMSTR	44	288	7
NMSCL	44	288	7	96	96	3
NMSTR	45	0	3
NMSCL	45	0	3	96	96	7
NMSTR	45	96	7
NMSCL	45	96	7	96	96	3
NMTAP	45	192	3
NMTAP	45	288	1
NMTAP	46	0	1
NMTAP	46	0	3
NMTAP	46	48	2
NMTAP	46	96	4
NMTAP	46	96	6
NMTAP	46	144	5
NMTAP	46	192	3
NMTAP	46	192	4
NMTAP	46	240	2
NMTAP	46	264	3
NMTAP	46	288	2
NMTAP	46	312	3
NMTAP	46	336	2
NMTAP	46	360	3
NMSTR	47	0	2
NMSV_	47	0	2	96	48	0
CNSCR	47	144	0	0	12	1
CNSI_	47	156	1	0	36	4
NMSTR	47	192	5
NMSV_	47	192	5	96	48	7
CNSCL	47	336	7	0	12	6
CNSI_	47	348	6	0	36	3
NMSTR	48	0	1
NMSV_	48	0	1	96	48	3
CNSCL	48	144	3	0	12	2
CNSI_	48	156	2	0	36	7
NMSTR	48	192	6
NMSV_	48	192	6	96	48	4
CNSCR	48	336	4	0	12	5
CNSI_	48	348	5	0	36	0
NMHLD	49	0	1	96
NMHLD	49	96	3	96
NMHLD	49	192	5	96
NMSTR	49	288	7
NMSSR	49	288	7	96	120	3
BRTAP	50	0	2
NMTAP	50	192	1
NMSTR	50	240	1
NMSCL	50	240	1	96	144	3
NMTTP	50	336	4	B	0	M1
NMTTP	50	336	5	B	0	M1
NMTTP	50	336	5	E	1	M1
NMTAP	51	192	6
NMSTR	51	240	6
NMSCR	51	240	6	96	144	4
NMTTP	51	336	2	B	0	M1
NMTTP	51	336	3	B	0	M1
NMTTP	51	336	3	E	1	M1
EXTAP	52	96	0
NMTAP	52	192	1
NMTAP	52	192	5
NMTAP	52	288	3
NMSTR	52	288	7
NMSI_	52	288	7	96	48	4
NMSTR	53	0	7
NMSI_	53	0	7	96	48	2
NMSTR	53	96	7
NMSI_	53	96	7	96	48	3
NMTAP	53	192	7
NMTAP	53	288	0
NMTAP	53	336	1
NMTAP	54	0	2
NMTAP	54	0	6
NMTAP	54	96	4
NMTAP	54	96	5
NMTAP	54	144	6
NMTAP	54	192	2
NMTAP	54	192	3
NMTAP	54	240	1
NMSTR	54	288	0
NMSF_	54	288	0	96	48	4
NMTAP	54	288	7
BRTAP	55	0	0
NMTTP	55	144	0	C	1	M1
NMTTP	55	144	2	B	0	M1
NMTTP	55	144	2	E	0	M1
NMTTP	55	144	2	A	0	M1
NMTTP	55	144	3	E	0	M1
NMTTP	55	144	6	B	0	M1
NMTTP	55	144	6	E	0	M1
NMTTP	55	144	6	A	0	M1
NMTTP	55	144	7	E	0	M1
NMTAP	56	0	0
NMTAP	56	0	1
NMTAP	56	96	2
NMTAP	56	96	7
NMTAP	56	192	3
NMTAP	56	192	6
NMTAP	56	288	4
NMTAP	56	288	5
NMSTR	57	0	5
NMSI_	57	0	5	96	48	0
NMTAP	57	96	0
NMTAP	57	144	1
NMSTR	57	192	2
NMSI_	57	192	2	96	48	6
NMTAP	57	288	6
NMTAP	57	336	5
NMSTR	58	0	4
NMSI_	58	0	4	96	48	0
NMTAP	58	96	0
NMTAP	58	144	1
NMTAP	58	192	2
NMTAP	58	240	3
NMTAP	58	288	4
NMTAP	58	336	5
BRSTR	59	0	6
NMSI_	59	0	6	96	48	3
NMTAP	59	96	3
NMTAP	59	144	2
NMSTR	59	192	1
NMSI_	59	192	1	96	48	5
NMTAP	59	288	5
NMTAP	59	336	6
NMSTR	60	0	7
NMSI_	60	0	7	96	48	3
NMTAP	60	96	3
NMTAP	60	144	2
NMSTR	60	192	1
NMSI_	60	192	1	96	48	5
NMTAP	60	288	6
NMTAP	60	336	7
NMSTR	61	0	0
NMSCL	61	0	0	96	48	4
NMTAP	61	96	1
NMTAP	61	144	0
NMSTR	61	192	7
NMSCR	61	192	7	96	48	3
NMTAP	61	288	5
NMTAP	61	336	5
NMTAP	62	0	4
NMTAP	62	48	4
NMTAP	62	96	3
NMTAP	62	96	5
NMTAP	62	144	2
NMTAP	62	144	6
NMSTR	62	192	1
NMSV_	62	192	1	96	48	4
NMSTR	62	192	7
NMSV_	62	192	7	96	48	4
NMTAP	63	0	3
NMHLD	63	0	5	96
NMTAP	63	144	5
NMTAP	63	192	4
NMHLD	63	192	5	96
NMTAP	63	336	5
NMTAP	64	0	3
NMHLD	64	0	5	96
NMTAP	64	144	5
NMTAP	64	192	4
NMSTR	64	192	5
NMSI_	64	192	5	96	48	3
NMHLD	65	0	2	96
NMTAP	65	0	4
NMTAP	65	144	2
NMHLD	65	192	2	96
NMTAP	65	192	3
NMTAP	65	336	2
NMHLD	66	0	2	96
NMTAP	66	0	4
NMTAP	66	144	2
NMSTR	66	192	2
NMSI_	66	192	2	96	48	5
NMTAP	66	192	3
EXTAP	66	288	7
NMTAP	67	0	4
NMHLD	67	0	6	96
NMTAP	67	144	6
NMTAP	67	192	5
NMHLD	67	192	6	96
NMTAP	67	336	6
NMHLD	68	0	6	96
NMTAP	68	0	7
NMTAP	68	144	6
NMHLD	68	192	0	96
NMTAP	68	192	6
NMHLD	68	288	3	336
NMHLD	69	0	7	240
EXSTR	69	288	3
NMSCR	69	288	3	96	48	6
EXSTR	69	288	7
NMSCR	69	288	7	96	48	2
NMTAP	70	96	3
NMTAP	70	96	7
BRTAP	70	192	1
BRTAP	70	192	5
NMTAP	70	240	0
NMTAP	70	264	4
NMTAP	70	288	0
NMTAP	70	312	4
NMTAP	70	336	0
NMTAP	70	360	4
NMSTR	71	0	1
NMSI_	71	0	1	96	48	3
NMTAP	71	48	5
NMTAP	71	96	1
NMTAP	71	144	5
NMSTR	71	192	1
NMSI_	71	192	1	96	48	7
NMTAP	71	240	5
NMTAP	71	288	1
NMTAP	71	336	5
NMSTR	72	0	1
NMSCR	72	0	1	96	48	3
NMTAP	72	48	5
NMTAP	72	96	1
NMTAP	72	144	5
NMTAP	72	192	4
NMTAP	72	192	5
NMTAP	72	288	3
NMTAP	72	288	6
NMSTR	73	0	6
NMSI_	73	0	6	96	48	4
NMTAP	73	48	2
NMTAP	73	96	6
NMTAP	73	144	2
NMSTR	73	192	6
NMSI_	73	192	6	96	48	0
NMTAP	73	240	2
NMTAP	73	288	6
NMTAP	73	336	2
NMSTR	74	0	6
NMSCL	74	0	6	96	48	4
NMTAP	74	48	2
NMTAP	74	96	6
NMTAP	74	144	2
NMSTR	74	192	2
NMSI_	74	192	2	96	48	7
NMSTR	74	192	3
NMSI_	74	192	3	96	48	7
NMTAP	75	0	0
NMTAP	75	0	6
NMTAP	75	48	1
NMTAP	75	96	2
NMTAP	75	96	6
NMTAP	75	144	5
NMTAP	75	192	1
NMTAP	75	192	4
NMTAP	75	240	2
NMTAP	75	288	3
NMTAP	75	288	4
NMTAP	75	336	5
NMTTP	76	0	2	B	0	M1
NMTTP	76	0	2	E	1	M1
NMTTP	76	0	2	A	0	M1
EXTAP	76	0	6
EXTAP	76	96	1
NMTTP	76	96	5	B	0	M1
NMTTP	76	96	5	A	0	M1
NMTTP	76	96	6	E	1	M1
NMTTP	76	192	3	B	0	M1
NMTTP	76	192	4	B	0	M1
NMTTP	76	192	4	E	1	M1
EXTAP	76	192	7
NMTAP	76	288	0
NMTAP	76	288	7
NMTAP	77	0	0
NMTAP	77	48	0
NMTAP	77	96	1
NMTAP	77	96	7
NMTAP	77	144	1
NMTAP	77	144	7
NMTAP	77	192	2
NMTAP	77	192	6
NMTAP	77	240	2
NMTAP	77	240	6
NMTAP	77	288	2
NMSTR	77	288	6
NMSI_	77	288	6	96	48	2
BRSTR	78	0	0
NMSF_	78	0	0	96	48	4
BRTAP	78	0	6
BRTAP	78	96	0
BRTAP	78	192	2
BRTAP	78	192	6
EXSTR	78	288	1
NMSI_	78	288	1	96	48	3
EXSTR	78	288	5
NMSI_	78	288	5	96	48	7
NMSTR	79	0	1
NMSI_	79	0	1	96	48	5
NMTAP	79	0	5
NMTAP	79	96	1
NMSTR	79	96	7
NMSI_	79	96	7	96	48	3
NMTAP	79	192	3
NMTAP	79	192	7
NMSTR	79	288	2
NMSI_	79	288	2	96	48	7
NMTAP	79	288	4
NMTAP	80	0	2
NMSTR	80	0	6
NMSI_	80	0	6	96	48	2
NMSTR	80	96	0
NMSI_	80	96	0	96	48	4
NMTAP	80	96	6
NMTAP	80	192	0
NMTAP	80	192	5
NMTAP	80	288	3
NMSTR	80	288	7
NMSLL	80	288	7	96	96	3
NMSTR	81	0	3
NMSLL	81	0	3	96	96	7
NMSTR	81	96	7
NMSLL	81	96	7	96	96	3
NMSTR	81	192	3
NMSLL	81	192	3	96	96	7
NMSTR	81	288	7
NMSUL	81	288	7	96	144	6
BRTAP	82	0	3
CNSCL	82	144	6	0	144	0
EXSTR	82	288	2
NMSI_	82	288	2	96	48	7
NMTAP	83	0	2
NMSTR	83	0	4
NMSI_	83	0	4	96	48	0
NMSTR	83	96	1
NMSI_	83	96	1	96	48	4
NMTAP	83	96	4
NMTAP	83	192	1
NMTAP	83	192	7
NMTAP	83	288	3
NMSTR	83	288	5
NMSI_	83	288	5	96	48	0
NMSTR	84	0	1
NMSI_	84	0	1	96	48	5
NMTAP	84	0	5
NMTAP	84	96	1
NMSTR	84	96	7
NMSI_	84	96	7	96	48	3
NMTAP	84	192	2
NMTAP	84	192	7
EXSTR	84	288	0
NMSCR	84	288	0	96	96	4
NMTAP	84	288	4
NMSTR	85	0	4
NMSCR	85	0	4	96	96	0
NMSTR	85	96	0
NMSCR	85	96	0	96	96	4
NMTAP	85	192	4
NMTAP	85	288	6
NMTAP	86	0	4
NMTAP	86	0	6
NMTAP	86	48	5
NMTAP	86	96	1
NMTAP	86	96	3
NMTAP	86	144	2
NMTAP	86	192	3
NMTAP	86	192	4
NMTAP	86	240	5
NMTAP	86	264	4
NMTAP	86	288	5
NMTAP	86	312	4
NMTAP	86	336	5
NMTAP	86	360	4
NMSTR	87	0	5
NMSV_	87	0	5	96	48	7
CNSCL	87	144	7	0	12	6
CNSI_	87	156	6	0	36	3
NMSTR	87	192	2
NMSV_	87	192	2	96	48	0
CNSCR	87	336	0	0	12	1
CNSI_	87	348	1	0	36	4
NMSTR	88	0	6
NMSV_	88	0	6	96	48	4
CNSCR	88	144	4	0	12	5
CNSI_	88	156	5	0	36	0
NMSTR	88	192	1
NMSV_	88	192	1	96	48	3
CNSCL	88	336	3	0	12	2
CNSI_	88	348	2	0	36	7
NMHLD	89	0	6	96
NMHLD	89	96	4	96
NMHLD	89	192	2	96
NMSTR	89	288	0
NMSSL	89	288	0	96	120	4
BRTAP	90	0	5
NMTAP	90	192	6
NMSTR	90	240	6
NMSCL	90	240	6	96	144	7
NMTTP	90	336	0	B	0	M1
NMTTP	90	336	1	B	0	M1
NMTTP	90	336	1	E	1	M1
NMTAP	91	192	1
NMSTR	91	240	1
NMSCR	91	240	1	96	144	0
NMTTP	91	336	6	B	0	M1
NMTTP	91	336	7	B	0	M1
NMTTP	91	336	7	E	1	M1
EXTAP	92	96	4
NMTAP	92	192	2
NMTAP	92	192	6
NMSTR	92	288	0
NMSCR	92	288	0	96	48	3
NMTAP	92	288	4
NMSTR	93	0	0
NMSCL	93	0	0	96	48	5
NMSTR	93	96	0
NMSI_	93	96	0	96	48	4
NMTAP	93	192	0
NMTAP	93	288	7
NMTAP	93	336	6
NMTAP	94	0	1
NMTAP	94	0	5
NMTAP	94	96	1
NMTAP	94	96	3
NMTAP	94	144	2
NMTAP	94	192	4
NMTAP	94	192	6
NMTAP	94	240	5
NMTAP	94	288	3
NMTAP	94	288	4
NMTTP	95	0	4	E	1	M1
NMTTP	95	12	3	B	0	M1
NMTTP	95	12	4	B	0	M1
NMTTP	95	24	2	B	0	M1
NMTTP	95	24	5	B	0	M1
NMTTP	95	36	2	E	0	M1
NMTTP	95	36	6	E	0	M1
NMTTP	95	48	1	A	0	M1
NMTTP	95	48	6	A	0	M1
BXHLD	95	144	0	96
BXHLD	95	144	7	96
EXTAP	95	288	0
EXTAP	95	288	7
NMTAP	96	0	0
NMTAP	96	0	7
NMTAP	96	96	1
NMTAP	96	96	6
NMTAP	96	192	2
NMTAP	96	192	5
NMTAP	96	288	3
NMTAP	96	288	4
NMSTR	97	0	2
NMSI_	97	0	2	96	48	0
NMTAP	97	96	2
NMTAP	97	96	3
NMTAP	97	144	4
NMSTR	97	192	5
NMSI_	97	192	5	96	48	7
NMTAP	97	288	4
NMTAP	97	288	5
NMTAP	97	336	3
NMSTR	98	0	2
NMSI_	98	0	2	96	48	7
NMTAP	98	96	2
NMTAP	98	96	3
NMTAP	98	144	4
NMTAP	98	192	5
NMTAP	98	240	6
NMTAP	98	288	7
NMTAP	98	336	0
BRSTR	99	0	1
NMSI_	99	0	1	96	48	3
NMTAP	99	96	0
NMTAP	99	96	1
NMTAP	99	144	7
NMSTR	99	192	6
NMSI_	99	192	6	96	48	4
NMTAP	99	288	6
NMTAP	99	288	7
NMTAP	99	336	0
NMSTR	100	0	1
NMSI_	100	0	1	96	48	4
NMTAP	100	96	0
NMTAP	100	96	1
NMTAP	100	144	7
NMSTR	100	192	6
NMSI_	100	192	6	96	48	3
NMTAP	100	288	6
NMTAP	100	288	7
NMTAP	100	336	0
NMSTR	101	0	1
NMSI_	101	0	1	96	48	5
NMTAP	101	96	0
NMTAP	101	96	1
NMTAP	101	144	7
NMSTR	101	192	6
NMSI_	101	192	6	96	48	2
NMTAP	101	288	6
NMTAP	101	288	7
NMTAP	101	336	0
NMHLD	102	0	1	96
NMSTR	102	96	3
NMSXL	102	96	3	96	96	3
NMSXR	102	96	3	96	96	3
BRTAP	103	0	3
BRSTR	103	0	7
NMSI_	103	0	7	96	48	4
NMSTR	103	96	3
NMSI_	103	96	3	96	48	0
NMSTR	103	192	6
NMSI_	103	192	6	96	48	1
NMSTR	103	288	2
NMSI_	103	288	2	96	48	5
NMSTR	104	0	7
NMSCL	104	0	7	96	48	4
NMSTR	104	96	3
NMSCL	104	96	3	96	48	0
NMSTR	104	192	7
NMSI_	104	192	7	96	48	3
NMTAP	104	288	2
NMSTR	105	0	4
NMSI_	105	0	4	96	48	7
NMSTR	105	96	0
NMSI_	105	96	0	96	48	3
NMSTR	105	192	5
NMSI_	105	192	5	96	48	2
NMSTR	105	288	1
NMSI_	105	288	1	96	48	6
NMSTR	106	0	4
NMSCR	106	0	4	96	48	7
NMSTR	106	96	0
NMSCR	106	96	0	96	48	3
NMSTR	106	192	4
NMSI_	106	192	4	96	48	0
NMTAP	106	288	1
BRSTR	107	0	1
NMSI_	107	0	1	96	48	4
NMTAP	107	48	1
NMSTR	107	96	5
NMSI_	107	96	5	96	48	0
NMTAP	107	144	5
NMSTR	107	192	2
NMSI_	107	192	2	96	48	7
NMTAP	107	240	2
NMSTR	107	288	6
NMSI_	107	288	6	96	48	3
NMTAP	107	336	6
NMSTR	108	0	1
NMSCL	108	0	1	96	48	6
NMTAP	108	48	1
NMSTR	108	96	5
NMSCL	108	96	5	96	48	2
NMTAP	108	144	5
NMSTR	108	192	1
NMSI_	108	192	1	96	48	5
NMTAP	108	240	1
NMTAP	108	288	7
NMTAP	108	336	7
NMTAP	109	0	4
NMTAP	109	0	6
NMTAP	109	48	7
NMTAP	109	96	0
NMTAP	109	96	7
NMTAP	109	144	1
NMTAP	109	192	1
NMTAP	109	192	3
NMTAP	109	240	0
NMTAP	109	288	0
NMTAP	109	288	7
NMTAP	110	0	2
NMTAP	110	24	5
NMTAP	110	48	2
NMTAP	110	72	5
NMTAP	110	96	3
NMTAP	110	120	4
NMTAP	110	144	3
NMTAP	110	168	4
NMTAP	110	192	3
NMTAP	110	240	2
NMTAP	110	240	5
BRTAP	110	288	2
BRTAP	110	288	5
NMTAP	111	0	3
NMTAP	111	0	6
NMTAP	111	48	5
NMTAP	111	72	4
NMTAP	111	96	5
NMTAP	111	144	0
NMTAP	111	192	5
NMTAP	111	240	3
NMTAP	111	288	5
NMTAP	111	336	1
NMTAP	112	0	1
NMTAP	112	0	4
NMTAP	112	48	2
NMTAP	112	72	3
NMTAP	112	96	2
NMTAP	112	144	7
NMTAP	112	192	2
NMTAP	112	240	4
NMTAP	112	288	2
NMTAP	112	336	6
NMTAP	113	0	3
NMTAP	113	0	6
NMTAP	113	48	5
NMTAP	113	72	4
NMTAP	113	96	6
NMTAP	113	144	0
NMTAP	113	192	7
NMTAP	113	240	2
NMTAP	113	288	3
NMTAP	113	336	1
NMTAP	114	0	1
NMTAP	114	0	4
NMTAP	114	48	2
NMTAP	114	72	3
NMTAP	114	96	1
NMTAP	114	144	7
NMTAP	114	192	0
NMTAP	114	240	5
NMTAP	114	288	4
NMTAP	114	336	7
NMTAP	115	0	2
NMTAP	115	0	7
NMTAP	115	48	1
NMTAP	115	72	0
NMTAP	115	96	1
NMTAP	115	144	4
NMTAP	115	192	1
NMTAP	115	240	7
NMTAP	115	288	1
NMTAP	115	336	5
NMTAP	116	0	0
NMTAP	116	0	5
NMTAP	116	48	6
NMTAP	116	72	7
NMTAP	116	96	6
NMTAP	116	144	3
NMTAP	116	192	6
NMTAP	116	240	0
NMTAP	116	288	6
NMTAP	116	336	2
NMTAP	117	0	3
NMTAP	117	0	7
NMTAP	117	48	5
NMTAP	117	72	4
NMTAP	117	96	5
NMTAP	117	144	2
NMTAP	117	168	3
NMTAP	117	192	2
NMTAP	117	240	6
NMTAP	117	264	4
NMTAP	117	288	5
NMTAP	117	336	1
NMTAP	117	360	3
NMTAP	118	0	2
NMTAP	118	48	7
NMTAP	118	72	4
NMTAP	118	96	5
NMTAP	118	144	0
NMTAP	118	168	3
NMTAP	118	192	2
NMSTR	118	240	1
NMSI_	118	240	1	96	48	4
NMSTR	118	240	5
NMSI_	118	240	5	96	48	0
BRTAP	118	336	1
BRTAP	118	336	5

T_REC_TAP	573
T_REC_BRK	24
T_REC_XTP	13
T_REC_BXX	0
T_REC_HLD	28
T_REC_XHO	0
T_REC_BHO	0
T_REC_BXH	2
T_REC_STR	137
T_REC_BST	5
T_REC_XST	8
T_REC_XBS	0
T_REC_TTP	59
T_REC_THO	0
T_REC_SLD	152
T_REC_BSL	0
T_REC_ALL	1001
T_NUM_TAP	790
T_NUM_BRK	31
T_NUM_HLD	28
T_NUM_SLD	152
T_NUM_ALL	1001
T_JUDGE_TAP	819
T_JUDGE_HLD	68
T_JUDGE_SLD	152
T_JUDGE_ALL	1039
TTM_EACHPAIRS	199
TTM_SCR_TAP	395000
TTM_SCR_BRK	80600
TTM_SCR_HLD	28000
TTM_SCR_SLD	228000
TTM_SCR_ALL	731600
TTM_SCR_S	706650
TTM_SCR_SS	728500
TTM_RAT_ACV	10042

