VERSION	0.00.00	1.04.00
FES_MODE	0
BPM_DEF	190.000	190.000	190.000	190.000
MET_DEF	4	4
RESOLUTION	384
CLK_DEF	384
COMPATIBLE_CODE	MA2

BPM	0	0	190.000
MET	0	0	4	4

EXTAP	2	288	2
EXTAP	2	288	5
NMHLD	3	0	6	96
NMTAP	3	96	4
NMTAP	3	192	3
NMTAP	3	288	2
NMTAP	3	288	4
NMHLD	4	0	1	96
NMTAP	4	96	3
NMTAP	4	192	4
NMTAP	4	288	3
NMTAP	4	288	5
NMHLD	5	0	6	96
NMTAP	5	96	4
NMTAP	5	192	3
NMTAP	5	288	2
NMTAP	5	288	4
NMTAP	6	0	1
NMTAP	6	48	1
NMTAP	6	96	3
NMTAP	6	192	6
NMTAP	6	240	6
NMTAP	6	288	4
NMHLD	7	0	1	96
NMTAP	7	96	0
NMTAP	7	192	2
NMTAP	7	192	3
NMTAP	7	288	4
NMTAP	7	288	5
NMHLD	8	0	6	96
NMTAP	8	96	7
NMTAP	8	192	4
NMTAP	8	192	5
NMTAP	8	288	2
NMTAP	8	288	3
NMHLD	9	0	1	96
NMTAP	9	96	0
NMTAP	9	192	2
NMTAP	9	192	3
NMTAP	9	288	4
NMTAP	9	288	5
NMTAP	10	0	3
NMTAP	10	0	6
NMTAP	10	96	3
NMTAP	10	96	6
NMTAP	10	192	1
NMTAP	10	192	4
NMTAP	10	288	1
NMTAP	10	288	4
NMTAP	11	0	0
NMHLD	11	96	0	96
NMTAP	11	192	3
NMTAP	11	288	3
NMTAP	12	0	1
NMTAP	12	0	4
NMTAP	12	96	2
NMTAP	12	96	5
NMTAP	12	192	3
NMTAP	12	192	6
NMTAP	12	288	4
NMTAP	12	288	5
NMHLD	13	0	6	96
NMTAP	13	96	4
NMHLD	13	192	2	96
NMTAP	13	288	4
NMTAP	14	0	3
NMTAP	14	0	5
NMTAP	14	96	2
NMTAP	14	96	6
NMTAP	14	192	2
NMTAP	14	192	6
NMTAP	15	0	7
NMHLD	15	96	7	96
NMTAP	15	192	4
NMTAP	15	288	4
NMTAP	16	0	3
NMTAP	16	0	6
NMTAP	16	96	2
NMTAP	16	96	5
NMTAP	16	192	1
NMTAP	16	192	4
NMTAP	16	288	2
NMTAP	16	288	3
NMHLD	17	0	1	96
NMTAP	17	96	3
NMHLD	17	192	5	96
NMTAP	17	288	3
NMTAP	18	0	3
NMTAP	18	0	5
NMTAP	18	96	2
NMTAP	18	96	4
NMHLD	18	192	1	96
NMHLD	18	192	3	96
NMSTR	19	0	0
NMSCR	19	0	0	96	96	3
NMTAP	19	192	5
NMTAP	19	288	4
NMTAP	19	288	6
NMSTR	20	0	7
NMSCL	20	0	7	96	96	4
NMTAP	20	192	2
NMTAP	20	288	1
NMTAP	20	288	3
NMSTR	21	0	0
NMSCR	21	0	0	96	96	3
NMTAP	21	192	5
NMTAP	21	288	4
NMTAP	21	288	6
NMTAP	22	0	6
NMTAP	22	0	7
NMTAP	22	96	0
NMTAP	22	96	1
NMTAP	22	192	2
NMTAP	22	288	3
NMTAP	22	288	4
NMTAP	23	0	6
NMHLD	23	96	6	96
NMTAP	23	192	7
NMTAP	23	288	7
NMTAP	24	0	0
NMTAP	24	0	5
NMTAP	24	96	1
NMTAP	24	96	6
NMTAP	24	192	2
NMTAP	24	192	7
NMTAP	24	288	2
NMTAP	24	288	7
NMTAP	25	0	1
NMHLD	25	96	1	96
NMTAP	25	192	0
NMTAP	25	288	0
NMTAP	26	0	2
NMTAP	26	0	7
NMTAP	26	96	0
NMTAP	26	96	5
NMHLD	26	192	2	96
NMHLD	26	192	7	96
NMTAP	27	0	1
NMHLD	27	96	1	96
NMTAP	27	192	0
NMTAP	27	288	0
NMTAP	28	0	2
NMTAP	28	0	7
NMTAP	28	96	1
NMTAP	28	96	6
NMTAP	28	192	0
NMTAP	28	192	5
NMTAP	28	288	0
NMTAP	28	288	5
NMTAP	29	0	6
NMHLD	29	96	6	96
NMTAP	29	192	7
NMTAP	29	288	7
NMTAP	30	0	0
NMTAP	30	0	5
NMTAP	30	96	1
NMTAP	30	96	4
NMTAP	30	192	2
NMTAP	30	192	3
NMTAP	31	0	6
NMHLD	31	96	6	96
NMTAP	31	192	7
NMTAP	31	288	7
NMTAP	32	0	4
NMTAP	32	0	5
NMTAP	32	96	3
NMTAP	32	96	4
NMTAP	32	192	2
NMTAP	32	192	3
NMTAP	32	288	2
NMTAP	32	288	3
NMTAP	33	0	1
NMHLD	33	96	1	96
NMTAP	33	192	0
NMTAP	33	288	0
NMSTR	34	0	2
NMSCR	34	0	2	96	96	5
NMTAP	34	0	7
EXTAP	34	288	6
EXTAP	34	288	7
NMHLD	35	0	2	192
NMTAP	35	96	3
NMHLD	35	192	5	192
NMTAP	35	288	4
NMHLD	36	0	1	192
NMTAP	36	96	3
NMHLD	36	192	6	96
NMTAP	36	288	4
NMTAP	37	0	3
NMTAP	37	0	4
NMTAP	37	48	3
NMTAP	37	48	4
NMTAP	37	144	1
NMTAP	37	192	1
NMTAP	37	240	3
NMTAP	37	336	4
NMTAP	37	336	6
NMTAP	38	0	4
NMTAP	38	0	6
NMTAP	38	96	0
NMTAP	38	96	7
BRTAP	38	192	1
BRTAP	38	192	6
NMTAP	39	0	0
NMTAP	39	0	1
NMTAP	39	96	3
NMTAP	39	96	5
NMTAP	39	192	6
NMTAP	39	192	7
NMTAP	39	288	2
NMTAP	39	288	4
NMTAP	40	0	0
NMTAP	40	0	1
NMTAP	40	96	3
NMTAP	40	96	5
NMTAP	40	192	6
NMTAP	40	192	7
NMTAP	40	288	2
NMTAP	40	288	4
NMTAP	41	0	0
NMTAP	41	0	1
NMTAP	41	96	2
NMTAP	41	96	3
NMTAP	41	192	4
NMTAP	41	192	5
NMTAP	41	288	6
NMTAP	41	288	7
NMSTR	42	0	6
NMSCL	42	0	6	96	96	3
NMSTR	42	0	7
NMSUL	42	0	7	96	96	2
EXTAP	42	288	2
EXTAP	42	288	3
NMTAP	43	0	2
NMTAP	43	0	3
NMTAP	43	96	0
NMTAP	43	96	6
NMTAP	43	192	4
NMTAP	43	192	5
NMTAP	43	288	1
NMTAP	43	288	7
NMTAP	44	0	2
NMTAP	44	0	3
NMTAP	44	96	0
NMTAP	44	96	6
NMTAP	44	192	4
NMTAP	44	192	5
NMTAP	44	288	1
NMTAP	44	288	7
NMTAP	45	0	2
NMTAP	45	0	3
NMTAP	45	96	0
NMTAP	45	96	1
NMTAP	45	192	6
NMTAP	45	192	7
NMTAP	45	288	4
NMTAP	45	288	5
NMTAP	46	0	3
NMTAP	46	96	2
NMTAP	46	96	4
NMTAP	46	192	5
NMTAP	46	288	4
NMTAP	46	288	6
NMTAP	47	0	6
NMTAP	47	0	7
NMTAP	47	96	2
NMTAP	47	96	4
NMTAP	47	192	0
NMTAP	47	192	1
NMTAP	47	288	3
NMTAP	47	288	5
NMTAP	48	0	6
NMTAP	48	0	7
NMTAP	48	96	2
NMTAP	48	96	4
NMTAP	48	192	0
NMTAP	48	192	1
NMTAP	48	288	3
NMTAP	48	288	5
NMTAP	49	0	6
NMTAP	49	0	7
NMTAP	49	96	4
NMTAP	49	96	5
NMTAP	49	192	2
NMTAP	49	192	3
NMTAP	49	288	0
NMTAP	49	288	1
NMTAP	50	0	2
NMTAP	50	0	7
NMTAP	50	192	6
NMTAP	50	192	7
NMSTR	50	288	6
NMSI_	50	288	6	96	96	2
NMSTR	50	288	7
NMSI_	50	288	7	96	96	3
NMTAP	51	192	0
NMTAP	51	192	1
NMSTR	51	288	0
NMSI_	51	288	0	96	96	4
NMSTR	51	288	1
NMSI_	51	288	1	96	96	5
NMTAP	52	192	3
NMTAP	52	192	6
NMTAP	52	288	3
NMTAP	52	288	6
NMHLD	53	0	2	96
NMHLD	53	96	0	96
NMHLD	53	192	7	96
NMTAP	53	288	5
NMHLD	53	336	5	96
NMTAP	54	48	4
NMTAP	54	96	4
NMTAP	54	192	3
NMTAP	54	192	6
NMTAP	54	288	2
NMTAP	54	288	7
NMTAP	55	0	0
NMSTR	55	0	1
NMSCR	55	0	1	96	192	7
EXTAP	56	0	7
NMTAP	56	96	4
NMTAP	56	96	6
NMTAP	56	192	2
NMTAP	56	240	2
NMTAP	56	288	4
EXTAP	57	0	0
NMTAP	57	96	1
NMTAP	57	96	3
NMTAP	57	192	5
NMTAP	57	240	5
NMTAP	57	288	3
EXTAP	58	0	7
NMTAP	58	96	4
NMTAP	58	96	6
NMTAP	58	192	3
NMTAP	58	192	4
NMTAP	58	288	1
NMTAP	58	288	3
EXTAP	59	0	0
NMTAP	59	96	2
NMTAP	59	96	3
NMTAP	59	192	6
NMTAP	59	240	6
NMTAP	59	288	4
EXTAP	60	0	7
NMTAP	60	96	4
NMTAP	60	96	5
NMTAP	60	192	1
NMTAP	60	240	1
NMTAP	60	288	3
EXTAP	61	0	0
NMTAP	61	96	2
NMTAP	61	96	3
NMTAP	61	192	6
NMTAP	61	240	6
NMTAP	61	288	4
EXTAP	62	0	7
NMTAP	62	96	3
NMTAP	62	96	5
NMTAP	62	192	2
NMTAP	62	192	4
NMTAP	62	288	1
NMTAP	62	288	5
NMHLD	63	0	6	768
NMTTP	63	192	5	E	0	M1
NMTTP	63	288	6	E	0	M1
NMTTP	64	0	7	E	0	M1
NMTTP	64	96	0	E	0	M1
NMTTP	64	192	1	E	0	M1
NMHLD	65	0	1	768
NMTTP	65	192	3	E	0	M1
NMTTP	65	288	2	E	0	M1
NMTTP	66	0	1	E	0	M1
NMTTP	66	96	0	E	0	M1
NMTTP	66	192	7	E	0	M1
NMHLD	67	0	5	1248
NMTTP	67	192	5	E	0	M1
NMTTP	67	288	4	E	0	M1
NMTTP	68	0	3	E	0	M1
NMTTP	68	96	2	E	0	M1
NMTTP	68	192	1	E	0	M1
NMHLD	69	0	1	480
EXTAP	70	192	0
EXTAP	70	192	6
EXTAP	70	288	0
EXTAP	70	288	6
NMTAP	71	0	2
NMTAP	71	0	4
NMTAP	71	96	1
NMTAP	71	144	1
NMTAP	71	192	3
NMTAP	71	288	6
NMTAP	71	336	6
NMTAP	72	0	4
NMTAP	72	96	3
NMTAP	72	96	5
NMTAP	72	192	2
NMTAP	72	192	6
NMTAP	72	288	2
NMTAP	72	288	6
NMHLD	73	0	4	96
NMHLD	73	0	6	96
NMTAP	73	192	0
NMTAP	73	192	7
NMTAP	73	288	1
NMTAP	73	336	1
NMTAP	74	0	3
NMTAP	74	96	2
NMTAP	74	96	4
NMTAP	74	192	1
NMTAP	74	192	5
NMTAP	74	288	1
NMTAP	74	288	5
NMTAP	75	0	6
NMHLD	75	48	6	96
NMTAP	75	144	4
NMTAP	75	192	4
NMTAP	75	288	1
NMTAP	75	336	1
NMTAP	76	0	3
NMTAP	76	96	0
NMTAP	76	96	1
NMTAP	76	192	2
NMTAP	76	192	7
NMTAP	76	288	6
NMTAP	76	336	6
NMTAP	77	0	3
NMTAP	77	48	3
NMTAP	77	96	4
NMTAP	77	144	4
NMTAP	77	192	1
NMTAP	77	240	1
NMTAP	77	288	3
NMTAP	78	0	2
NMTAP	78	0	4
NMTAP	78	96	0
NMTAP	78	96	6
BRTAP	78	192	1
BRTAP	78	192	5
NMSTR	79	0	6
NMSI_	79	0	6	96	48	3
NMSTR	79	0	7
NMSI_	79	0	7	96	48	3
NMSTR	79	192	0
NMSI_	79	192	0	96	48	4
NMSTR	79	192	1
NMSI_	79	192	1	96	48	4
NMSTR	80	0	6
NMSI_	80	0	6	96	48	3
NMSTR	80	0	7
NMSI_	80	0	7	96	48	3
NMSTR	80	192	0
NMSI_	80	192	0	96	48	4
NMSTR	80	192	1
NMSI_	80	192	1	96	48	4
NMHLD	81	0	5	96
NMHLD	81	96	7	96
NMHLD	81	192	0	96
NMSTR	81	288	2
NMSSL	81	288	2	96	192	6
EXTAP	82	288	0
EXTAP	82	288	7
NMSTR	83	0	0
NMSI_	83	0	0	96	48	4
NMSTR	83	0	1
NMSI_	83	0	1	96	48	4
NMSTR	83	192	6
NMSI_	83	192	6	96	48	3
NMSTR	83	192	7
NMSI_	83	192	7	96	48	3
NMSTR	84	0	0
NMSI_	84	0	0	96	48	4
NMSTR	84	0	1
NMSI_	84	0	1	96	48	4
NMSTR	84	192	6
NMSI_	84	192	6	96	48	3
NMSTR	84	192	7
NMSI_	84	192	7	96	48	3
NMHLD	85	0	2	96
NMHLD	85	96	0	96
NMHLD	85	192	7	96
NMHLD	85	288	5	96
NMTAP	86	0	4
NMTAP	86	96	3
NMTAP	86	96	6
NMTAP	86	192	2
NMTAP	86	192	3
NMTAP	86	288	1
NMTAP	86	288	4
NMSTR	87	0	0
NMSI_	87	0	0	96	48	4
NMSTR	87	0	1
NMSI_	87	0	1	96	48	5
NMSTR	87	192	6
NMSI_	87	192	6	96	48	2
NMSTR	87	192	7
NMSI_	87	192	7	96	48	3
NMSTR	88	0	0
NMSI_	88	0	0	96	48	4
NMSTR	88	0	1
NMSI_	88	0	1	96	48	5
NMSTR	88	192	6
NMSI_	88	192	6	96	48	2
NMSTR	88	192	7
NMSI_	88	192	7	96	48	3
NMHLD	89	0	1	96
NMHLD	89	96	3	96
NMHLD	89	192	5	96
NMHLD	89	288	7	96
BRTAP	90	0	1
NMTAP	90	192	2
NMTAP	90	192	6
NMSTR	90	288	2
NMSCL	90	288	2	96	96	7
NMSTR	90	288	6
NMSCL	90	288	6	96	96	3
NMTAP	91	192	1
NMTAP	91	192	5
NMSTR	91	288	1
NMSCL	91	288	1	96	96	6
NMSTR	91	288	5
NMSCL	91	288	5	96	96	2
NMTAP	92	192	0
NMTAP	92	192	4
NMTAP	92	288	0
NMTAP	92	288	4
EXSTR	93	0	1
NMSI_	93	0	1	96	48	3
EXSTR	93	96	7
NMSI_	93	96	7	96	48	5
EXSTR	93	192	0
NMSI_	93	192	0	96	48	4
EXHLD	93	288	7	192
NMTAP	94	96	4
NMTAP	94	144	4
NMTAP	94	192	6
NMTAP	94	240	6
NMSTR	94	288	3
BRSCR	94	288	3	96	192	2
NMTAP	96	0	2
NMTAP	96	0	3
NMTAP	96	96	0
NMTAP	96	96	1
NMTAP	96	192	6
NMTAP	96	240	6
NMTAP	96	288	7
NMTAP	97	0	4
NMTAP	97	0	5
NMTAP	97	96	6
NMTAP	97	96	7
NMTAP	97	192	1
NMTAP	97	240	1
NMTAP	97	288	0
NMTAP	98	0	2
NMTAP	98	0	3
EXHLD	98	96	0	48
EXHLD	98	96	1	48
EXHLD	98	192	0	48
EXHLD	98	192	7	48
EXHLD	98	288	6	48
EXHLD	98	288	7	48
NMTAP	99	0	4
NMTAP	99	0	5
NMTAP	99	96	4
NMTAP	99	96	6
NMTAP	99	192	7
NMTAP	99	240	7
NMTAP	99	288	1
NMTAP	100	0	2
NMTAP	100	0	3
NMTAP	100	96	1
NMTAP	100	96	3
NMTAP	100	192	0
NMTAP	100	240	0
NMTAP	100	288	6
NMTAP	101	0	4
NMTAP	101	0	5
NMTAP	101	96	4
NMTAP	101	96	6
NMTAP	101	192	7
NMTAP	101	240	7
NMTAP	101	288	1
NMTAP	102	0	2
NMTAP	102	0	3
EXHLD	102	96	1	48
EXHLD	102	96	3	48
EXHLD	102	192	3	48
EXHLD	102	192	4	48
EXHLD	102	288	4	48
EXHLD	102	288	6	48
NMSTR	103	0	7
NMSI_	103	0	7	96	48	3
NMTAP	103	96	2
NMTAP	103	192	1
NMTAP	103	240	1
NMTAP	103	288	3
NMTAP	103	336	3
NMSTR	104	0	0
NMSI_	104	0	0	96	48	4
NMTAP	104	96	5
NMTAP	104	192	6
NMTAP	104	240	6
NMTAP	104	288	4
NMTAP	104	336	4
NMSTR	105	0	7
NMSI_	105	0	7	96	48	3
NMTAP	105	96	2
NMTAP	105	192	1
NMTAP	105	240	1
NMTAP	105	288	3
NMTAP	105	336	3
NMTAP	106	0	0
EXHLD	106	96	0	48
EXHLD	106	96	7	48
EXHLD	106	192	4	48
EXHLD	106	192	6	48
EXHLD	106	288	1	48
EXHLD	106	288	3	48
NMSTR	107	0	0
NMSI_	107	0	0	96	48	4
NMTAP	107	96	5
NMTAP	107	192	6
NMTAP	107	240	6
NMTAP	107	288	4
NMTAP	107	336	4
NMSTR	108	0	7
NMSI_	108	0	7	96	48	3
NMTAP	108	96	2
NMTAP	108	192	1
NMTAP	108	240	1
NMTAP	108	288	3
NMTAP	108	336	3
NMSTR	109	0	0
NMSI_	109	0	0	96	48	4
NMTAP	109	96	5
NMTAP	109	192	6
NMTAP	109	240	6
NMTAP	109	288	4
NMTAP	109	336	4
NMSTR	110	0	7
NMSI_	110	0	7	96	48	3
NMTAP	110	96	2
NMTAP	110	192	1
NMTAP	110	240	1
NMTAP	110	288	2
NMTAP	110	288	3
NMTAP	111	0	0
NMHLD	111	48	0	288
NMTAP	111	144	2
NMTAP	111	240	4
NMTAP	111	336	6
NMTAP	112	0	7
NMHLD	112	48	7	288
NMTAP	112	144	5
NMTAP	112	240	3
NMTAP	112	336	1
NMTAP	113	0	0
NMHLD	113	48	0	288
NMTAP	113	144	2
NMTAP	113	240	4
NMTAP	113	336	6
NMTAP	114	0	7
NMHLD	114	48	7	288
NMTAP	114	144	5
NMTAP	114	240	3
NMTAP	114	336	1
NMTAP	115	0	0
NMHLD	115	48	0	288
NMTAP	115	144	4
NMTAP	115	240	2
NMTAP	115	336	6
NMTAP	116	0	7
NMHLD	116	48	7	288
NMTAP	116	144	3
NMTAP	116	240	5
NMTAP	116	336	1
NMTAP	117	0	0
NMHLD	117	48	0	288
NMTAP	117	144	4
NMTAP	117	240	2
NMTAP	117	336	6
NMTAP	118	0	7
NMHLD	118	48	7	96
NMSTR	118	144	4
NMSI_	118	144	4	96	48	0
NMSTR	118	240	6
NMSI_	118	240	6	96	48	2

T_REC_TAP	467
T_REC_BRK	5
T_REC_XTP	19
T_REC_BXX	0
T_REC_HLD	56
T_REC_XHO	19
T_REC_BHO	0
T_REC_BXH	0
T_REC_STR	50
T_REC_BST	0
T_REC_XST	3
T_REC_XBS	0
T_REC_TTP	15
T_REC_THO	0
T_REC_SLD	52
T_REC_BSL	1
T_REC_ALL	687
T_NUM_TAP	554
T_NUM_BRK	6
T_NUM_HLD	75
T_NUM_SLD	52
T_NUM_ALL	687
T_JUDGE_TAP	559
T_JUDGE_HLD	228
T_JUDGE_SLD	53
T_JUDGE_ALL	840
TTM_EACHPAIRS	181
TTM_SCR_TAP	277000
TTM_SCR_BRK	15600
TTM_SCR_HLD	75000
TTM_SCR_SLD	78000
TTM_SCR_ALL	445600
TTM_SCR_S	431650
TTM_SCR_SS	445000
TTM_RAT_ACV	10013

