VERSION	0.00.00	1.04.00
FES_MODE	0
BPM_DEF	190.000	190.000	190.000	190.000
MET_DEF	4	4
RESOLUTION	384
CLK_DEF	384
COMPATIBLE_CODE	MA2

BPM	0	0	190.000
MET	0	0	4	4

NMTAP	3	0	1
NMTAP	3	192	1
NMTAP	4	0	2
NMTAP	4	192	2
NMTAP	5	0	3
NMTAP	5	192	3
NMTAP	6	0	4
NMTAP	6	0	5
NMTAP	7	0	6
NMTAP	7	192	6
NMTAP	8	0	5
NMTAP	8	192	5
NMTAP	9	0	4
NMTAP	9	192	4
NMTAP	10	0	2
NMTAP	10	0	3
NMTAP	11	0	2
NMTAP	11	96	2
NMTAP	11	192	2
NMTAP	12	0	1
NMTAP	12	96	1
NMTAP	12	192	1
NMTAP	13	0	0
NMTAP	13	96	0
NMTAP	13	192	0
NMTAP	14	0	6
NMTAP	14	0	7
NMTAP	15	0	5
NMTAP	15	96	5
NMTAP	15	192	5
NMTAP	16	0	6
NMTAP	16	96	6
NMTAP	16	192	6
NMTAP	17	0	7
NMTAP	17	96	7
NMTAP	17	192	7
NMTAP	18	0	0
NMTAP	18	0	1
NMSTR	19	0	1
NMSSR	19	0	1	96	480	5
NMSTR	21	0	6
NMSSL	21	0	6	96	480	2
NMTAP	23	0	1
NMTAP	23	96	1
NMTAP	23	192	0
NMTAP	23	192	1
NMTAP	24	0	2
NMTAP	24	96	2
NMTAP	24	192	2
NMTAP	24	192	3
NMTAP	25	0	4
NMTAP	25	96	4
NMTAP	25	192	4
NMTAP	25	192	5
NMTAP	26	0	6
NMTAP	26	96	6
NMTAP	26	192	0
NMTAP	26	192	7
NMTAP	27	0	6
NMTAP	27	96	6
NMTAP	27	192	6
NMTAP	27	192	7
NMTAP	28	0	5
NMTAP	28	96	5
NMTAP	28	192	4
NMTAP	28	192	5
NMTAP	29	0	3
NMTAP	29	96	3
NMTAP	29	192	2
NMTAP	29	192	3
NMTAP	30	0	1
NMTAP	30	96	1
NMTAP	30	192	0
NMTAP	30	192	7
NMTTP	31	0	1	B	0	L1
NMTTP	31	96	2	B	0	L1
NMTTP	31	192	3	B	0	L1
NMTTP	32	0	6	B	0	L1
NMTTP	32	96	5	B	0	L1
NMTTP	32	192	4	B	0	L1
NMTTP	33	0	1	B	0	L1
NMTTP	33	96	2	B	0	L1
NMTTP	33	192	3	B	0	L1
NMTTP	33	288	4	B	0	L1
NMTTP	34	0	5	B	0	L1
NMTTP	34	96	6	B	0	L1
NMTTP	34	192	0	B	0	L1
NMTTP	34	192	7	B	0	L1
NMTTP	35	0	3	B	0	L1
NMTTP	35	96	2	B	0	L1
NMTTP	35	192	1	B	0	L1
NMTTP	36	0	4	B	0	L1
NMTTP	36	96	5	B	0	L1
NMTTP	36	192	6	B	0	L1
NMTTP	37	0	2	B	0	L1
NMTTP	37	96	1	B	0	L1
NMTTP	37	192	0	B	0	L1
NMTTP	37	288	7	B	0	L1
NMTTP	38	0	6	B	0	L1
NMTTP	38	96	5	B	0	L1
NMTTP	38	192	3	B	0	L1
NMTTP	38	192	4	B	0	L1
NMTAP	39	0	2
NMTAP	39	96	2
NMTAP	39	192	1
NMTAP	39	288	1
NMTAP	40	0	0
NMTAP	40	96	0
NMTAP	40	192	6
NMTAP	40	192	7
NMTAP	41	0	5
NMTAP	41	96	5
NMTAP	41	192	6
NMTAP	41	288	6
NMTAP	42	0	7
NMTAP	42	96	7
NMTAP	42	192	0
NMTAP	42	192	1
NMTAP	43	0	1
NMTAP	43	96	1
NMTAP	43	192	2
NMTAP	43	288	2
NMTAP	44	0	3
NMTAP	44	96	3
NMTAP	44	192	4
NMTAP	44	192	5
NMTAP	45	0	6
NMTAP	45	96	6
NMTAP	45	192	5
NMTAP	45	288	5
NMTAP	46	0	4
NMTAP	46	96	4
NMTAP	46	192	2
NMTAP	46	192	3
NMTAP	47	0	2
NMTAP	47	96	2
NMTAP	47	192	2
NMTAP	47	288	2
NMTAP	47	288	3
NMTAP	48	0	1
NMTAP	48	96	1
NMTAP	48	192	1
NMTAP	48	288	0
NMTAP	48	288	1
NMTAP	49	0	7
NMTAP	49	96	7
NMTAP	49	192	7
NMTAP	49	288	6
NMTAP	49	288	7
NMTAP	50	0	4
NMTAP	50	0	5
NMTAP	50	96	4
NMTAP	50	96	5
NMTAP	50	192	4
NMTAP	50	192	5
NMTAP	51	0	6
NMTAP	51	0	7
NMTAP	51	96	6
NMTAP	51	96	7
NMTAP	51	192	6
NMTAP	51	192	7
NMTAP	52	0	0
NMTAP	52	0	1
NMTAP	52	96	0
NMTAP	52	96	1
NMTAP	52	192	0
NMTAP	52	192	1
NMTAP	53	0	2
NMTAP	53	96	3
NMTAP	53	192	4
NMTAP	53	288	5
BRTAP	54	0	3
BRTAP	54	0	4
NMTAP	55	0	5
NMTAP	55	96	5
NMTAP	55	192	5
NMTAP	56	0	6
NMTAP	56	96	6
NMTAP	56	192	6
NMTAP	57	0	7
NMTAP	57	96	7
NMTAP	57	192	7
NMTAP	58	0	0
NMTAP	58	0	1
NMTAP	59	0	2
NMTAP	59	96	2
NMTAP	59	192	2
NMTAP	60	0	1
NMTAP	60	96	1
NMTAP	60	192	1
NMTAP	61	0	0
NMTAP	61	96	0
NMTAP	61	192	0
NMTAP	62	0	6
NMTAP	62	0	7
NMHLD	63	0	5	192
NMHLD	63	192	4	192
NMHLD	64	0	3	192
NMTAP	64	192	2
NMHLD	65	0	2	192
NMHLD	65	192	3	192
NMHLD	66	0	4	192
NMTAP	66	192	5
NMHLD	67	0	6	192
NMHLD	67	192	5	192
NMHLD	68	0	4	192
NMTAP	68	192	3
BRTAP	69	0	3
BRTAP	69	0	4
NMTAP	71	0	4
NMTAP	71	96	4
NMTAP	71	192	4
NMTAP	71	192	5
NMTAP	72	0	6
NMTAP	72	96	6
NMTAP	72	192	0
NMTAP	72	192	7
NMTAP	73	0	1
NMTAP	73	96	1
NMTAP	73	192	2
NMTAP	73	288	2
NMTAP	74	0	3
NMTAP	74	0	4
NMTAP	74	96	3
NMTAP	74	96	4
NMTAP	74	192	3
NMTAP	74	192	4
NMTAP	75	0	3
NMTAP	75	96	3
NMTAP	75	192	2
NMTAP	75	192	3
NMTAP	76	0	1
NMTAP	76	96	1
NMTAP	76	192	0
NMTAP	76	192	7
NMTAP	77	0	6
NMTAP	77	96	6
NMTAP	77	192	5
NMTAP	77	288	5
EXTAP	78	0	3
EXTAP	78	0	4
EXTAP	78	192	3
EXTAP	78	192	4
NMTAP	79	0	5
NMTAP	79	96	5
NMTAP	79	192	6
NMTAP	79	192	7
NMTAP	79	288	6
NMTAP	79	288	7
NMTAP	80	0	0
NMTAP	80	96	0
NMTAP	80	192	0
NMTAP	80	192	1
NMTAP	81	0	2
NMTAP	81	96	2
NMTAP	81	192	0
NMTAP	81	192	1
NMTAP	81	288	0
NMTAP	81	288	1
NMTAP	82	0	7
NMTAP	82	96	7
NMTAP	82	192	6
NMTAP	82	192	7
NMTAP	83	0	6
NMTAP	83	96	6
NMTAP	83	192	4
NMTAP	83	192	5
NMTAP	83	288	4
NMTAP	83	288	5
NMTAP	84	0	3
NMTAP	84	96	3
NMTAP	84	192	2
NMTAP	84	192	3
NMTAP	85	0	1
NMTAP	85	96	1
NMTAP	85	192	2
NMTAP	85	192	3
NMTAP	85	288	2
NMTAP	85	288	3
NMTAP	86	0	4
NMTAP	86	96	4
NMTAP	86	192	4
NMTAP	86	192	5
NMTAP	87	0	5
NMTAP	87	96	5
NMTAP	87	192	5
NMTAP	87	288	4
NMTAP	87	288	5
NMTAP	88	0	6
NMTAP	88	96	6
NMTAP	88	192	6
NMTAP	88	288	6
NMTAP	88	288	7
NMTAP	89	0	0
NMTAP	89	96	0
NMTAP	89	192	0
NMTAP	89	288	0
NMTAP	89	288	1
NMTAP	90	0	2
NMTAP	90	0	3
NMTAP	90	96	2
NMTAP	90	96	3
NMTAP	90	192	2
NMTAP	90	192	3
NMTAP	91	0	0
NMTAP	91	0	1
NMTAP	91	96	0
NMTAP	91	96	1
NMTAP	91	192	0
NMTAP	91	192	1
NMTAP	92	0	6
NMTAP	92	0	7
NMTAP	92	96	6
NMTAP	92	96	7
NMTAP	92	192	6
NMTAP	92	192	7
NMTAP	93	0	5
NMTAP	93	96	4
NMTAP	93	192	3
NMTAP	93	288	2
BRTAP	94	0	3
BRTAP	94	0	4
NMTAP	95	0	2
NMTAP	95	96	2
NMTAP	95	192	1
NMTAP	95	192	3
NMTAP	96	0	0
NMTAP	96	96	0
NMTAP	96	192	1
NMTAP	96	192	7
NMTAP	97	0	6
NMTAP	97	96	6
NMTAP	97	192	5
NMTAP	97	192	7
NMTAP	98	0	4
NMTAP	98	0	5
NMTAP	98	96	4
NMTAP	98	96	5
NMTAP	98	192	3
NMTAP	98	192	6
NMTAP	99	0	5
NMTAP	99	96	5
NMTAP	99	192	4
NMTAP	99	192	6
NMTAP	100	0	7
NMTAP	100	96	7
NMTAP	100	192	0
NMTAP	100	192	6
NMTAP	101	0	1
NMTAP	101	96	1
NMTAP	101	192	0
NMTAP	101	192	2
NMTAP	102	0	2
NMTAP	102	0	3
NMTAP	102	96	2
NMTAP	102	96	3
NMTAP	102	192	1
NMTAP	102	192	4
NMTAP	103	0	0
NMTAP	103	96	1
NMTAP	103	192	2
NMTAP	103	288	3
NMTAP	104	0	4
NMTAP	104	96	5
NMTAP	104	192	6
NMTAP	104	192	7
NMTAP	105	0	7
NMTAP	105	96	6
NMTAP	105	192	5
NMTAP	105	288	4
NMTAP	106	0	3
NMTAP	106	96	2
NMTAP	106	192	0
NMTAP	106	192	1
NMTAP	107	0	2
NMTAP	107	96	1
NMTAP	107	192	0
NMTAP	107	288	7
NMTAP	108	0	6
NMTAP	108	96	5
NMTAP	108	192	3
NMTAP	108	192	4
NMTAP	109	0	5
NMTAP	109	96	6
NMTAP	109	192	7
NMTAP	109	288	0
NMTAP	110	0	1
NMTAP	110	96	2
NMTAP	110	192	3
NMTAP	110	192	4
NMSTR	111	0	2
NMSCL	111	0	2	96	288	7
NMSTR	113	0	6
NMSCL	113	0	6	96	288	3
NMSTR	115	0	2
NMSCL	115	0	2	96	288	7
NMSTR	117	0	6
NMSUL	117	0	6	96	576	3

T_REC_TAP	339
T_REC_BRK	6
T_REC_XTP	4
T_REC_BXX	0
T_REC_HLD	9
T_REC_XHO	0
T_REC_BHO	0
T_REC_BXH	0
T_REC_STR	6
T_REC_BST	0
T_REC_XST	0
T_REC_XBS	0
T_REC_TTP	28
T_REC_THO	0
T_REC_SLD	6
T_REC_BSL	0
T_REC_ALL	398
T_NUM_TAP	377
T_NUM_BRK	6
T_NUM_HLD	9
T_NUM_SLD	6
T_NUM_ALL	398
T_JUDGE_TAP	383
T_JUDGE_HLD	36
T_JUDGE_SLD	6
T_JUDGE_ALL	425
TTM_EACHPAIRS	82
TTM_SCR_TAP	188500
TTM_SCR_BRK	15600
TTM_SCR_HLD	9000
TTM_SCR_SLD	9000
TTM_SCR_ALL	222100
TTM_SCR_S	214900
TTM_SCR_SS	221500
TTM_RAT_ACV	10027

