VERSION	0.00.00	1.04.00
FES_MODE	0
BPM_DEF	183.000	183.000	183.000	183.000
MET_DEF	4	4
RESOLUTION	384
CLK_DEF	384
COMPATIBLE_CODE	MA2

BPM	0	0	183.000
MET	0	0	4	4

NMHLD	1	0	2	336
NMSTR	1	0	4
NMSXL	1	0	4	96	384	3
NMHLD	2	192	1	96
EXTAP	2	288	7
NMTAP	3	0	3
NMTAP	3	0	6
NMTAP	3	48	3
NMTAP	3	48	6
NMTAP	3	96	4
NMTAP	3	96	5
NMTAP	3	144	4
NMTAP	3	144	5
NMTAP	3	192	3
NMTAP	3	192	4
NMTAP	3	240	3
NMTAP	3	240	4
NMTAP	3	288	2
NMTAP	3	288	3
NMTAP	3	336	2
NMTAP	3	336	3
NMTTP	4	0	1	B	0	M1
NMTTP	4	0	2	B	0	M1
NMTTP	4	0	2	E	0	M1
NMTTP	4	0	2	A	0	M1
NMTTP	4	0	3	B	0	M1
NMTTP	4	0	3	E	0	M1
NMTTP	4	96	4	B	0	M1
NMTTP	4	96	5	B	0	M1
NMTTP	4	96	5	E	0	M1
NMTTP	4	96	5	A	0	M1
NMTTP	4	96	6	B	0	M1
NMTTP	4	96	6	E	0	M1
NMTTP	4	192	2	B	0	M1
NMTTP	4	192	3	B	0	M1
NMTTP	4	192	3	E	0	M1
NMTTP	4	192	3	A	0	M1
NMTTP	4	192	4	B	0	M1
NMTTP	4	192	4	E	0	M1
BRTAP	4	288	0
BRTAP	4	288	7
NMTAP	5	0	5
NMTAP	5	48	4
NMSTR	5	96	3
NMSCL	5	96	3	96	48	0
NMTAP	5	144	3
NMSTR	5	192	6
NMSCL	5	192	6	96	48	3
NMTAP	5	240	6
NMTAP	5	288	7
NMTAP	6	0	2
NMTAP	6	48	3
NMSTR	6	96	4
NMSCR	6	96	4	96	48	7
NMTAP	6	144	4
NMSTR	6	192	1
NMSCR	6	192	1	96	48	4
NMTAP	6	240	1
NMTAP	6	288	0
NMTAP	7	0	5
NMTAP	7	48	4
NMSTR	7	96	3
NMSCL	7	96	3	96	48	0
NMTAP	7	144	3
NMSTR	7	192	6
NMSV_	7	192	6	96	48	3
NMTAP	7	240	6
NMTAP	7	288	7
NMTAP	8	0	1
NMTAP	8	48	2
NMTAP	8	96	3
NMTAP	8	144	4
NMTAP	8	192	3
NMTAP	8	192	5
NMTAP	8	240	4
NMTAP	8	288	5
NMTAP	8	336	6
NMHLD	9	0	2	288
NMTAP	9	0	7
NMHLD	9	192	3	96
NMHLD	9	336	1	192
NMHLD	9	336	4	192
NMTAP	10	192	2
NMSTR	10	192	3
NMSI_	10	192	3	96	48	5
NMHLD	11	0	3	288
EXTAP	11	0	6
NMHLD	11	192	5	96
NMHLD	11	336	4	192
NMHLD	11	336	6	192
NMSTR	12	192	4
NMSI_	12	192	4	96	48	2
NMSTR	12	192	6
NMSI_	12	192	6	96	48	4
EXTAP	13	0	1
EXTAP	13	0	3
NMTAP	13	96	2
NMSTR	13	96	3
NMSCR	13	96	3	96	96	7
NMTAP	13	192	2
NMTAP	13	288	3
NMTAP	14	0	4
NMTAP	14	0	6
NMSTR	14	96	4
NMSCL	14	96	4	96	96	0
NMTAP	14	96	5
NMTAP	14	192	5
EXHLD	14	288	4	96
NMTAP	15	0	0
NMTAP	15	48	0
NMTAP	15	96	3
NMTAP	15	144	2
NMTAP	15	192	4
NMTAP	15	240	4
NMTAP	15	288	3
NMTAP	15	288	5
NMHLD	15	336	2	240
NMTAP	15	336	6
NMSTR	16	192	7
NMSI_	16	192	7	96	48	3
NMTAP	16	240	3
BRTAP	16	288	7
NMTAP	17	0	2
NMTAP	17	0	4
NMTAP	17	48	5
NMTAP	17	96	0
NMSTR	17	144	1
NMSCR	17	144	1	96	48	3
NMTAP	17	240	4
CNSI_	17	288	3	0	48	7
NMTAP	17	288	4
NMTAP	18	0	6
NMTAP	18	48	0
NMTAP	18	96	1
NMSTR	18	144	5
NMSCR	18	144	5	96	48	7
NMTAP	18	240	0
NMTAP	18	288	0
CNSI_	18	288	7	0	48	3
NMTAP	19	0	1
NMTAP	19	48	2
NMTAP	19	96	4
NMSTR	19	144	3
NMSCL	19	144	3	96	48	0
NMTAP	19	144	5
NMTAP	19	240	6
NMHLD	19	288	6	96
NMTTP	20	0	4	B	0	M1
NMTTP	20	0	4	E	0	M1
NMTTP	20	0	5	E	0	M1
NMSTR	20	96	1
NMSI_	20	96	1	96	48	4
NMSTR	20	96	5
NMSI_	20	96	5	96	48	0
EXTAP	20	288	3
EXTAP	20	288	7
NMTAP	21	0	1
NMTAP	21	0	4
NMTAP	21	48	2
NMTAP	21	96	3
NMSTR	21	144	5
NMSI_	21	144	5	96	48	0
NMTAP	21	240	4
CNSCL	21	288	0	0	48	6
NMTAP	21	288	4
NMTAP	22	0	3
EXTAP	22	0	5
NMTAP	22	48	4
NMTAP	22	96	3
NMSTR	22	144	2
NMSI_	22	144	2	96	48	7
NMTAP	22	240	4
NMTAP	22	288	4
CNSCR	22	288	7	0	48	1
EXTAP	23	0	2
NMTAP	23	0	4
NMTAP	23	48	3
NMTAP	23	96	4
NMSTR	23	144	5
NMSI_	23	144	5	96	48	2
NMTAP	23	240	0
NMSTR	23	288	1
BRSCL	23	288	1	96	288	3
NMTTP	24	0	0	C	1	M1
NMHLD	25	0	2	432
NMTAP	25	0	4
NMTAP	25	48	4
NMTAP	25	144	3
NMTAP	25	192	3
NMTAP	25	288	4
NMHLD	25	336	4	96
NMTAP	26	96	2
NMTAP	26	96	4
NMTAP	26	192	3
NMTAP	26	192	5
NMTAP	26	288	4
NMTAP	26	288	6
NMTAP	27	0	3
NMHLD	27	0	5	432
NMTAP	27	48	3
NMTAP	27	144	4
NMTAP	27	192	4
NMTAP	27	288	3
NMHLD	27	336	3	96
NMTAP	28	96	3
NMTAP	28	96	4
NMTAP	28	192	1
NMTAP	28	192	5
NMTAP	28	288	2
NMTAP	28	288	4
NMHLD	29	0	1	432
NMTAP	29	0	3
NMTAP	29	48	3
NMTAP	29	144	2
NMTAP	29	192	2
NMTAP	29	288	3
NMHLD	29	336	3	96
NMTAP	30	96	1
NMTAP	30	96	3
NMTAP	30	192	2
NMTAP	30	192	4
NMTAP	30	288	3
NMTAP	30	288	5
NMTAP	31	0	4
NMTAP	31	0	5
NMTAP	31	48	4
NMTAP	31	48	5
NMTAP	31	96	3
NMTAP	31	144	3
NMTAP	31	192	2
NMTAP	31	240	2
NMTAP	31	288	1
NMTAP	31	288	3
NMHLD	31	336	0	240
NMHLD	31	336	4	144
NMTTP	32	192	3	B	0	M1
NMTTP	32	192	3	E	0	M1
NMTTP	32	192	3	A	0	M1
NMTTP	32	192	4	B	0	M1
NMTTP	32	192	4	E	0	M1
NMTTP	32	192	4	A	0	M1
NMTTP	32	192	4	D	0	M1
BRTAP	32	288	1
BRTAP	32	288	5
NMTAP	33	0	7
NMTAP	33	48	0
NMTAP	33	48	6
NMSTR	33	96	3
NMSI_	33	96	3	96	48	7
NMTAP	33	144	2
NMTAP	33	144	4
EXSTR	33	192	1
NMSCR	33	192	1	96	48	4
NMTAP	33	240	0
EXTAP	33	288	7
NMTAP	33	336	6
NMTAP	34	0	5
NMTAP	34	48	4
NMTAP	34	48	6
NMTAP	34	96	2
NMTAP	34	144	1
NMTAP	34	144	3
EXSTR	34	192	0
NMSI_	34	192	0	96	48	3
EXSTR	34	192	4
NMSI_	34	192	4	96	48	7
BRTAP	34	288	0
BRTAP	34	288	4
NMTAP	35	0	2
NMHLD	35	0	6	96
NMTAP	35	48	3
NMTAP	35	96	4
NMTAP	35	144	2
NMHLD	35	192	1	96
NMTAP	35	192	4
NMTAP	35	240	3
NMTAP	35	288	4
NMTAP	35	336	5
NMTAP	36	0	3
NMSTR	36	0	6
NMSI_	36	0	6	96	48	2
NMSTR	36	96	0
NMSV_	36	96	0	96	48	3
NMSV_	36	96	0	96	48	5
NMTAP	36	96	6
BRTAP	36	192	0
NMTAP	36	288	2
NMTAP	36	288	6
NMTAP	37	0	0
NMTAP	37	48	1
NMTAP	37	48	7
NMSTR	37	96	4
NMSI_	37	96	4	96	48	0
NMTAP	37	144	3
NMTAP	37	144	5
EXSTR	37	192	6
NMSCL	37	192	6	96	48	3
NMTAP	37	240	7
EXTAP	37	288	0
NMTAP	37	336	1
NMTAP	38	0	2
NMTAP	38	48	1
NMTAP	38	48	3
NMTAP	38	96	5
NMTAP	38	144	4
NMTAP	38	144	6
EXHLD	38	192	2	96
NMSTR	38	192	3
NMSI_	38	192	3	96	48	7
BRTAP	38	288	3
NMSTR	39	0	0
NMSI_	39	0	0	96	48	3
NMSI_	39	0	0	96	48	5
NMTAP	39	48	1
NMTAP	39	48	7
NMTAP	39	96	0
NMTAP	39	192	2
NMTAP	39	192	6
NMTAP	39	240	3
NMTAP	39	288	1
NMTAP	39	288	5
NMTAP	39	336	4
NMTAP	40	0	3
NMTTP	40	0	5	B	0	M1
NMTTP	40	0	6	B	0	M1
NMTTP	40	0	6	E	0	M1
NMTTP	40	96	1	B	0	M1
NMTTP	40	96	2	B	0	M1
NMTTP	40	96	2	E	0	M1
NMSTR	40	96	7
NMSF_	40	96	7	96	48	3
NMTTP	40	192	0	E	0	M1
NMTTP	40	192	7	B	0	M1
NMTTP	40	192	7	E	0	M1
NMTTP	40	192	7	A	0	M1
BRTAP	40	288	0
BRTAP	40	288	6
NMTAP	41	0	2
NMHLD	41	0	4	96
NMSTR	41	96	3
NMSCL	41	96	3	96	96	5
NMTAP	41	192	5
NMSTR	41	288	4
NMSCR	41	288	4	96	96	2
NMTAP	42	0	2
NMTAP	42	96	3
NMSTR	42	192	2
NMSI_	42	192	2	96	48	7
NMSCR	42	192	2	96	48	5
NMTAP	42	192	4
NMTAP	42	288	2
NMSTR	43	0	3
NMSI_	43	0	3	96	48	6
NMSCL	43	0	3	96	48	0
NMTAP	43	96	3
NMSTR	43	192	4
NMSI_	43	192	4	96	48	1
NMSCR	43	192	4	96	48	7
NMTAP	43	288	4
NMTAP	44	0	0
NMTAP	44	48	1
NMTAP	44	48	7
BRTAP	44	96	2
BRTAP	44	96	6
NMTAP	44	192	1
NMTAP	44	192	3
NMTAP	44	240	1
NMTAP	44	240	3
NMSTR	44	288	2
NMSI_	44	288	2	96	48	6
NMTAP	44	312	4
NMTAP	44	336	2
NMTAP	44	360	4
BRTAP	45	0	2
NMSTR	45	96	4
NMSCR	45	96	4	96	96	2
NMTAP	45	192	2
NMSTR	45	288	3
NMSCL	45	288	3	96	96	5
NMTAP	46	0	5
NMTAP	46	96	4
NMTAP	46	192	3
NMSTR	46	192	5
NMSXR	46	192	5	96	120	6
NMTAP	46	288	0
NMTAP	46	336	0
NMSTR	47	0	1
NMSXR	47	0	1	96	120	2
NMTAP	47	96	4
NMTAP	47	144	4
NMHLD	47	192	5	96
NMTAP	47	288	3
BRTAP	47	336	2
BRTAP	47	336	6
NMTAP	48	48	1
NMTAP	48	48	3
NMTAP	48	96	2
NMTAP	48	96	4
NMTAP	48	144	3
NMTAP	48	144	5
NMTAP	48	192	4
NMHLD	48	192	6	96
EXTAP	48	288	0
BRTAP	49	0	1
BRTAP	49	0	5
NMTAP	49	96	2
NMTAP	49	160	2
NMTAP	49	192	4
NMTAP	49	288	3
NMHLD	49	288	5	192
NMTAP	50	96	4
NMTAP	50	160	4
NMHLD	50	192	6	192
NMHLD	50	288	4	96
NMTAP	51	96	6
NMTAP	51	160	6
NMTAP	51	192	4
NMTAP	51	256	4
NMTAP	51	288	3
NMTAP	51	352	3
NMTAP	52	0	2
NMTAP	52	64	2
NMTAP	52	96	3
NMTAP	52	160	3
NMHLD	52	192	1	96
EXTAP	52	288	7
BRTAP	53	0	2
BRTAP	53	0	6
NMTAP	53	96	5
NMTAP	53	160	5
NMTAP	53	192	3
NMHLD	53	288	2	192
NMTAP	53	288	4
NMTAP	54	96	3
NMTAP	54	160	3
NMTAP	54	192	2
NMTAP	54	288	4
NMTAP	54	288	5
NMTAP	55	0	3
NMHLD	55	0	7	672
NMHLD	55	96	4	64
NMHLD	55	192	4	64
NMHLD	55	288	3	64
NMHLD	56	0	5	64
NMHLD	56	96	3	64
NMTAP	56	192	5
BRTAP	56	288	1
BXHLD	57	0	2	576
BXHLD	57	0	4	96
NMSTR	57	192	3
NMSI_	57	192	3	96	96	5
CNSI_	58	0	5	0	96	1
CNSI_	58	96	1	0	96	7
CNSCL	58	192	7	0	96	4
NMTAP	59	0	2
NMTAP	59	0	3
NMTAP	59	64	3
NMTAP	59	64	4
NMTAP	59	128	4
NMTAP	59	128	5
NMSTR	59	192	4
NMSI_	59	192	4	96	96	2
NMHLD	59	192	5	384
CNSI_	60	0	2	0	96	6
CNSI_	60	96	6	0	96	0
CNSCR	60	192	0	0	96	3
BXHLD	61	0	4	96
BXHLD	61	0	6	192
NMHLD	61	192	3	384
NMTTP	61	288	4	E	0	M1
NMTTP	62	0	3	E	0	M1
NMTTP	62	96	5	E	0	M1
NMTTP	62	192	4	D	0	M1
NMTAP	62	288	2
NMTAP	62	288	4
NMHLD	63	0	1	96
NMHLD	63	0	3	192
NMHLD	63	192	0	384
NMTTP	63	288	2	B	0	M1
NMTTP	63	288	3	E	0	M1
NMTTP	64	0	5	B	0	M1
NMTTP	64	0	5	E	0	M1
NMTTP	64	96	4	E	0	M1
NMTTP	64	192	0	C	0	M1
NMSTR	64	288	0
NMSSL	64	288	0	96	192	4
NMTAP	64	288	6
BRTAP	65	288	1
BRTAP	65	288	7
NMSTR	66	0	6
NMSI_	66	0	6	96	48	0
NMTAP	66	48	6
NMSTR	66	96	2
NMSI_	66	96	2	96	48	4
NMTAP	66	144	2
EXTAP	66	192	7
NMTAP	66	240	7
NMTAP	66	288	6
NMTAP	66	336	4
NMHLD	66	336	5	96
NMTAP	67	48	3
NMTAP	67	72	4
NMTAP	67	96	2
NMTAP	67	144	5
NMTAP	67	168	4
NMTAP	67	192	6
NMTAP	67	240	2
NMTAP	67	264	3
NMTAP	67	288	1
NMTAP	67	336	7
NMTAP	67	360	0
NMSTR	68	0	6
NMSCL	68	0	6	96	48	3
NMTAP	68	96	0
NMTAP	68	144	0
NMSTR	68	192	1
NMSI_	68	192	1	96	48	4
NMTAP	68	240	1
NMTAP	68	288	0
NMTAP	68	336	0
NMHLD	69	0	7	96
EXTAP	69	96	3
EXTAP	69	120	2
EXTAP	69	144	1
EXTAP	69	168	0
EXTAP	69	192	6
EXTAP	69	216	5
EXTAP	69	240	4
EXTAP	69	264	3
EXTAP	69	288	0
EXTAP	69	312	1
EXTAP	69	336	2
EXTAP	69	360	3
BRTAP	70	0	7
NMTAP	70	48	4
NMTAP	70	48	6
NMTAP	70	96	3
NMTAP	70	144	4
NMTAP	70	144	6
NMSTR	70	192	7
NMSI_	70	192	7	96	48	3
NMTAP	70	240	4
NMTAP	70	240	6
EXTAP	70	288	7
NMTAP	70	336	1
NMTAP	71	0	0
NMTAP	71	48	1
NMTAP	71	48	3
NMTAP	71	96	4
NMTAP	71	144	1
NMTAP	71	144	3
NMSTR	71	192	0
NMSI_	71	192	0	96	48	4
NMTAP	71	240	1
NMTAP	71	240	3
EXTAP	71	288	0
NMTAP	72	0	5
NMTAP	72	48	5
NMTAP	72	72	4
NMTAP	72	96	6
NMTAP	72	144	0
NMTAP	72	168	7
NMTAP	72	192	0
NMTAP	72	240	1
NMTAP	72	264	3
NMTAP	72	288	2
NMTAP	72	336	5
NMTAP	72	360	4
NMTAP	73	0	5
NMTAP	73	48	2
NMTAP	73	72	3
NMTAP	73	96	1
NMTAP	73	144	5
NMTAP	73	168	4
NMTAP	73	192	6
NMTAP	73	240	1
NMTAP	73	264	0
NMTAP	73	288	2
NMTAP	73	336	6
NMTAP	73	360	7
BRSTR	74	0	5
NMSCL	74	0	5	96	288	0
CNSSL	75	0	0	0	288	4
NMTAP	76	0	3
NMHLD	76	0	5	432
NMTAP	76	48	3
NMTAP	76	144	4
NMTAP	76	192	4
NMTAP	76	288	6
NMSTR	76	336	6
NMSLR	76	336	6	96	144	2
EXTAP	77	192	4
EXTAP	77	288	4
NMHLD	78	0	3	432
NMTAP	78	0	5
NMTAP	78	48	5
NMTAP	78	144	4
NMTAP	78	192	4
NMTAP	78	288	2
NMSTR	78	336	2
NMSLL	78	336	2	96	144	6
EXTAP	79	192	4
EXTAP	79	288	4
NMTAP	80	0	3
NMHLD	80	0	5	432
NMTAP	80	48	3
NMTAP	80	144	4
NMTAP	80	192	4
NMTAP	80	288	6
NMSTR	80	336	6
NMSLL	80	336	6	96	144	2
EXTAP	81	192	6
EXHLD	81	288	6	96
NMTAP	82	0	3
NMTAP	82	48	3
NMTAP	82	96	5
NMTAP	82	144	5
NMTAP	82	192	4
NMTAP	82	240	4
NMTAP	82	288	6
NMHLD	82	336	3	144
NMHLD	82	336	7	240
NMTTP	83	192	3	B	0	M1
NMTTP	83	192	4	B	0	M1
NMTTP	83	192	4	E	0	M1
NMTTP	83	192	4	A	0	M1
NMTTP	83	192	4	D	0	M1
NMTTP	83	192	5	E	0	M1
NMTTP	83	192	5	D	0	M1
NMSTR	83	288	2
NMSI_	83	288	2	96	48	0
NMSTR	83	288	6
NMSI_	83	288	6	96	48	4
BRTAP	84	0	2
BRTAP	84	0	6
NMHLD	84	192	1	96
NMHLD	84	192	5	96
NMHLD	84	336	2	192
NMHLD	84	336	4	192
NMTAP	85	192	3
NMTAP	85	192	5
NMTAP	85	240	3
NMTAP	85	240	5
EXTAP	85	288	4
EXTAP	85	288	6
NMHLD	86	0	3	144
NMHLD	86	0	7	144
EXTAP	86	192	2
EXSTR	86	192	6
NMSI_	86	192	6	96	48	2
EXSTR	86	288	0
NMSSL	86	288	0	96	216	4
NMTAP	87	240	7
BRTAP	87	288	1
BRTAP	87	288	5
NMTAP	88	0	0
NMTAP	88	48	1
NMTAP	88	48	7
NMSTR	88	96	4
NMSI_	88	96	4	96	48	0
NMTAP	88	144	3
NMTAP	88	144	5
EXSTR	88	192	6
NMSCL	88	192	6	96	48	3
NMTAP	88	240	7
EXTAP	88	288	0
NMTAP	88	336	1
NMTAP	89	0	2
NMTAP	89	48	1
NMTAP	89	48	3
NMTAP	89	96	5
NMTAP	89	144	4
NMTAP	89	144	6
NMTAP	89	192	2
EXSTR	89	192	3
NMSI_	89	192	3	96	48	7
NMTAP	89	240	1
BRTAP	89	288	2
NMTAP	89	288	3
NMSTR	90	0	0
NMSCL	90	0	0	96	48	5
NMSCR	90	0	0	96	48	3
NMTAP	90	48	1
NMTAP	90	48	7
NMTAP	90	96	0
NMTAP	90	192	4
NMTAP	90	240	4
NMTAP	90	288	3
NMTAP	90	288	5
NMTAP	90	336	2
NMTAP	91	0	1
NMTTP	91	0	4	B	0	M1
NMTTP	91	0	5	B	0	M1
NMTTP	91	0	5	E	0	M1
NMTTP	91	0	5	D	0	M1
NMTTP	91	96	1	B	0	M1
NMTTP	91	96	2	B	0	M1
NMTTP	91	96	2	E	0	M1
NMTTP	91	96	2	D	0	M1
NMSTR	91	96	7
NMSF_	91	96	7	96	48	3
NMTTP	91	192	0	E	0	M1
NMTTP	91	192	7	B	0	M1
NMTTP	91	192	7	E	0	M1
NMTTP	91	192	7	A	0	M1
BRTAP	91	288	0
BRTAP	91	288	6
NMTAP	92	0	2
NMHLD	92	0	4	96
NMSTR	92	96	3
NMSCL	92	96	3	96	96	5
NMTAP	92	192	5
NMSTR	92	288	4
NMSCR	92	288	4	96	96	2
NMTAP	93	0	2
NMTAP	93	96	3
NMSTR	93	192	2
NMSCR	93	192	2	96	48	5
NMSV_	93	192	2	96	48	7
NMTAP	93	192	4
NMTAP	93	288	2
NMSTR	94	0	3
NMSCL	94	0	3	96	48	0
NMSV_	94	0	3	96	48	6
NMTAP	94	96	3
NMSTR	94	192	4
NMSCR	94	192	4	96	48	7
NMSV_	94	192	4	96	48	1
NMTAP	94	288	4
NMTAP	95	0	0
NMTAP	95	48	1
NMTAP	95	48	7
BRTAP	95	96	2
BRTAP	95	96	6
NMTAP	95	192	1
NMTAP	95	192	3
NMTAP	95	240	1
NMTAP	95	240	3
NMSTR	95	288	2
NMSI_	95	288	2	96	48	6
NMTAP	95	312	4
NMTAP	95	336	2
NMTAP	95	360	4
BRTAP	96	0	2
NMSTR	96	96	4
NMSCR	96	96	4	96	96	2
NMTAP	96	192	2
NMSTR	96	288	3
NMSCL	96	288	3	96	96	5
NMTAP	97	0	5
NMTAP	97	96	4
NMTAP	97	192	3
NMSTR	97	192	5
NMSXR	97	192	5	96	120	6
NMTAP	97	288	7
NMTAP	97	336	0
NMSTR	98	0	1
NMSXR	98	0	1	96	120	2
NMTAP	98	96	3
NMTAP	98	144	4
NMHLD	98	192	5	96
NMTAP	98	288	4
BRTAP	98	336	2
BRTAP	98	336	7
NMTAP	99	48	1
NMTAP	99	48	3
NMTAP	99	96	0
NMTAP	99	144	1
NMTAP	99	144	7
NMSTR	99	192	2
NMSI_	99	192	2	96	48	6
NMSTR	99	192	6
NMSCL	99	192	6	96	48	4
NMTAP	99	288	2
NMTAP	99	288	6
NMSTR	100	0	3
NMSI_	100	0	3	96	48	7
NMSTR	100	0	7
NMSCR	100	0	7	96	48	1
NMTAP	100	96	3
NMTAP	100	96	7
NMSTR	100	192	2
NMSXL	100	192	2	96	96	1
NMSTR	100	192	6
NMSXL	100	192	6	96	96	5
BRTAP	100	288	2
BRTAP	100	288	6
EXTAP	101	48	0
NMTAP	101	96	0
NMTAP	101	144	1
NMTAP	101	144	7
NMHLD	101	192	2	96
NMTAP	101	192	6
NMTTP	101	288	0	C	0	M1
NMTAP	102	0	1
NMHLD	102	48	1	48
NMTAP	102	96	5
NMHLD	102	144	5	48
NMTAP	102	192	3
NMTAP	102	216	2
NMTAP	102	240	1
NMTAP	102	264	0
NMTAP	102	288	6
NMTAP	102	312	5
NMTAP	102	336	4
NMTAP	102	360	3
NMTAP	103	0	0
NMHLD	103	48	0	48
NMTAP	103	96	4
NMHLD	103	144	4	48
NMTAP	103	192	7
NMTAP	103	216	0
NMTAP	103	240	1
NMTAP	103	264	2
NMTAP	103	288	4
NMTAP	103	312	5
NMTAP	103	336	6
NMTAP	103	360	7
NMTAP	104	0	3
NMHLD	104	48	3	48
NMTAP	104	96	7
NMHLD	104	144	7	48
NMTAP	104	192	3
NMTAP	104	216	2
NMTAP	104	240	1
NMTAP	104	264	0
NMTAP	104	288	6
NMTAP	104	312	5
NMTAP	104	336	4
NMTAP	104	360	3
NMSTR	105	0	1
NMSV_	105	0	1	96	48	4
NMTAP	105	48	1
NMSTR	105	96	0
NMSCL	105	96	0	96	48	5
NMTAP	105	144	0
NMTAP	105	192	3
NMTAP	105	240	3
NMTAP	105	288	2
NMTAP	105	288	4
NMTAP	105	336	2
NMTAP	105	336	4
NMTAP	106	0	5
NMHLD	106	48	5	48
NMTAP	106	96	1
NMHLD	106	144	1	48
NMTAP	106	192	3
NMTAP	106	216	4
NMTAP	106	240	5
NMTAP	106	264	6
NMTAP	106	288	0
NMTAP	106	312	1
NMTAP	106	336	2
NMTAP	106	360	3
NMTAP	107	0	6
NMHLD	107	48	6	48
NMTAP	107	96	2
NMHLD	107	144	2	48
NMTAP	107	192	0
NMTAP	107	216	7
NMTAP	107	240	6
NMTAP	107	264	5
NMTAP	107	288	3
NMTAP	107	312	2
NMTAP	107	336	1
NMTAP	107	360	0
NMTAP	108	0	4
NMHLD	108	48	4	48
NMTAP	108	96	1
NMHLD	108	144	1	48
NMTAP	108	192	3
NMTAP	108	216	4
NMTAP	108	240	5
NMTAP	108	264	6
NMTAP	108	288	0
NMTAP	108	312	1
NMTAP	108	336	2
NMTAP	108	360	3
NMSTR	109	0	7
NMSI_	109	0	7	96	48	3
NMTAP	109	48	7
NMSTR	109	96	1
NMSI_	109	96	1	96	48	5
NMTAP	109	144	1
NMSTR	109	192	4
NMSI_	109	192	4	96	48	0
NMTAP	109	240	4
NMTAP	109	288	3
NMTAP	109	336	2
NMHLD	110	0	1	144
NMTAP	110	0	7
NMTAP	110	144	3
NMTAP	110	192	2
NMTAP	110	192	4
NMTAP	110	240	3
NMTAP	110	240	5
NMTAP	110	288	1
NMTAP	110	288	4
NMTAP	110	336	3
NMTAP	110	336	6
BRTAP	111	0	0
BRTAP	111	0	4

T_REC_TAP	487
T_REC_BRK	40
T_REC_XTP	37
T_REC_BXX	0
T_REC_HLD	70
T_REC_XHO	3
T_REC_BHO	0
T_REC_BXH	4
T_REC_STR	77
T_REC_BST	1
T_REC_XST	8
T_REC_XBS	0
T_REC_TTP	69
T_REC_THO	0
T_REC_SLD	94
T_REC_BSL	1
T_REC_ALL	891
T_NUM_TAP	678
T_NUM_BRK	46
T_NUM_HLD	73
T_NUM_SLD	94
T_NUM_ALL	891
T_JUDGE_TAP	719
T_JUDGE_HLD	273
T_JUDGE_SLD	95
T_JUDGE_ALL	1087
TTM_EACHPAIRS	151
TTM_SCR_TAP	339000
TTM_SCR_BRK	119600
TTM_SCR_HLD	73000
TTM_SCR_SLD	141000
TTM_SCR_ALL	672600
TTM_SCR_S	648000
TTM_SCR_SS	668000
TTM_RAT_ACV	10068

