VERSION	0.00.00	1.04.00
FES_MODE	0
BPM_DEF	183.000	183.000	183.000	183.000
MET_DEF	4	4
RESOLUTION	384
CLK_DEF	384
COMPATIBLE_CODE	MA2

BPM	0	0	183.000
MET	0	0	4	4

NMHLD	1	0	3	576
NMHLD	1	336	4	240
EXTAP	2	288	2
EXTAP	2	288	5
NMTAP	3	0	1
NMTAP	3	96	1
NMTAP	3	96	3
NMTAP	3	192	6
NMTAP	3	288	4
NMTAP	3	288	6
NMTTP	4	0	6	E	0	M1
NMTTP	4	96	0	C	0	M1
NMTTP	4	192	2	E	0	M1
BXTAP	4	288	0
NMTAP	5	0	1
NMTAP	5	96	2
NMTAP	5	96	3
NMTAP	5	192	5
NMTAP	5	240	5
NMTAP	5	288	4
NMTAP	6	0	6
NMTAP	6	96	4
NMTAP	6	96	5
NMTAP	6	192	2
NMTAP	6	240	2
NMTAP	6	288	3
NMTAP	7	0	1
NMTAP	7	96	0
NMTAP	7	96	1
NMTAP	7	192	7
NMTAP	7	240	7
NMTAP	7	288	0
NMTAP	8	0	0
NMTAP	8	0	6
NMTAP	8	96	1
NMTAP	8	96	5
BRTAP	8	192	2
BRTAP	8	192	4
NMHLD	9	0	2	96
NMHLD	9	0	3	96
NMHLD	9	192	2	96
NMHLD	9	192	3	96
NMTAP	9	336	2
NMTAP	9	336	3
NMTAP	10	48	1
NMTAP	10	48	3
NMSTR	10	96	1
NMSCR	10	96	1	96	96	4
NMTAP	10	96	3
NMHLD	11	0	4	96
NMHLD	11	0	5	96
NMHLD	11	192	4	96
NMHLD	11	192	5	96
NMTAP	11	336	4
NMTAP	11	336	5
NMTAP	12	48	4
NMTAP	12	48	6
NMTAP	12	96	4
NMSTR	12	96	6
NMSCL	12	96	6	96	96	3
NMHLD	13	0	1	288
NMTAP	13	96	3
NMTAP	13	192	4
NMTAP	13	288	5
NMHLD	13	336	5	240
NMTAP	14	48	4
NMTAP	14	96	4
NMTAP	14	192	3
NMTAP	14	288	3
NMTAP	14	288	5
NMTAP	15	0	2
NMTAP	15	96	2
NMTAP	15	96	3
NMTAP	15	192	5
NMTAP	15	288	4
NMTAP	15	288	5
NMTAP	15	336	4
NMTAP	15	336	5
NMTAP	16	48	3
NMTAP	16	48	4
NMTAP	16	96	3
NMTAP	16	96	4
BRTAP	16	192	1
BRTAP	16	192	6
NMTAP	17	0	1
NMTAP	17	48	1
NMTAP	17	96	1
NMTAP	17	96	7
NMTAP	17	192	6
NMTAP	17	240	6
NMTAP	17	288	0
NMTAP	17	288	6
NMTAP	18	0	1
NMTAP	18	48	1
NMTAP	18	96	0
NMTAP	18	96	1
NMTAP	18	192	6
NMTAP	18	240	6
NMTAP	18	288	6
NMTAP	18	288	7
NMTAP	19	0	5
NMTAP	19	48	5
NMTAP	19	96	4
NMTAP	19	96	6
NMTAP	19	192	2
NMTAP	19	240	2
NMSTR	19	288	1
NMSI_	19	288	1	96	96	3
NMTAP	19	288	3
CNSV_	20	96	3	0	96	4
CNSI_	20	192	4	0	96	6
NMTAP	21	0	7
NMTAP	21	48	7
NMTAP	21	96	0
NMTAP	21	96	6
NMTAP	21	192	0
NMTAP	21	240	0
NMTAP	21	288	1
NMTAP	21	288	7
NMTAP	22	0	6
NMTAP	22	48	6
NMTAP	22	96	5
NMTAP	22	96	7
NMTAP	22	192	0
NMTAP	22	240	0
NMTAP	22	288	1
NMTAP	22	288	7
NMHLD	23	0	1	96
NMHLD	23	96	2	96
NMHLD	23	192	3	96
NMSTR	23	288	4
NMSI_	23	288	4	96	96	0
NMTAP	24	192	1
NMTAP	24	192	7
NMHLD	25	0	1	384
NMTTP	25	192	2	B	0	M1
NMTAP	26	0	4
NMHLD	26	96	4	288
NMTTP	26	192	4	E	0	M1
NMHLD	27	0	2	384
NMTTP	27	192	3	E	0	M1
NMTAP	28	0	5
NMHLD	28	96	5	288
NMTTP	28	192	5	E	0	M1
NMHLD	29	0	3	384
NMTTP	29	192	4	E	0	M1
NMTAP	30	0	6
NMHLD	30	96	6	288
NMTTP	30	192	5	B	0	M1
NMTHO	31	0	0	336	C	0	M1
BRTAP	32	288	0
NMSTR	33	0	0
NMSI_	33	0	0	96	48	4
NMSTR	33	0	1
NMSI_	33	0	1	96	48	4
NMSTR	33	192	6
NMSI_	33	192	6	96	48	3
NMSTR	33	192	7
NMSI_	33	192	7	96	48	3
NMSTR	34	0	0
NMSI_	34	0	0	96	48	4
NMSTR	34	0	1
NMSI_	34	0	1	96	48	4
NMTAP	34	192	6
NMTAP	34	192	7
NMTAP	34	288	6
NMTAP	34	288	7
NMTAP	35	0	4
NMTAP	35	0	5
NMTAP	35	96	6
NMTAP	35	96	7
NMTAP	35	192	0
NMTAP	35	192	1
NMTAP	35	288	2
NMTAP	35	288	3
NMTAP	36	0	3
NMTAP	36	0	4
NMSTR	36	96	3
NMSI_	36	96	3	96	48	6
NMSTR	36	96	4
NMSI_	36	96	4	96	48	1
NMSTR	37	0	6
NMSI_	37	0	6	96	48	3
NMSTR	37	0	7
NMSI_	37	0	7	96	48	3
NMSTR	37	192	0
NMSI_	37	192	0	96	48	4
NMSTR	37	192	1
NMSI_	37	192	1	96	48	4
NMSTR	38	0	6
NMSI_	38	0	6	96	48	3
NMSTR	38	0	7
NMSI_	38	0	7	96	48	3
NMTAP	38	192	2
NMTAP	38	192	3
NMTAP	38	288	0
NMTAP	38	288	1
NMTAP	39	0	1
NMTAP	39	48	0
NMTAP	39	96	1
NMTAP	39	96	7
NMTAP	39	192	6
NMTAP	39	240	7
NMTAP	39	288	0
NMTAP	39	288	6
NMTTP	40	0	5	A	0	M1
NMTTP	40	0	6	E	0	M1
NMTTP	40	96	2	E	0	M1
NMTTP	40	96	2	A	0	M1
NMTTP	40	192	3	B	0	M1
NMTTP	40	192	4	B	0	M1
BRTAP	40	288	0
BRTAP	40	288	7
NMTAP	41	0	1
NMTAP	41	0	7
NMTAP	41	96	4
NMTAP	41	96	5
NMTAP	41	192	0
NMTAP	41	192	6
NMTAP	41	288	2
NMTAP	41	288	3
NMTAP	42	0	4
NMTAP	42	0	5
NMTAP	42	96	6
NMTAP	42	96	7
NMTAP	42	192	0
NMTAP	42	192	1
NMSTR	42	288	1
NMSV_	42	288	1	96	48	4
NMSTR	42	288	7
NMSV_	42	288	7	96	48	4
NMSTR	43	96	0
NMSV_	43	96	0	96	48	3
NMSTR	43	96	6
NMSV_	43	96	6	96	48	3
NMSTR	43	288	2
NMSLL	43	288	2	96	192	3
NMSTR	43	288	4
NMSLR	43	288	4	96	192	3
EXTAP	44	288	2
EXTAP	44	288	4
NMTAP	45	0	3
NMTAP	45	0	5
NMTAP	45	96	0
NMTAP	45	96	1
NMTAP	45	192	2
NMTAP	45	192	4
NMTAP	45	288	6
NMTAP	45	288	7
NMTAP	46	0	4
NMTAP	46	0	5
NMTAP	46	96	2
NMTAP	46	96	3
NMTAP	46	192	0
NMTAP	46	192	1
NMSTR	46	288	1
NMSI_	46	288	1	96	48	4
NMSTR	46	288	7
NMSI_	46	288	7	96	48	4
NMSTR	47	96	0
NMSI_	47	96	0	96	48	3
NMSTR	47	96	6
NMSI_	47	96	6	96	48	3
NMSTR	47	288	4
BRSXL	47	288	4	96	192	4
BRSXR	47	288	4	96	192	4
EXTAP	48	288	3
EXTAP	48	288	5
BXHLD	49	0	3	576
BXSTR	49	0	5
NMSCR	49	0	5	96	144	7
CNSV_	49	240	7	0	192	0
CNSCR	50	48	0	0	144	2
NMSTR	51	0	1
NMSCR	51	0	1	96	120	3
NMHLD	51	0	4	576
CNSUL	51	216	3	0	240	5
CNSCR	52	72	5	0	120	7
BRHLD	53	0	0	576
BRSTR	53	0	6
NMSI_	53	0	6	96	96	4
CNSUL	53	192	4	0	288	3
CNSCL	54	96	3	0	96	1
NMSTR	55	0	2
NMSUL	55	0	2	96	168	6
NMHLD	55	0	7	576
CNSI_	55	264	6	0	120	4
CNSCL	56	0	4	0	48	3
CNSV_	56	48	3	0	144	1
BRTAP	57	0	2
BRHLD	57	0	6	768
NMTAP	57	288	4
NMTAP	58	0	4
NMTAP	58	96	5
NMTAP	58	192	7
NMTAP	58	288	0
NMHLD	59	0	1	768
NMTAP	59	288	3
NMTAP	60	0	3
NMTAP	60	96	2
NMTAP	60	192	0
NMTAP	60	288	7
BRHLD	61	0	7	768
NMTAP	61	288	4
NMTAP	62	0	3
NMTAP	62	96	2
NMTAP	62	192	1
NMTAP	62	288	0
NMHLD	63	0	0	672
NMTAP	63	288	3
NMTAP	64	0	4
NMTAP	64	96	5
NMTAP	64	192	6
NMSTR	64	288	7
NMSF_	64	288	7	96	192	3
BRTAP	65	288	1
BRTAP	65	288	5
NMTAP	66	0	1
NMTAP	66	48	1
NMTAP	66	96	0
NMTAP	66	96	1
NMTAP	66	192	6
NMTAP	66	240	6
NMTAP	66	288	6
NMTAP	66	288	7
NMTAP	67	0	5
NMTAP	67	48	5
NMTAP	67	96	4
NMTAP	67	96	5
NMTAP	67	192	2
NMTAP	67	240	2
NMTAP	67	288	2
NMTAP	67	288	3
NMTAP	68	0	1
NMTAP	68	48	1
NMTAP	68	96	4
NMTAP	68	144	4
NMTAP	68	192	3
NMTAP	68	240	3
NMTAP	68	288	6
NMTAP	69	0	4
NMTAP	69	0	6
NMTAP	69	96	4
NMTAP	69	96	5
NMTAP	69	192	2
NMTAP	69	192	3
NMTAP	69	288	1
NMTAP	69	288	3
NMTAP	70	0	2
NMTAP	70	0	3
NMTAP	70	48	1
NMTAP	70	96	1
NMTAP	70	192	4
NMTAP	70	192	5
NMTAP	70	240	6
NMTAP	70	288	6
NMTAP	71	0	0
NMTAP	71	0	1
NMTAP	71	48	2
NMTAP	71	96	2
NMTAP	71	192	6
NMTAP	71	192	7
NMTAP	71	240	5
NMTAP	71	288	5
NMTAP	72	0	1
NMTAP	72	48	1
NMTAP	72	96	3
NMTAP	72	144	3
NMTAP	72	192	2
NMTAP	72	240	2
NMTAP	72	288	5
NMTAP	72	336	5
NMTAP	73	0	4
NMTAP	73	48	4
NMTAP	73	96	6
NMTAP	73	144	6
NMTAP	73	192	0
NMTAP	73	240	0
NMTAP	73	288	7
BRSTR	74	0	0
NMSCR	74	0	0	96	360	7
BRTAP	74	0	7
CNSSR	75	72	7	0	216	3
EXHLD	76	0	6	384
NMTTP	76	192	5	B	0	M1
NMTAP	77	0	3
NMHLD	77	96	3	288
NMTTP	77	192	4	E	0	M1
NMHLD	78	0	5	384
NMTTP	78	192	5	E	0	M1
NMTAP	79	0	2
NMHLD	79	96	2	288
NMTTP	79	192	3	E	0	M1
NMHLD	80	0	4	384
NMTTP	80	192	4	E	0	M1
NMTAP	81	0	1
NMHLD	81	96	1	288
NMTTP	81	192	2	B	0	M1
NMTHO	82	0	0	336	C	0	M1
BRTAP	83	288	7
EXHLD	84	0	0	96
EXHLD	84	0	6	96
EXHLD	84	192	1	96
EXHLD	84	192	5	96
EXHLD	84	336	2	192
EXHLD	84	336	4	192
EXHLD	85	192	3	96
EXHLD	85	192	5	96
EXHLD	86	0	1	96
EXHLD	86	0	3	96
EXHLD	86	192	4	96
EXHLD	86	192	6	96
NMTAP	87	0	3
NMTAP	87	0	4
NMSTR	87	96	3
NMSI_	87	96	3	96	48	6
NMSTR	87	96	4
NMSI_	87	96	4	96	48	1
NMSTR	88	0	6
NMSI_	88	0	6	96	48	3
NMSTR	88	0	7
NMSI_	88	0	7	96	48	2
NMSTR	88	192	0
NMSI_	88	192	0	96	48	5
NMSTR	88	192	1
NMSI_	88	192	1	96	48	4
NMSTR	89	0	6
NMSI_	89	0	6	96	48	3
NMSTR	89	0	7
NMSI_	89	0	7	96	48	2
NMTAP	89	192	4
NMTAP	89	192	5
NMTAP	89	288	6
NMTAP	89	288	7
NMTAP	90	0	6
NMTAP	90	48	7
NMTAP	90	96	0
NMTAP	90	96	5
NMTAP	90	192	1
NMTAP	90	240	0
NMTAP	90	288	2
NMTAP	90	288	7
NMTTP	91	0	1	A	0	M1
NMTTP	91	0	2	E	0	M1
NMTTP	91	0	2	D	0	M1
NMTTP	91	96	6	E	0	M1
NMTTP	91	96	6	A	0	M1
NMTTP	91	96	6	D	0	M1
NMTTP	91	192	3	B	0	M1
NMTTP	91	192	4	B	0	M1
NMTTP	91	192	4	E	0	M1
BRTAP	91	288	0
BRTAP	91	288	7
NMTAP	92	0	0
NMTAP	92	0	6
NMTAP	92	96	2
NMTAP	92	96	3
NMTAP	92	192	1
NMTAP	92	192	7
NMTAP	92	288	4
NMTAP	92	288	5
NMTAP	93	0	2
NMTAP	93	0	3
NMTAP	93	96	0
NMTAP	93	96	1
NMTAP	93	192	6
NMTAP	93	192	7
NMSTR	93	288	0
NMSV_	93	288	0	96	48	3
NMSTR	93	288	6
NMSV_	93	288	6	96	48	3
NMSTR	94	96	1
NMSV_	94	96	1	96	48	4
NMSTR	94	96	7
NMSV_	94	96	7	96	48	4
NMSTR	94	288	3
NMSLL	94	288	3	96	192	4
NMSTR	94	288	5
NMSLR	94	288	5	96	192	4
NMTAP	95	288	3
NMTAP	95	288	5
NMTAP	96	0	2
NMTAP	96	0	4
NMTAP	96	96	6
NMTAP	96	96	7
NMTAP	96	192	3
NMTAP	96	192	5
NMTAP	96	288	0
NMTAP	96	288	1
NMTAP	97	0	2
NMTAP	97	0	3
NMTAP	97	96	4
NMTAP	97	96	5
NMTAP	97	192	6
NMTAP	97	192	7
NMSTR	97	288	0
NMSI_	97	288	0	96	48	3
NMSTR	97	288	6
NMSI_	97	288	6	96	48	3
NMSTR	98	96	1
NMSI_	98	96	1	96	48	4
NMSTR	98	96	7
NMSI_	98	96	7	96	48	4
NMSTR	98	288	3
NMSXL	98	288	3	96	192	3
NMSXR	98	288	3	96	192	3
BRSTR	99	288	0
NMSV_	99	288	0	96	48	3
BRSTR	99	288	6
NMSV_	99	288	6	96	48	3
BRSTR	100	96	1
NMSV_	100	96	1	96	48	4
BRSTR	100	96	7
NMSV_	100	96	7	96	48	4
BRSTR	100	288	2
BRSXR	100	288	2	96	192	4
BRSTR	100	288	5
BRSXL	100	288	5	96	192	3
EXTAP	101	288	3
EXTAP	101	288	4
NMTAP	102	0	2
NMTAP	102	96	0
NMTAP	102	96	1
NMTAP	102	192	6
NMTAP	102	240	6
NMTAP	102	288	6
NMTAP	102	288	7
NMTAP	103	0	5
NMTAP	103	96	6
NMTAP	103	96	7
NMTAP	103	192	1
NMTAP	103	240	1
NMTAP	103	288	0
NMTAP	103	288	1
NMTAP	104	0	2
NMTAP	104	96	2
NMTAP	104	96	3
NMTAP	104	192	5
NMTAP	104	240	5
NMTAP	104	288	4
NMTAP	105	0	2
NMTAP	105	0	3
NMTAP	105	96	1
NMTAP	105	96	4
NMTAP	105	192	0
NMTAP	105	192	5
NMTAP	105	288	6
NMTAP	105	288	7
NMTAP	106	0	5
NMTAP	106	96	6
NMTAP	106	96	7
NMTAP	106	192	1
NMTAP	106	240	1
NMTAP	106	288	0
NMTAP	106	288	1
NMTAP	107	0	2
NMTAP	107	96	0
NMTAP	107	96	1
NMTAP	107	192	6
NMTAP	107	240	6
NMTAP	107	288	6
NMTAP	107	288	7
NMTAP	108	0	5
NMTAP	108	96	4
NMTAP	108	96	5
NMTAP	108	192	2
NMTAP	108	240	2
NMTAP	108	288	3
NMTAP	109	0	4
NMTAP	109	0	5
NMTAP	109	96	3
NMTAP	109	96	6
NMTAP	109	192	2
NMTAP	109	192	7
NMTAP	109	288	0
NMTAP	109	288	1
NMSTR	110	0	0
NMSCL	110	0	0	96	192	4
NMTAP	110	0	1
NMTAP	110	192	3
NMSTR	110	288	3
BRSI_	110	288	3	96	48	0

T_REC_TAP	342
T_REC_BRK	14
T_REC_XTP	8
T_REC_BXX	1
T_REC_HLD	30
T_REC_XHO	13
T_REC_BHO	3
T_REC_BXH	1
T_REC_STR	53
T_REC_BST	8
T_REC_XST	0
T_REC_XBS	1
T_REC_TTP	30
T_REC_THO	2
T_REC_SLD	59
T_REC_BSL	5
T_REC_ALL	570
T_NUM_TAP	433
T_NUM_BRK	33
T_NUM_HLD	45
T_NUM_SLD	59
T_NUM_ALL	570
T_JUDGE_TAP	457
T_JUDGE_HLD	286
T_JUDGE_SLD	64
T_JUDGE_ALL	807
TTM_EACHPAIRS	155
TTM_SCR_TAP	216500
TTM_SCR_BRK	85800
TTM_SCR_HLD	45000
TTM_SCR_SLD	88500
TTM_SCR_ALL	435800
TTM_SCR_S	419550
TTM_SCR_SS	432500
TTM_RAT_ACV	10076

