VERSION	0.00.00	1.04.00
FES_MODE	0
BPM_DEF	155.000	155.000	155.000	155.000
MET_DEF	4	4
RESOLUTION	384
CLK_DEF	384
COMPATIBLE_CODE	MA2

BPM	0	0	155.000
MET	0	0	4	4

NMTAP	1	288	4
NMTAP	1	288	5
NMTTP	2	0	2	B	0	M1
NMTTP	2	0	3	B	0	M1
NMTTP	2	0	3	E	1	M1
BRSTR	2	0	7
BRSCL	2	0	7	96	192	0
BRSTR	3	0	0
BRSCR	3	0	0	96	192	7
NMTTP	3	0	4	B	0	M1
NMTTP	3	0	5	B	0	M1
NMTTP	3	0	5	E	1	M1
NMSTR	4	0	1
NMSXL	4	0	1	96	192	7
BRHLD	4	0	3	288
BRHLD	5	0	0	96
BRHLD	5	0	6	96
NMTAP	5	192	2
NMTAP	5	192	3
NMTAP	5	256	4
NMTAP	5	256	5
NMTAP	5	288	4
NMTAP	5	288	5
BRSTR	6	0	3
BRSCL	6	0	3	96	192	4
NMTTP	6	0	6	B	0	M1
NMTTP	6	0	7	B	0	M1
NMTTP	6	0	7	E	1	M1
NMTTP	7	0	0	B	0	M1
NMTTP	7	0	1	B	0	M1
NMTTP	7	0	1	E	1	M1
BRSTR	7	0	4
BRSCR	7	0	4	96	192	3
BRHLD	8	0	4	288
NMSTR	8	0	5
NMSXL	8	0	5	96	192	0
BRHLD	9	0	1	96
BRHLD	9	0	7	96
NMTAP	9	192	0
NMTAP	9	192	6
NMTAP	9	256	2
NMTAP	9	288	2
NMTAP	9	288	3
NMTAP	9	352	5
NMTAP	10	0	4
NMTAP	10	0	5
NMTAP	10	96	3
NMTAP	10	96	7
NMTAP	10	192	2
NMTAP	10	192	6
NMTAP	10	288	1
NMTAP	10	288	5
NMTAP	11	0	0
NMTAP	11	0	4
NMTAP	11	64	1
NMTAP	11	64	3
NMTAP	11	96	1
NMTAP	11	96	3
NMTAP	11	192	3
NMTAP	11	192	4
NMTAP	11	256	5
NMTAP	11	288	4
NMTAP	11	288	5
NMTAP	11	352	2
NMTAP	12	0	2
NMTAP	12	0	3
NMTAP	12	96	0
NMTAP	12	96	4
NMTAP	12	192	1
NMTAP	12	192	5
NMTAP	12	288	2
NMTAP	12	288	6
NMTAP	13	0	3
NMTAP	13	0	7
NMTAP	13	64	4
NMTAP	13	64	5
NMTAP	13	96	4
NMTAP	13	96	5
NMTAP	13	192	2
NMTAP	13	192	6
NMTAP	13	256	3
NMTAP	13	256	5
NMTAP	13	288	3
NMTAP	13	288	5
NMTAP	14	0	2
NMTAP	14	32	2
NMTAP	14	64	3
NMTAP	14	96	1
NMTAP	14	192	5
NMTAP	14	224	5
NMTAP	14	256	4
NMTAP	14	288	6
NMTAP	15	0	2
NMTAP	15	32	2
NMTAP	15	64	3
NMTAP	15	96	1
NMTAP	15	96	4
NMTAP	15	192	5
NMTAP	15	224	5
NMTAP	15	256	4
NMTAP	15	288	3
NMTAP	15	288	6
NMTAP	16	0	1
NMTAP	16	32	1
NMTAP	16	64	3
NMTAP	16	96	2
NMTAP	16	128	2
NMTAP	16	160	4
NMTAP	16	192	3
NMTAP	16	224	3
NMTAP	16	256	5
NMTAP	16	288	4
NMTAP	16	320	4
NMTAP	16	352	6
NMSTR	17	0	3
NMSCL	17	0	3	96	96	7
NMSTR	17	96	7
NMSCL	17	96	7	96	96	3
NMSTR	17	192	3
NMSCL	17	192	3	96	96	7
NMTAP	17	288	7
NMTTP	18	0	0	C	1	M1
NMTAP	19	0	2
NMTAP	19	32	3
NMTAP	19	64	2
NMTAP	19	96	5
NMTAP	19	128	4
NMTAP	19	160	5
NMTAP	19	192	3
NMTAP	19	224	4
NMTAP	19	256	3
NMTAP	19	288	2
NMTAP	19	288	5
NMSTR	20	0	1
NMSI_	20	0	1	96	48	5
NMTAP	20	0	7
NMTAP	20	64	0
NMTAP	20	96	0
NMTAP	20	96	1
NMTAP	20	192	3
NMTAP	20	192	7
NMTAP	20	256	2
NMTAP	20	288	1
NMTAP	20	288	3
NMTAP	20	352	6
NMTAP	21	0	5
NMSTR	21	0	7
NMSCR	21	0	7	96	48	2
NMSTR	21	96	6
NMSI_	21	96	6	96	48	2
NMTAP	21	96	7
NMSTR	21	192	5
NMSCL	21	192	5	96	48	2
NMTAP	21	192	6
NMTAP	21	288	5
NMTAP	21	288	7
NMTAP	22	0	0
NMSTR	22	0	6
NMSI_	22	0	6	96	48	2
NMTAP	22	64	7
NMTAP	22	96	6
NMTAP	22	96	7
NMTAP	22	192	0
NMTAP	22	192	4
NMTAP	22	256	5
NMTAP	22	288	4
NMTAP	22	288	6
NMTAP	22	352	1
NMSTR	23	0	0
NMSCL	23	0	0	96	48	5
NMTAP	23	0	2
NMTAP	23	96	0
NMSTR	23	96	1
NMSI_	23	96	1	96	48	5
NMTAP	23	192	1
NMSTR	23	192	2
NMSCR	23	192	2	96	48	5
NMTAP	23	288	0
NMTAP	23	288	2
NMTAP	24	0	1
NMSTR	24	0	7
NMSI_	24	0	7	96	48	3
NMTAP	24	64	0
NMTAP	24	96	0
NMTAP	24	96	7
NMTAP	24	192	1
NMTAP	24	192	5
NMTAP	24	256	0
NMTAP	24	288	1
NMTAP	24	288	7
NMTAP	24	352	4
NMTAP	25	0	3
NMSTR	25	0	5
NMSCR	25	0	5	96	48	0
NMSTR	25	96	4
NMSI_	25	96	4	96	48	0
NMTAP	25	96	5
NMSTR	25	192	3
NMSI_	25	192	3	96	48	7
NMTAP	25	192	4
NMTAP	25	288	1
NMTAP	25	288	3
NMSTR	26	0	0
NMSI_	26	0	0	96	48	4
NMTAP	26	0	6
NMTAP	26	64	7
NMTAP	26	96	0
NMTAP	26	96	7
EXTAP	26	192	2
EXTAP	26	224	1
EXTAP	26	256	0
NMSTR	26	288	6
NMSCL	26	288	6	96	48	3
EXTAP	26	288	7
NMSTR	27	0	2
NMSCL	27	0	2	96	48	7
NMHLD	27	96	5	96
NMTAP	27	192	0
BRSTR	27	288	1
NMSI_	27	288	1	96	48	3
BRTAP	27	288	7
NMSTR	28	0	1
NMSI_	28	0	1	96	48	7
NMTAP	28	64	6
NMSTR	28	96	1
NMSI_	28	96	1	96	48	3
NMTAP	28	160	5
NMSTR	28	192	1
NMSI_	28	192	1	96	48	7
NMTAP	28	256	4
NMTAP	28	288	1
NMTAP	28	352	5
NMTAP	29	0	1
NMTAP	29	32	3
NMTAP	29	64	2
NMTAP	29	96	6
NMTAP	29	128	4
NMTAP	29	160	5
NMTAP	29	192	0
NMTAP	29	224	3
NMTAP	29	256	2
BRSTR	29	288	6
NMSI_	29	288	6	96	48	4
NMSTR	30	0	6
NMSI_	30	0	6	96	48	0
NMTAP	30	64	1
NMSTR	30	96	6
NMSI_	30	96	6	96	48	4
NMTAP	30	160	2
NMSTR	30	192	6
NMSI_	30	192	6	96	48	0
NMTAP	30	256	3
NMTAP	30	288	6
NMTAP	30	352	2
NMTAP	31	0	6
NMTAP	31	32	4
NMTAP	31	64	5
NMTAP	31	96	0
NMTAP	31	128	3
NMTAP	31	160	2
NMTAP	31	192	7
NMTAP	31	224	3
NMTAP	31	256	5
BRSTR	31	288	0
NMSI_	31	288	0	96	48	2
NMSTR	32	0	0
NMSI_	32	0	0	96	48	6
NMTAP	32	64	5
NMSTR	32	96	0
NMSI_	32	96	0	96	48	2
NMTAP	32	160	4
NMSTR	32	192	0
NMSI_	32	192	0	96	48	6
NMTAP	32	256	3
NMTAP	32	288	0
NMTAP	32	352	4
NMTAP	33	0	7
NMTAP	33	32	5
NMTAP	33	64	3
NMTAP	33	96	0
NMTAP	33	128	2
NMTAP	33	160	4
NMSTR	33	192	7
NMSI_	33	192	7	96	48	3
NMTAP	33	224	5
NMTAP	33	256	3
NMTAP	33	288	7
NMTAP	34	0	2
NMTAP	34	0	4
NMTAP	34	32	2
NMTAP	34	32	4
NMTAP	34	64	1
NMTAP	34	64	5
NMTAP	34	96	1
NMTAP	34	96	5
NMTAP	34	160	6
NMTAP	34	160	7
NMTAP	34	192	6
NMTAP	34	192	7
NMTAP	34	256	0
NMTAP	34	256	1
NMSTR	34	288	0
NMSCL	34	288	0	96	96	5
NMTAP	34	288	1
NMTAP	34	352	5
NMSTR	35	0	5
BRSCL	35	0	5	96	96	2
NMSTR	35	96	2
NMSCL	35	96	2	96	96	7
NMSTR	35	192	7
BRSCL	35	192	7	96	96	4
NMTAP	35	288	4
NMTAP	36	0	0
NMHLD	38	0	1	384
NMHLD	39	0	3	384
NMHLD	40	0	4	384
NMHLD	41	0	6	192
NMTTP	41	192	0	C	0	M1
NMHLD	42	0	6	384
NMTTP	42	192	5	B	0	M1
NMHLD	43	0	4	384
NMTTP	43	192	4	E	0	M1
NMHLD	44	0	3	384
NMTTP	44	192	2	B	0	M1
NMHLD	45	0	1	192
NMTTP	45	192	4	E	0	M1
NMSTR	46	0	2
NMSLR	46	0	2	96	192	7
NMHLD	46	0	6	288
NMHLD	47	0	0	288
NMSTR	47	0	6
NMSLR	47	0	6	96	192	3
NMSTR	48	0	2
NMSI_	48	0	2	96	96	5
NMHLD	48	0	4	288
CNSI_	48	192	5	0	96	7
NMSTR	49	0	1
NMSI_	49	0	1	96	96	5
NMHLD	49	0	3	192
CNSCR	49	192	5	0	96	0
NMHLD	50	0	2	288
NMSTR	50	0	4
NMSLL	50	0	4	96	192	7
NMHLD	51	0	3	288
NMSTR	51	0	6
NMSI_	51	0	6	96	96	1
CNSI_	51	192	1	0	96	4
NMSTR	52	0	3
NMSCR	52	0	3	96	192	2
NMHLD	52	0	5	288
NMHLD	53	0	1	288
NMSTR	53	0	7
NMSI_	53	0	7	96	64	5
CNSV_	53	160	5	0	128	3
NMTAP	54	0	1
NMTAP	54	0	4
NMHLD	54	96	2	192
NMTAP	54	96	3
NMTAP	54	256	4
NMTAP	54	288	4
NMTAP	55	0	3
NMTAP	55	0	6
NMTAP	55	96	4
NMHLD	55	96	5	192
NMTAP	55	256	3
NMTAP	55	288	3
NMTAP	56	0	0
NMTAP	56	0	4
NMHLD	56	96	1	192
NMTAP	56	96	3
NMTAP	56	256	2
NMTAP	56	288	2
NMTAP	57	0	3
NMTAP	57	0	7
NMTAP	57	96	4
NMHLD	57	96	6	192
NMTAP	57	256	5
NMTAP	57	288	5
NMTAP	58	0	1
NMTAP	58	0	4
NMTAP	58	96	2
NMHLD	58	96	3	192
NMTAP	58	256	4
NMTAP	58	288	4
NMTAP	59	0	3
NMTAP	59	0	6
NMHLD	59	96	4	192
NMTAP	59	96	5
NMTAP	59	256	3
NMTAP	59	288	3
NMTAP	60	0	0
NMTAP	60	0	4
NMTAP	60	96	1
NMHLD	60	96	3	192
NMTAP	60	256	5
NMTAP	60	288	5
NMTAP	61	0	1
NMTAP	61	0	3
NMTAP	61	96	4
NMTAP	61	96	6
NMTAP	61	192	3
NMTAP	61	224	3
NMTAP	61	256	4
NMTAP	61	288	4
EXHLD	62	0	2	384
EXHLD	62	0	5	480
NMTAP	63	160	4
NMTAP	63	160	6
NMTAP	63	192	4
NMTAP	63	192	6
NMTAP	63	256	2
NMTAP	63	256	4
NMTAP	63	288	2
NMTAP	63	288	4
NMTAP	63	352	0
NMTAP	63	352	1
BXSTR	64	0	0
BRSCL	64	0	0	96	192	2
BRTAP	64	0	1
NMTAP	64	96	2
NMTAP	64	192	1
NMTAP	64	288	0
BRSTR	65	0	7
BRSUR	65	0	7	96	96	4
NMTAP	65	96	5
NMTAP	65	192	6
NMTAP	65	256	6
NMTAP	65	288	4
NMTAP	65	352	4
NMTAP	66	0	7
NMTAP	66	32	7
NMTAP	66	64	3
NMSTR	66	96	3
NMSXR	66	96	3	96	96	4
NMHLD	66	192	6	96
NMTAP	67	0	7
NMTAP	67	32	7
NMTAP	67	64	4
NMSTR	67	96	4
NMSLL	67	96	4	96	96	0
NMTAP	67	192	6
NMTAP	67	256	5
NMTAP	67	288	5
NMTAP	67	352	4
NMTAP	67	352	7
BRTAP	68	0	4
BXSTR	68	0	7
BRSCR	68	0	7	96	192	5
NMTAP	68	96	5
NMTAP	68	192	6
NMTAP	68	288	7
BRSTR	69	0	0
BRSUL	69	0	0	96	96	3
NMTAP	69	96	2
NMTAP	69	192	1
NMTAP	69	256	1
NMTAP	69	288	3
NMTAP	69	352	3
NMTAP	70	0	7
NMTAP	70	32	7
NMTAP	70	64	5
NMSTR	70	96	5
NMSXR	70	96	5	96	96	6
NMHLD	70	192	1	96
NMTAP	71	0	6
NMTAP	71	32	6
NMTAP	71	64	4
NMSTR	71	96	4
NMSCL	71	96	4	96	96	0
NMTAP	71	192	7
NMTAP	71	256	5
NMTAP	71	288	5
NMTAP	71	352	4
NMTAP	72	0	0
NMTAP	72	0	4
NMTAP	72	96	5
NMTAP	72	96	7
NMTAP	72	192	4
NMTAP	72	192	6
NMTAP	72	288	3
NMTAP	72	288	5
NMTAP	73	0	2
NMTAP	73	0	4
NMTAP	73	96	1
NMTAP	73	96	3
NMHLD	73	192	0	96
NMTAP	73	192	2
NMTTP	73	256	3	B	0	M1
NMTTP	73	272	4	B	0	M1
NMTTP	73	288	5	E	0	M1
NMTAP	74	0	6
NMTAP	74	0	7
NMTAP	74	96	5
NMTAP	74	96	6
NMTAP	74	192	4
NMTAP	74	192	5
NMTAP	74	288	3
NMTAP	74	288	4
NMTAP	75	0	2
NMTAP	75	0	3
NMTAP	75	96	1
NMTAP	75	96	2
NMHLD	75	192	0	96
NMTAP	75	192	1
NMTTP	75	256	2	D	0	M1
NMTTP	75	272	2	A	0	M1
NMTTP	75	288	3	D	0	M1
EXTAP	76	0	4
EXHLD	76	0	6	96
NMTAP	76	32	4
NMTAP	76	64	4
NMTAP	76	96	4
NMHLD	76	192	1	96
NMTAP	76	192	3
NMTAP	76	224	3
NMTAP	76	256	3
NMTAP	76	288	3
NMHLD	77	0	6	96
NMTAP	77	0	7
NMTAP	77	32	7
NMTAP	77	64	7
NMTAP	77	96	7
NMTAP	77	192	0
NMHLD	77	192	1	96
NMTAP	77	224	0
NMTAP	77	256	0
NMTAP	77	288	0
NMTAP	78	0	7
NMTAP	78	32	7
NMTAP	78	64	4
NMTAP	78	96	6
NMTAP	78	128	6
NMTAP	78	160	3
NMTAP	78	192	5
NMTAP	78	224	5
NMTAP	78	256	2
NMTAP	78	288	4
NMTAP	78	320	4
NMTAP	78	352	1
NMTAP	79	0	4
NMTAP	79	16	5
NMTAP	79	32	6
NMTAP	79	48	7
NMTAP	79	64	0
NMTAP	79	80	1
NMTAP	79	96	2
NMTAP	79	112	3
NMTAP	79	128	4
NMTAP	79	144	5
NMTAP	79	160	6
NMTAP	79	176	7
NMTAP	79	192	0
NMTAP	79	208	1
NMTAP	79	224	2
NMTAP	79	240	3
NMTAP	79	256	4
NMTAP	79	272	5
NMTAP	79	288	6
NMTAP	79	304	7
NMTAP	79	320	0
NMTAP	79	336	1
NMTAP	79	352	2
NMTAP	79	368	3
NMHLD	80	0	0	288
NMHLD	80	0	4	288
NMTAP	81	0	2
NMTAP	81	32	3
NMTAP	81	64	1
NMTAP	81	96	5
NMTAP	81	128	4
NMTAP	81	160	6
NMTAP	81	192	0
NMTAP	81	224	7
NMTAP	81	256	0
NMSTR	81	288	1
NMSI_	81	288	1	96	48	5
NMTAP	81	288	6
BRTAP	82	0	1
BRSTR	82	0	7
NMSLL	82	0	7	96	48	3
NMSTR	82	96	1
NMSUL	82	96	1	96	48	5
NMTAP	82	96	7
NMTAP	82	192	1
NMSTR	82	192	3
NMSI_	82	192	3	96	48	7
NMSTR	82	288	1
NMSLR	82	288	1	96	48	5
NMTAP	82	288	3
NMTAP	83	0	1
NMSTR	83	0	7
NMSI_	83	0	7	96	48	3
NMSTR	83	96	5
NMSI_	83	96	5	96	48	1
NMTAP	83	96	7
NMTAP	83	192	5
NMSTR	83	192	7
NMSF_	83	192	7	96	48	3
NMTAP	83	288	7
BXTAP	84	0	0
BXTAP	84	0	1
NMTAP	84	32	0
NMTAP	84	32	1
NMTAP	84	64	2
NMTAP	84	64	7
NMSTR	84	96	2
NMSI_	84	96	2	96	48	0
NMSTR	84	96	7
NMSI_	84	96	7	96	48	3
NMTAP	84	192	2
NMTAP	84	192	7
NMTAP	84	288	1
NMTAP	84	288	5
BXTAP	85	0	6
BXTAP	85	0	7
NMTAP	85	32	6
NMTAP	85	32	7
NMTAP	85	64	0
NMTAP	85	64	5
NMSTR	85	96	0
NMSI_	85	96	0	96	48	4
NMTAP	85	96	5
NMTAP	85	192	0
NMTAP	85	192	6
NMTAP	85	256	5
NMTAP	85	288	3
NMSTR	85	288	6
NMSI_	85	288	6	96	48	2
NMTAP	85	352	7
NMSTR	86	0	0
NMSLR	86	0	0	96	48	4
NMTAP	86	0	6
BRTAP	86	96	0
BRSTR	86	96	6
NMSUL	86	96	6	96	48	2
NMSTR	86	192	4
NMSI_	86	192	4	96	48	0
NMTAP	86	192	6
NMTAP	86	288	4
NMSTR	86	288	6
NMSLL	86	288	6	96	48	2
NMSTR	87	0	0
NMSI_	87	0	0	96	48	4
NMTAP	87	0	6
NMTAP	87	96	0
NMSTR	87	96	2
NMSI_	87	96	2	96	48	6
NMSTR	87	192	0
NMSF_	87	192	0	96	48	4
NMTAP	87	192	2
NMTAP	87	288	0
BXTAP	88	0	6
BXTAP	88	0	7
NMTAP	88	32	6
NMTAP	88	32	7
NMTAP	88	64	0
NMTAP	88	64	5
NMSTR	88	96	0
NMSUR	88	96	0	96	48	4
NMSTR	88	96	5
NMSCR	88	96	5	96	48	7
NMTAP	88	192	0
NMTAP	88	192	5
NMTAP	88	288	2
NMTAP	88	288	6
BXTAP	89	0	0
BXTAP	89	0	1
NMTAP	89	32	0
NMTAP	89	32	1
NMTAP	89	64	2
NMTAP	89	64	7
NMTAP	89	96	2
NMSTR	89	96	7
NMSI_	89	96	7	96	48	3
NMTAP	89	192	1
NMTAP	89	192	7
NMTAP	89	256	2
NMSTR	89	288	1
NMSI_	89	288	1	96	48	5
NMTAP	89	288	3
NMTAP	89	352	0
NMTAP	90	0	1
NMSTR	90	0	7
NMSI_	90	0	7	96	48	3
BRSTR	90	96	5
NMSLL	90	96	5	96	48	1
BRTAP	90	96	7
NMTAP	90	192	5
NMSTR	90	192	7
NMSI_	90	192	7	96	48	3
NMSTR	90	288	1
NMSI_	90	288	1	96	48	5
NMTAP	90	288	7
NMTAP	91	0	1
NMSTR	91	0	3
NMSLR	91	0	3	96	48	7
NMSTR	91	96	1
NMSUR	91	96	1	96	48	5
NMTAP	91	96	3
NMTAP	91	192	1
NMSTR	91	192	7
NMSSR	91	192	7	96	48	3
NMSV_	91	192	7	96	48	5
NMTAP	91	288	7
BRTAP	92	0	2
BRTAP	92	0	6
NMTAP	92	32	2
NMTAP	92	32	6
NMTAP	92	64	2
NMTAP	92	64	6
NMSTR	92	96	0
NMSCR	92	96	0	96	48	3
NMSTR	92	96	4
NMSCR	92	96	4	96	48	7
NMTAP	92	192	0
NMTAP	92	192	4
NMTAP	92	288	1
NMTAP	92	288	5
BRTAP	93	0	6
BRTAP	93	0	7
NMTAP	93	32	6
NMTAP	93	32	7
NMTAP	93	64	6
NMTAP	93	64	7
NMTAP	93	96	0
NMSTR	93	96	5
NMSI_	93	96	5	96	48	3
NMTAP	93	192	1
NMSTR	93	192	5
NMSI_	93	192	5	96	48	7
NMTAP	93	256	2
NMTAP	93	288	2
NMTAP	93	288	5
NMTAP	93	352	3
NMSTR	94	0	2
NMSCL	94	0	2	96	48	7
NMTAP	94	0	4
BRTAP	94	96	2
BRSTR	94	96	4
NMSI_	94	96	4	96	48	0
NMSTR	94	192	2
NMSI_	94	192	2	96	48	7
NMTAP	94	192	4
NMTAP	94	288	2
NMSTR	94	288	4
NMSCR	94	288	4	96	48	7
NMSTR	95	0	2
NMSCL	95	0	2	96	48	7
NMTAP	95	0	4
NMTAP	95	96	2
NMSTR	95	96	4
NMSI_	95	96	4	96	48	0
NMSTR	95	192	3
NMSI_	95	192	3	96	48	0
NMSI_	95	192	3	96	48	6
NMTAP	95	192	4
NMTAP	95	288	3
BRTAP	96	0	1
BRTAP	96	0	5
NMTAP	96	32	1
NMTAP	96	32	5
NMTAP	96	64	1
NMTAP	96	64	5
NMSTR	96	96	3
NMSI_	96	96	3	96	48	0
NMSTR	96	96	7
NMSI_	96	96	7	96	48	4
NMTAP	96	192	3
NMTAP	96	192	7
NMTAP	96	288	2
NMTAP	96	288	6
BRTAP	97	0	0
BRTAP	97	0	1
NMTAP	97	32	0
NMTAP	97	32	1
NMTAP	97	64	0
NMTAP	97	64	1
NMSTR	97	96	2
NMSCL	97	96	2	96	48	7
NMSTR	97	96	7
NMSCL	97	96	7	96	48	4
NMTAP	97	192	2
NMSTR	97	192	7
NMSI_	97	192	7	96	48	3
NMSTR	97	288	7
BRSF_	97	288	7	96	48	3
NMTAP	98	0	7

T_REC_TAP	479
T_REC_BRK	15
T_REC_XTP	5
T_REC_BXX	8
T_REC_HLD	33
T_REC_XHO	3
T_REC_BHO	6
T_REC_BXH	0
T_REC_STR	89
T_REC_BST	13
T_REC_XST	0
T_REC_XBS	2
T_REC_TTP	24
T_REC_THO	0
T_REC_SLD	95
T_REC_BSL	11
T_REC_ALL	783
T_NUM_TAP	597
T_NUM_BRK	55
T_NUM_HLD	36
T_NUM_SLD	95
T_NUM_ALL	783
T_JUDGE_TAP	635
T_JUDGE_HLD	198
T_JUDGE_SLD	106
T_JUDGE_ALL	939
TTM_EACHPAIRS	196
TTM_SCR_TAP	298500
TTM_SCR_BRK	143000
TTM_SCR_HLD	36000
TTM_SCR_SLD	142500
TTM_SCR_ALL	620000
TTM_SCR_S	596100
TTM_SCR_SS	614500
TTM_RAT_ACV	10089

