VERSION	0.00.00	1.04.00
FES_MODE	0
BPM_DEF	155.000	155.000	155.000	155.000
MET_DEF	4	4
RESOLUTION	384
CLK_DEF	384
COMPATIBLE_CODE	MA2

BPM	0	0	155.000
MET	0	0	4	4

NMSTR	1	0	0
NMSI_	1	0	0	96	48	3
NMSTR	1	0	7
NMSI_	1	0	7	96	48	4
EXTAP	1	192	2
EXTAP	1	192	5
EXTAP	1	288	1
EXTAP	1	288	6
NMTTP	2	0	0	B	0	M1
NMTTP	2	0	0	E	1	M1
NMTTP	2	0	7	B	0	M1
NMTTP	3	0	4	E	1	M1
NMTTP	3	0	4	D	0	M1
NMTTP	4	0	1	A	0	M1
NMTTP	4	0	2	B	0	M1
NMTTP	4	0	2	E	1	M1
NMTTP	4	0	3	B	0	M1
NMTTP	5	0	4	B	0	M1
NMTTP	5	0	5	B	0	M1
NMTTP	5	0	6	E	1	M1
NMTTP	5	0	6	A	0	M1
NMHLD	5	192	0	96
NMTAP	5	288	7
BRTAP	6	0	1
NMTAP	6	96	1
NMTAP	6	192	3
NMTAP	6	288	2
NMTAP	6	288	4
BRTAP	7	0	6
NMTAP	7	96	6
NMTAP	7	192	4
NMTAP	7	288	3
NMTAP	7	288	5
BRHLD	8	0	1	96
NMTAP	8	96	3
NMTAP	8	192	2
NMTAP	8	192	4
NMTAP	8	288	2
NMTAP	8	288	4
BRHLD	9	0	6	96
NMTAP	9	96	4
NMTAP	9	192	3
NMTAP	9	192	5
NMTAP	9	288	2
NMTAP	9	288	6
NMTAP	10	0	1
NMTAP	10	96	2
NMTAP	10	192	1
NMTAP	10	192	3
NMHLD	10	288	4	64
NMTAP	10	352	3
EXTAP	11	0	4
NMTAP	11	96	5
NMTAP	11	192	4
NMTAP	11	192	6
NMHLD	11	288	3	64
NMTAP	11	352	4
EXTAP	12	0	3
NMTAP	12	96	2
NMTAP	12	192	1
NMTAP	12	192	3
NMHLD	12	288	4	64
NMTAP	12	352	3
EXTAP	13	0	4
NMTAP	13	96	3
NMTAP	13	96	5
NMTAP	13	192	3
NMTAP	13	192	5
NMHLD	13	288	2	64
NMTAP	13	352	3
EXTAP	14	0	2
NMHLD	14	96	5	64
NMTAP	14	160	4
EXTAP	14	192	5
NMHLD	14	288	2	64
NMTAP	14	352	3
EXTAP	15	0	1
NMHLD	15	96	5	64
NMTAP	15	160	4
EXTAP	15	192	6
NMHLD	15	288	0	64
NMTAP	15	352	7
EXTAP	16	0	0
NMTAP	16	64	0
EXTAP	16	96	7
NMTAP	16	160	7
EXTAP	16	192	6
NMTAP	16	256	6
EXTAP	16	288	5
NMTAP	16	352	5
NMTAP	17	0	4
NMTAP	17	64	4
NMTAP	17	96	3
NMTAP	17	160	3
NMTAP	17	192	2
NMTAP	17	256	2
NMTAP	17	288	1
NMTAP	17	352	1
BRSTR	18	0	0
NMSF_	18	0	0	96	192	4
NMSTR	19	0	6
NMSI_	19	0	6	96	48	2
NMSTR	19	96	1
NMSI_	19	96	1	96	48	5
NMTAP	19	192	7
EXTAP	19	288	0
EXTAP	19	288	7
BRTAP	20	0	3
BRTAP	20	0	4
NMHLD	20	96	1	96
NMHLD	20	192	2	96
NMTAP	20	288	3
NMHLD	21	0	6	96
NMTAP	21	96	7
NMTAP	21	192	5
NMTAP	21	256	5
NMTAP	21	288	4
NMTAP	21	352	4
NMHLD	22	0	6	96
NMHLD	22	96	5	96
NMTAP	22	192	4
NMTAP	22	288	2
NMTAP	22	288	3
NMHLD	23	0	1	96
NMTAP	23	96	0
NMSTR	23	192	2
NMSCR	23	192	2	96	48	5
NMTAP	23	192	7
EXHLD	24	0	7	96
NMHLD	24	96	6	96
NMTAP	24	192	5
NMTAP	24	288	3
NMTAP	24	288	4
NMHLD	25	0	1	96
NMTAP	25	96	0
NMTAP	25	192	2
NMTAP	25	256	2
NMTAP	25	288	3
NMTAP	25	352	3
NMHLD	26	0	0	96
NMHLD	26	96	1	96
NMTAP	26	192	2
NMTAP	26	288	3
NMTAP	26	288	4
EXSTR	27	0	6
NMSI_	27	0	6	96	48	1
EXSTR	27	96	2
NMSI_	27	96	2	96	48	5
BRTAP	27	288	3
BRTAP	27	288	4
NMHLD	28	0	3	64
NMHLD	28	0	4	64
NMHLD	28	96	2	64
NMHLD	28	96	3	64
NMHLD	28	192	1	64
NMHLD	28	192	3	64
NMHLD	28	288	0	64
NMHLD	28	288	3	64
NMSTR	29	0	4
NMSCR	29	0	4	96	48	7
NMSTR	29	96	1
NMSUR	29	96	1	96	144	4
NMTAP	30	0	6
NMTAP	30	64	6
NMTAP	30	96	4
NMTAP	30	160	4
NMTAP	30	192	5
NMTAP	30	256	5
NMTAP	30	288	2
NMTAP	30	352	2
NMTAP	31	0	3
NMTAP	31	64	1
NMHLD	31	96	7	96
NMTAP	31	192	0
EXTAP	31	256	1
EXTAP	31	256	6
EXTAP	31	288	1
EXTAP	31	288	6
NMHLD	32	0	3	64
NMHLD	32	0	4	64
NMHLD	32	96	4	64
NMHLD	32	96	5	64
NMHLD	32	192	4	64
NMHLD	32	192	6	64
NMHLD	32	288	4	64
NMHLD	32	288	7	64
NMSTR	33	0	3
NMSCL	33	0	3	96	48	0
NMSTR	33	96	6
NMSUL	33	96	6	96	144	3
NMHLD	34	0	0	96
NMTAP	34	96	7
EXTAP	34	192	2
EXTAP	34	192	5
EXSTR	34	256	2
NMSXR	34	256	2	96	320	4
EXSTR	34	256	5
NMSXL	34	256	5	96	320	3
NMTTP	36	0	0	C	1	M1
NMTTP	36	0	1	B	0	M1
NMTTP	36	0	2	E	0	M1
NMTTP	36	0	5	B	0	M1
NMTTP	36	0	6	E	0	M1
NMHLD	38	0	2	384
NMTTP	38	192	3	E	0	M1
NMHLD	39	0	3	384
NMTTP	39	192	4	E	0	M1
NMHLD	40	0	4	384
NMTTP	40	192	5	E	0	M1
NMHLD	41	0	5	192
NMHLD	41	192	4	192
NMHLD	42	0	6	384
NMTTP	42	192	5	E	0	M1
NMHLD	43	0	4	384
NMTTP	43	192	4	E	0	M1
NMHLD	44	0	3	384
NMTTP	44	192	3	E	0	M1
NMHLD	45	0	1	192
NMTAP	45	192	6
NMTAP	46	0	1
NMHLD	46	0	5	192
NMTAP	46	96	2
NMTAP	46	192	3
NMTAP	46	288	4
NMTAP	46	288	5
NMSTR	46	352	4
NMSI_	46	352	4	96	48	0
NMTAP	46	352	5
NMHLD	47	192	2	192
NMTAP	47	192	6
NMTAP	47	288	5
NMTAP	48	0	4
NMTAP	48	96	2
NMTAP	48	96	3
NMTAP	48	160	2
NMSTR	48	160	3
NMSI_	48	160	3	96	48	7
NMSTR	49	0	1
NMSCR	49	0	1	96	48	4
NMTAP	49	96	0
NMSTR	49	192	6
NMSCL	49	192	6	96	48	3
NMTAP	49	288	7
NMHLD	50	0	1	96
NMHLD	50	96	2	96
NMTAP	50	192	3
NMTAP	50	288	3
NMTAP	50	288	4
NMSTR	50	352	3
NMSI_	50	352	3	96	48	0
NMSTR	50	352	4
NMSI_	50	352	4	96	48	7
NMTAP	51	192	1
NMTAP	51	192	6
NMTAP	51	288	5
NMHLD	51	352	5	96
NMHLD	52	64	6	96
NMHLD	52	160	7	96
NMSTR	52	256	0
NMSCR	52	256	0	96	320	7
NMSTR	54	0	0
NMSI_	54	0	0	96	48	4
NMSTR	54	0	1
NMSI_	54	0	1	96	48	4
NMTAP	54	256	3
NMTAP	54	256	5
NMSTR	54	352	6
NMSI_	54	352	6	96	48	3
NMSTR	54	352	7
NMSI_	54	352	7	96	48	3
NMTAP	55	192	2
NMTAP	55	192	4
NMHLD	55	256	2	96
NMTAP	55	256	4
NMHLD	55	352	3	96
NMHLD	56	64	4	96
NMHLD	56	160	5	96
NMHLD	56	256	6	96
NMHLD	56	352	7	96
NMSTR	57	64	0
NMSUL	57	64	0	96	96	4
NMSUR	57	64	0	96	96	4
NMSTR	58	0	2
NMSI_	58	0	2	96	48	4
NMSTR	58	0	6
NMSI_	58	0	6	96	48	2
NMTAP	58	256	7
NMSTR	58	352	1
NMSI_	58	352	1	96	48	5
NMSTR	58	352	5
NMSI_	58	352	5	96	48	3
NMTAP	59	256	3
NMHLD	59	256	5	96
NMHLD	59	352	4	96
NMHLD	60	64	3	96
NMHLD	60	160	2	96
NMHLD	60	256	1	96
NMSTR	60	352	0
NMSCR	60	352	0	96	48	3
NMSTR	61	192	7
NMSCL	61	192	7	96	48	4
NMTHO	62	0	0	384	C	0	M1
NMTAP	63	160	0
NMTAP	63	192	7
NMTAP	63	256	7
NMTAP	63	288	0
NMTAP	63	352	1
NMTAP	63	352	6
BXTAP	64	0	1
BXTAP	64	0	6
NMTAP	64	96	4
NMTAP	64	96	5
NMTAP	64	192	2
NMTAP	64	192	3
NMSTR	64	288	1
NMSI_	64	288	1	96	48	4
BRTAP	65	0	0
NMTAP	65	96	7
NMTAP	65	192	4
NMTAP	65	192	6
NMTAP	65	288	2
NMTAP	65	288	3
BRHLD	66	0	1	96
NMSTR	66	96	0
NMSCL	66	96	0	96	144	2
BRHLD	67	0	1	96
NMTAP	67	96	0
NMTAP	67	192	2
NMTAP	67	192	6
NMTAP	67	288	4
NMTAP	67	288	5
BRTAP	68	0	0
BRTAP	68	0	7
NMTAP	68	96	2
NMTAP	68	96	3
NMTAP	68	192	4
NMTAP	68	192	5
NMSTR	68	288	6
NMSI_	68	288	6	96	48	3
BRTAP	69	0	7
NMTAP	69	96	0
NMTAP	69	192	1
NMTAP	69	192	3
NMTAP	69	288	4
NMTAP	69	288	5
BRHLD	70	0	6	96
NMSTR	70	96	7
NMSCR	70	96	7	96	144	5
BRHLD	71	0	6	96
NMTAP	71	96	7
NMTAP	71	192	1
NMTAP	71	192	5
NMTAP	71	288	2
NMTAP	71	288	3
NMTAP	72	0	4
NMTAP	72	96	5
NMTAP	72	192	4
NMTAP	72	192	6
NMHLD	72	288	3	64
NMTAP	72	352	4
EXTAP	73	0	3
NMTAP	73	96	2
NMTAP	73	192	1
NMTAP	73	192	3
NMHLD	73	288	4	64
NMTAP	73	352	3
EXTAP	74	0	4
NMTAP	74	96	5
NMTAP	74	192	4
NMTAP	74	192	6
NMHLD	74	288	3	64
NMTAP	74	352	4
EXTAP	75	0	3
NMTAP	75	96	2
NMTAP	75	96	4
NMTAP	75	192	2
NMTAP	75	192	4
NMHLD	75	288	5	64
NMTAP	75	352	4
EXTAP	76	0	5
NMHLD	76	96	2	64
NMTAP	76	160	3
EXTAP	76	192	2
NMHLD	76	288	5	64
NMTAP	76	352	4
EXTAP	77	0	6
NMHLD	77	96	2	64
NMTAP	77	160	3
EXTAP	77	192	1
NMHLD	77	288	7	64
NMTAP	77	352	0
EXTAP	78	0	7
NMTAP	78	64	7
EXTAP	78	96	0
NMTAP	78	160	0
EXTAP	78	192	1
NMTAP	78	256	1
EXTAP	78	288	2
NMTAP	78	352	2
NMTAP	79	0	3
NMTAP	79	64	3
NMTAP	79	96	4
NMTAP	79	160	4
NMTAP	79	192	5
NMTAP	79	256	5
NMTAP	79	288	6
NMTAP	79	352	6
NMHLD	80	0	7	384
NMTAP	81	0	0
NMTAP	81	96	5
NMTAP	81	96	6
NMTAP	81	192	1
NMTAP	81	192	2
EXTAP	81	288	3
EXTAP	81	288	4
BRTAP	82	0	1
BRTAP	82	0	6
NMSTR	82	96	2
NMSI_	82	96	2	96	48	7
NMSTR	82	192	6
NMSI_	82	192	6	96	48	3
NMSTR	82	288	1
NMSI_	82	288	1	96	48	4
NMSTR	83	0	5
NMSI_	83	0	5	96	48	0
NMTAP	83	96	2
NMHLD	83	192	1	96
NMTAP	83	256	0
NMTAP	83	288	0
NMTAP	84	0	7
NMTAP	84	32	7
NMTAP	84	64	7
NMSTR	84	96	1
NMSXL	84	96	1	96	144	4
NMTAP	85	0	6
NMTAP	85	32	6
NMTAP	85	64	6
NMHLD	85	96	4	96
NMTAP	85	192	5
EXTAP	85	256	2
EXTAP	85	256	3
EXTAP	85	288	2
EXTAP	85	288	3
EXTAP	85	352	1
EXTAP	85	352	7
EXTAP	86	0	1
EXTAP	86	0	7
NMSTR	86	96	5
NMSI_	86	96	5	96	48	0
NMSTR	86	192	1
NMSI_	86	192	1	96	64	4
NMSTR	86	288	6
NMSI_	86	288	6	96	48	3
NMSTR	87	0	2
NMSI_	87	0	2	96	48	7
NMTAP	87	96	5
NMHLD	87	192	6	96
NMTAP	87	256	7
NMTAP	87	288	7
NMTAP	88	0	0
NMTAP	88	32	0
NMTAP	88	64	0
NMSTR	88	96	6
NMSXR	88	96	6	96	144	3
NMTAP	89	0	1
NMTAP	89	32	1
NMTAP	89	64	1
NMHLD	89	96	3	96
NMTAP	89	192	2
EXTAP	89	256	1
EXTAP	89	256	5
EXTAP	89	288	1
EXTAP	89	288	5
BRTAP	90	0	0
BRTAP	90	0	7
NMSTR	90	96	2
NMSCR	90	96	2	96	48	5
NMSTR	90	192	6
NMSI_	90	192	6	96	48	3
NMSTR	90	288	1
NMSI_	90	288	1	96	48	4
NMSTR	91	0	6
NMSCR	91	0	6	96	48	1
NMTAP	91	96	3
NMHLD	91	192	2	96
NMTAP	91	256	3
NMTAP	91	288	3
NMTAP	92	0	0
NMTAP	92	0	1
NMTAP	92	32	0
NMTAP	92	32	1
NMTAP	92	64	0
NMTAP	92	64	1
EXSTR	92	96	2
NMSUR	92	96	2	96	120	4
EXTAP	92	96	7
NMTAP	93	0	6
NMTAP	93	0	7
NMTAP	93	32	6
NMTAP	93	32	7
NMTAP	93	64	6
NMTAP	93	64	7
EXTAP	93	96	0
EXTAP	93	96	5
NMTAP	93	192	4
NMTAP	93	192	6
EXTAP	93	256	2
EXTAP	93	256	3
EXTAP	93	288	2
EXTAP	93	288	3
EXTAP	93	352	1
EXTAP	93	352	7
BXTAP	94	0	1
BXTAP	94	0	7
NMSTR	94	96	5
NMSCL	94	96	5	96	48	2
NMSTR	94	192	1
NMSI_	94	192	1	96	48	4
NMSTR	94	288	6
NMSI_	94	288	6	96	48	3
NMSTR	95	0	1
NMSCL	95	0	1	96	48	6
NMTAP	95	96	4
NMHLD	95	192	5	96
NMTAP	95	256	4
NMTAP	95	288	4
BRTAP	96	0	2
BRTAP	96	0	6
EXTAP	96	32	2
EXTAP	96	32	6
EXTAP	96	64	2
EXTAP	96	64	6
EXTAP	96	96	3
EXSTR	96	96	5
NMSUL	96	96	5	96	120	3
BRTAP	97	0	1
BRTAP	97	0	5
EXTAP	97	32	1
EXTAP	97	32	5
EXTAP	97	64	1
EXTAP	97	64	5
EXTAP	97	96	2
EXTAP	97	96	4
NMTAP	97	192	3
NMTAP	97	192	5
NMTAP	97	256	0
NMTAP	97	256	7
NMSTR	97	288	0
NMSI_	97	288	0	96	48	4
NMSTR	97	288	7
NMSI_	97	288	7	96	48	3

T_REC_TAP	233
T_REC_BRK	18
T_REC_XTP	68
T_REC_BXX	4
T_REC_HLD	79
T_REC_XHO	1
T_REC_BHO	6
T_REC_BXH	0
T_REC_STR	51
T_REC_BST	1
T_REC_XST	6
T_REC_XBS	0
T_REC_TTP	24
T_REC_THO	1
T_REC_SLD	59
T_REC_BSL	0
T_REC_ALL	551
T_NUM_TAP	382
T_NUM_BRK	29
T_NUM_HLD	81
T_NUM_SLD	59
T_NUM_ALL	551
T_JUDGE_TAP	405
T_JUDGE_HLD	232
T_JUDGE_SLD	59
T_JUDGE_ALL	696
TTM_EACHPAIRS	105
TTM_SCR_TAP	191000
TTM_SCR_BRK	75400
TTM_SCR_HLD	81000
TTM_SCR_SLD	88500
TTM_SCR_ALL	435900
TTM_SCR_S	420050
TTM_SCR_SS	433000
TTM_RAT_ACV	10066

