VERSION	0.00.00	1.04.00
FES_MODE	0
BPM_DEF	180.000	180.000	230.000	130.000
MET_DEF	4	4
RESOLUTION	384
CLK_DEF	384
COMPATIBLE_CODE	MA2

BPM	0	0	180.000
BPM	52	0	190.000
BPM	56	0	200.000
BPM	58	0	210.000
BPM	60	0	220.000
BPM	62	0	230.000
BPM	112	0	225.000
BPM	112	96	215.000
BPM	112	288	195.000
BPM	113	96	180.000
BPM	113	288	165.000
BPM	114	48	155.000
BPM	114	192	140.000
BPM	114	288	136.000
BPM	114	336	131.000
BPM	115	48	130.000
MET	0	0	4	4

NMSTR	2	0	1
NMSXL	2	0	1	96	192	7
NMTAP	2	0	7
NMTAP	2	96	7
NMTAP	2	192	6
NMTAP	2	288	6
NMTAP	3	0	0
NMSTR	3	0	5
NMSXR	3	0	5	96	192	0
NMTAP	3	96	0
NMTAP	3	192	1
NMTAP	3	288	1
NMTAP	4	0	0
NMSTR	4	0	2
NMSXR	4	0	2	96	192	4
NMTAP	4	96	7
NMTAP	4	192	6
NMTAP	4	288	5
NMTAP	5	0	4
NMSTR	5	0	5
NMSI_	5	0	5	96	48	0
NMTAP	5	96	3
NMTAP	5	192	1
NMTAP	5	224	0
NMTAP	5	256	1
NMTAP	5	288	7
NMTAP	5	320	0
NMTAP	5	352	7
NMTAP	6	0	1
NMSTR	6	0	6
NMSXR	6	0	6	96	192	3
NMTAP	6	96	1
NMTAP	6	192	2
NMTAP	6	288	2
NMTAP	7	0	1
NMSTR	7	0	4
NMSXL	7	0	4	96	192	7
NMTAP	7	96	1
NMTAP	7	192	2
NMTAP	7	288	3
NMTAP	8	0	6
NMTAP	8	32	6
NMTAP	8	64	2
NMTAP	8	96	5
NMTAP	8	128	5
NMTAP	8	160	1
NMTAP	8	192	4
NMTAP	8	224	4
NMTAP	8	256	0
NMTAP	8	288	3
NMTAP	8	320	3
NMTAP	8	352	7
NMSTR	9	0	3
NMSCL	9	0	3	96	96	7
NMSCR	9	0	3	96	96	7
NMTHO	10	0	0	672	C	1	M1
NMTTP	10	0	5	B	0	M1
NMTTP	10	0	6	B	0	M1
NMTTP	10	0	6	E	0	M1
NMTAP	11	0	6
NMTAP	11	96	5
NMSTR	11	192	4
NMSI_	11	192	4	96	48	0
NMTAP	12	0	1
NMTAP	12	0	7
NMTAP	12	96	0
NMTAP	12	96	6
NMTAP	12	192	4
NMTAP	12	192	5
NMTAP	12	288	2
NMTAP	12	288	3
EXTAP	12	352	1
EXTAP	12	368	0
EXHLD	13	0	1	96
NMTAP	13	96	0
EXTAP	13	160	6
EXTAP	13	176	7
EXHLD	13	192	6	96
NMTAP	13	288	4
NMTAP	14	0	3
NMTAP	14	0	5
NMTAP	14	96	1
NMTAP	14	96	7
NMTAP	14	192	6
NMTAP	14	224	7
NMTAP	14	256	6
NMTAP	14	288	0
NMTAP	14	320	7
NMTAP	14	352	0
NMTAP	15	0	6
NMTAP	15	32	7
NMTAP	15	64	5
NMTAP	15	96	7
NMTAP	15	128	4
NMTAP	15	160	7
NMTAP	15	192	5
NMTAP	15	224	0
NMTAP	15	256	6
NMTAP	15	288	1
NMTAP	15	320	7
NMTAP	15	352	2
NMTAP	16	0	0
NMTAP	16	32	3
NMTAP	16	64	0
NMSTR	16	96	2
NMSV_	16	96	2	96	96	7
NMTAP	16	128	0
NMTAP	16	160	1
NMTAP	16	192	0
NMSTR	16	288	6
NMSXR	16	288	6	96	240	3
NMTAP	17	0	2
NMTAP	17	96	1
NMTAP	17	192	0
NMTAP	17	288	7
NMTAP	18	0	7
NMTAP	18	32	5
NMTAP	18	64	0
NMTAP	18	96	6
NMTAP	18	128	1
NMTAP	18	160	7
NMTAP	18	192	2
NMTAP	18	224	0
NMTAP	18	256	2
NMSTR	18	288	7
NMSCL	18	288	7	96	96	4
NMTAP	18	320	3
NMTAP	18	352	7
NMSTR	19	0	4
NMSCL	19	0	4	96	96	1
NMSTR	19	96	1
NMSCL	19	96	1	96	96	6
NMSTR	19	192	6
BRSI_	19	192	6	96	48	3
NMSTR	20	0	2
NMSUL	20	0	2	96	48	6
NMTAP	20	64	2
NMSTR	20	96	4
NMSUR	20	96	4	96	48	0
NMTAP	20	160	4
NMSTR	20	192	2
NMSUL	20	192	2	96	48	6
NMTAP	20	256	2
NMTAP	20	288	4
NMSTR	21	0	5
NMSUR	21	0	5	96	48	1
NMTAP	21	64	5
NMSTR	21	96	3
NMSUL	21	96	3	96	48	7
NMTAP	21	160	3
NMSTR	21	192	5
NMSCR	21	192	5	96	48	0
NMTAP	21	256	5
NMTAP	21	288	3
NMSTR	22	0	1
NMSUR	22	0	1	96	48	5
NMTAP	22	64	1
NMSTR	22	96	7
NMSUL	22	96	7	96	48	3
NMTAP	22	160	7
NMSTR	22	192	1
NMSUR	22	192	1	96	48	5
NMTAP	22	256	1
NMTAP	22	288	7
NMSTR	23	0	6
NMSUL	23	0	6	96	48	2
NMTAP	23	64	6
NMSTR	23	96	0
NMSCR	23	96	0	96	48	3
NMTAP	23	160	0
NMTAP	23	192	5
NMTAP	23	256	5
NMTAP	23	288	3
NMTAP	23	352	3
NMTAP	24	0	4
NMTAP	24	96	6
NMTAP	24	96	7
NMHLD	24	192	1	96
NMTAP	24	256	0
NMTAP	24	288	0
NMTAP	25	0	0
NMTAP	25	0	7
NMTAP	25	64	6
NMTAP	25	96	0
NMTAP	25	96	6
NMTAP	25	160	1
NMTAP	25	192	1
NMSTR	25	192	7
NMSI_	25	192	7	96	48	1
NMTAP	25	256	6
NMTAP	25	288	6
NMTAP	25	288	7
NMHLD	26	0	5	96
NMTAP	26	96	3
NMHLD	26	192	1	96
NMTAP	26	256	3
NMTAP	26	288	3
NMTAP	27	0	2
NMTAP	27	64	1
NMSTR	27	96	0
NMSCL	27	96	0	96	48	6
NMTAP	27	96	1
NMSTR	27	192	0
NMSCR	27	192	0	96	48	2
NMTAP	27	192	1
EXTAP	27	288	0
NMTAP	28	0	3
NMTAP	28	0	5
NMTAP	28	64	4
NMTAP	28	96	3
NMTAP	28	160	3
NMTAP	28	192	2
NMTAP	28	256	2
NMTAP	28	288	1
NMTAP	28	352	1
NMHLD	29	0	0	96
NMTAP	29	96	1
NMTAP	29	128	7
NMTAP	29	160	0
NMTAP	29	192	6
BRTAP	29	288	2
BRTAP	29	288	5
BXTAP	30	0	1
BXTAP	30	32	0
BXTAP	30	64	1
BXTAP	30	96	6
BXTAP	30	128	7
BXTAP	30	160	6
BXTAP	30	192	2
BXTAP	30	224	3
BXTAP	30	256	1
BXTAP	30	288	5
BXTAP	30	320	4
BXTAP	30	352	6
NMTAP	31	0	0
NMTAP	31	0	7
NMTAP	31	64	1
NMTAP	31	96	0
NMTAP	31	96	2
NMTAP	31	160	6
NMTAP	31	192	5
NMTAP	31	192	7
NMTAP	31	256	3
NMTAP	31	256	4
BRTAP	31	288	2
BRSTR	31	288	5
NMSI_	31	288	5	96	48	1
NMSTR	32	0	0
NMSI_	32	0	0	96	48	3
NMTAP	32	0	5
NMTAP	32	96	0
NMSTR	32	96	6
NMSI_	32	96	6	96	48	2
NMSTR	32	192	1
NMSI_	32	192	1	96	48	7
NMTAP	32	192	6
NMTAP	32	288	1
NMSTR	32	288	5
NMSI_	32	288	5	96	48	3
NMTAP	33	0	0
NMTAP	33	0	5
NMTAP	33	96	1
NMTAP	33	128	0
NMTAP	33	160	1
NMTAP	33	192	2
NMTAP	33	192	7
BRTAP	33	288	3
NMTAP	33	320	3
NMTAP	33	352	3
NMTAP	34	0	2
NMTAP	34	0	4
NMSTR	34	96	7
NMSI_	34	96	7	96	48	3
NMTAP	34	128	0
NMTAP	34	160	6
NMTAP	34	192	5
NMTAP	34	192	7
NMSTR	34	288	2
NMSCL	34	288	2	96	48	7
NMSTR	34	288	6
NMSCL	34	288	6	96	48	3
NMTAP	35	0	2
NMTAP	35	0	6
NMSTR	35	96	1
NMSI_	35	96	1	96	48	4
NMSTR	35	96	5
NMSI_	35	96	5	96	48	0
EXTAP	35	192	1
EXTAP	35	192	5
EXSTR	35	288	2
NMSI_	35	288	2	96	48	6
EXTAP	35	288	6
NMTAP	36	0	2
NMSTR	36	0	7
NMSI_	36	0	7	96	48	4
NMSTR	36	96	1
NMSI_	36	96	1	96	48	5
NMTAP	36	96	7
NMTAP	36	192	1
NMSTR	36	192	6
NMSI_	36	192	6	96	48	0
NMSTR	36	288	2
NMSI_	36	288	2	96	48	4
NMTAP	36	288	6
NMTAP	37	0	0
NMTAP	37	0	2
NMTAP	37	96	6
NMTAP	37	128	7
NMTAP	37	160	5
NMTAP	37	192	0
NMTAP	37	192	4
BRTAP	37	288	1
BRTAP	37	288	3
NMTAP	38	0	2
NMTAP	38	32	2
NMTAP	38	64	2
NMTAP	38	96	0
NMTAP	38	128	0
NMTAP	38	160	0
NMTAP	38	192	7
NMTAP	38	224	7
NMTAP	38	256	7
NMTAP	38	288	5
NMTAP	38	320	5
NMTAP	38	352	5
NMSTR	39	0	1
NMSI_	39	0	1	96	48	4
NMSTR	39	64	5
NMSI_	39	64	5	96	48	0
NMTAP	39	96	1
NMTAP	39	160	5
NMSTR	39	192	2
NMSI_	39	192	2	96	48	7
NMTAP	39	256	6
BRTAP	39	288	2
NMSTR	40	0	0
NMSCR	40	0	0	96	48	3
NMTAP	40	0	4
NMSTR	40	96	0
NMSCL	40	96	0	96	48	5
NMTAP	40	96	6
NMSTR	40	192	0
NMSCR	40	192	0	96	48	3
NMTAP	40	192	2
NMSTR	40	288	0
NMSI_	40	288	0	96	48	4
NMTAP	40	288	6
NMTAP	41	0	0
NMSTR	41	0	2
NMSCL	41	0	2	96	96	7
NMTAP	41	96	6
NMTAP	41	128	5
NMTAP	41	160	4
NMHLD	41	192	3	96
BRSTR	41	288	0
NMSI_	41	288	0	96	48	4
NMTAP	42	0	0
NMSTR	42	0	5
NMSCR	42	0	5	96	96	0
NMTAP	42	96	1
NMTAP	42	128	2
NMTAP	42	160	3
NMHLD	42	192	4	96
BRTAP	42	288	7
NMSTR	43	0	6
NMSI_	43	0	6	96	48	0
NMTAP	43	64	4
NMSTR	43	96	6
NMSI_	43	96	6	96	48	4
NMTAP	43	160	2
NMSTR	43	192	6
NMSI_	43	192	6	96	48	2
NMTAP	43	256	1
BRTAP	43	288	6
NMTAP	44	0	1
NMSTR	44	0	3
NMSI_	44	0	3	96	48	0
NMSTR	44	96	3
NMSI_	44	96	3	96	48	6
NMTAP	44	96	5
NMTAP	44	192	1
NMSTR	44	192	3
BRSCL	44	192	3	96	48	0
NMTAP	44	288	3
NMSTR	44	288	7
NMSCL	44	288	7	96	48	4
EXTAP	45	0	0
EXTAP	45	0	7
NMTAP	45	96	3
NMTAP	45	128	2
NMTAP	45	128	4
NMTAP	45	160	1
NMTAP	45	160	5
NMSTR	45	192	0
NMSI_	45	192	0	96	48	2
NMSI_	45	192	0	96	48	6
NMTAP	45	192	6
BRTAP	45	288	0
NMTAP	46	0	5
NMTAP	46	32	4
NMTAP	46	64	7
NMTAP	46	96	2
NMTAP	46	128	3
NMTAP	46	160	0
NMTAP	46	192	5
NMTAP	46	224	4
NMTAP	46	256	6
NMSTR	46	288	3
NMSI_	46	288	3	96	48	7
NMTAP	46	320	5
NMTAP	46	352	1
BRTAP	47	0	3
NMSTR	47	96	0
NMSI_	47	96	0	96	48	3
NMSTR	47	96	6
NMSI_	47	96	6	96	48	3
NMTAP	47	128	0
NMTAP	47	128	6
NMTAP	47	160	0
NMTAP	47	160	6
BXTAP	47	192	0
BXTAP	47	192	6
NMTAP	47	288	2
NMTAP	47	288	4
NMTAP	48	0	0
NMTAP	48	0	6
NMHLD	48	96	2	480
NMSTR	48	96	4
NMSI_	48	96	4	96	96	7
CNSCR	48	288	7	0	288	4
NMTAP	50	0	3
NMTAP	50	0	5
NMHLD	50	96	3	480
NMSTR	50	96	5
NMSCL	50	96	5	96	96	3
CNSI_	50	288	3	0	96	0
CNSI_	51	0	0	0	96	3
CNSCR	51	96	3	0	96	5
NMTAP	52	0	0
NMTAP	52	0	3
NMSTR	52	96	0
NMSCL	52	96	0	96	256	3
NMHLD	52	96	3	480
CNSV_	53	64	3	0	128	5
NMTAP	54	0	1
NMTAP	54	0	5
NMHLD	54	96	1	480
NMSTR	54	96	5
NMSI_	54	96	5	96	96	1
CNSCL	54	288	1	0	288	2
NMTAP	56	0	0
NMTAP	56	0	3
NMSTR	56	96	0
NMSI_	56	96	0	96	128	3
NMTAP	56	96	3
NMTAP	56	192	4
NMTAP	56	288	4
CNSI_	56	320	3	0	128	7
NMTAP	57	0	5
CNSI_	57	64	7	0	128	4
NMTAP	57	96	5
NMTAP	57	192	6
NMTAP	57	288	7
NMTAP	58	0	3
NMTAP	58	0	7
NMSTR	58	96	3
NMSV_	58	96	3	96	192	0
NMSTR	58	96	7
NMSI_	58	96	7	96	192	4
CNSV_	59	0	0	0	192	3
CNSI_	59	0	4	0	192	7
NMTAP	60	0	0
NMTAP	60	0	1
NMSTR	60	96	0
NMSI_	60	96	0	96	96	4
NMTAP	60	96	1
NMTAP	60	192	2
NMTAP	60	288	3
NMSTR	61	0	4
NMSI_	61	0	4	96	96	0
NMTAP	61	0	5
NMTAP	61	96	6
NMTAP	61	192	7
NMTAP	61	288	6
NMSTR	62	0	4
BRSXL	62	0	4	96	192	4
BRSXR	62	0	4	96	192	4
NMTAP	62	0	5
NMTAP	62	96	4
NMTAP	63	0	3
NMTAP	63	0	5
NMTAP	63	96	1
NMTAP	63	96	4
NMTAP	63	192	3
NMTAP	63	192	6
BRTAP	63	288	0
NMTAP	63	288	4
NMTAP	64	0	1
NMTAP	64	48	1
NMTAP	64	96	7
NMTAP	64	144	0
NMTAP	64	144	6
NMTAP	64	240	5
NMTAP	64	240	7
NMTAP	64	336	4
NMTAP	64	336	6
NMTAP	65	48	5
NMTAP	65	96	4
NMSTR	65	144	5
NMSCR	65	144	5	96	48	0
NMHLD	65	240	1	96
NMTAP	66	0	1
NMTAP	66	48	2
NMTAP	66	96	3
NMSTR	66	144	4
NMSCR	66	144	4	96	96	7
NMSTR	66	240	7
NMSCR	66	240	7	96	96	2
NMSTR	66	336	2
NMSCR	66	336	2	96	96	5
NMSTR	67	48	5
NMSI_	67	48	5	96	72	7
NMTAP	67	144	1
NMTAP	67	240	2
EXTAP	67	288	0
NMTAP	67	288	2
NMTAP	68	0	6
NMTAP	68	48	6
NMTAP	68	96	0
NMTAP	68	144	1
NMTAP	68	144	7
NMTAP	68	240	0
NMTAP	68	240	2
NMTAP	68	336	1
NMTAP	68	336	3
NMTAP	69	48	2
NMTAP	69	96	3
NMSTR	69	144	2
NMSCL	69	144	2	96	48	7
NMHLD	69	240	6	432
NMTTP	70	0	0	B	1	M1
NMTTP	70	48	1	B	1	M1
NMTTP	70	96	2	B	1	M1
NMTTP	70	144	3	B	1	M1
NMTTP	70	192	0	A	1	M1
NMTTP	70	240	1	A	1	M1
NMTTP	70	288	2	A	1	M1
NMTTP	70	336	3	A	1	M1
NMTAP	71	0	5
NMTAP	71	48	5
NMTAP	71	96	7
NMTAP	71	144	7
NMTAP	71	192	0
NMTAP	71	240	0
NMTAP	71	288	2
NMTAP	71	288	6
NMTAP	72	0	1
NMHLD	72	48	3	48
NMTAP	72	96	1
NMHLD	72	144	3	48
NMTAP	72	192	2
NMHLD	72	240	4	48
NMTAP	72	288	2
NMHLD	72	336	4	48
NMTAP	73	0	1
NMHLD	73	48	3	48
NMTAP	73	96	2
NMHLD	73	144	4	48
NMSTR	73	192	1
NMSI_	73	192	1	96	48	3
NMTAP	73	240	3
NMTAP	74	0	6
NMHLD	74	48	4	48
NMTAP	74	96	6
NMHLD	74	144	4	48
NMTAP	74	192	5
NMHLD	74	240	3	48
NMTAP	74	288	5
NMHLD	74	336	3	48
NMTAP	75	0	6
NMHLD	75	48	4	48
NMTAP	75	96	5
NMHLD	75	144	3	48
NMSTR	75	192	6
NMSI_	75	192	6	96	48	4
NMTAP	75	240	4
NMTAP	76	0	2
NMHLD	76	48	4	48
NMTAP	76	96	1
NMHLD	76	144	3	48
NMSTR	76	192	0
BRSI_	76	192	0	96	48	4
NMTAP	76	240	2
NMTAP	77	0	5
NMHLD	77	48	3	48
NMTAP	77	96	6
NMHLD	77	144	4	48
NMSTR	77	192	7
BRSI_	77	192	7	96	48	3
NMTAP	77	240	5
NMTAP	78	0	1
NMTAP	78	0	4
NMTAP	78	48	2
NMTAP	78	96	3
NMTAP	78	96	6
NMTAP	78	144	5
NMTAP	78	192	1
NMTAP	78	192	4
NMTAP	78	240	2
NMTAP	78	288	3
NMTAP	78	288	5
NMHLD	79	0	0	48
NMHLD	79	0	7	48
NMHLD	79	96	2	48
NMHLD	79	96	3	48
NMHLD	79	192	4	48
NMHLD	79	192	5	48
BRTAP	79	288	2
BRTAP	79	288	7
NMSTR	80	0	1
NMSI_	80	0	1	96	48	5
NMSTR	80	48	0
NMSI_	80	48	0	96	48	4
NMTAP	80	96	1
NMSTR	80	144	0
NMSCR	80	144	0	96	48	3
NMSTR	80	240	0
NMSCL	80	240	0	96	48	5
EXTAP	80	240	5
NMTAP	80	336	0
EXTAP	80	336	2
NMSTR	81	48	1
NMSI_	81	48	1	96	48	5
EXSTR	81	96	5
NMSLL	81	96	5	96	96	7
NMTAP	81	144	1
NMTAP	81	240	6
NMTAP	81	288	6
NMTAP	82	0	0
NMTAP	82	0	5
NMTAP	82	48	2
NMTAP	82	72	3
NMTAP	82	96	2
NMSTR	82	144	1
NMSI_	82	144	1	96	48	4
NMTAP	82	144	4
NMTAP	82	240	1
NMSTR	82	240	6
NMSI_	82	240	6	96	48	3
NMSTR	82	336	2
NMSI_	82	336	2	96	48	7
NMTAP	82	336	6
NMTAP	83	48	2
NMSTR	83	48	5
NMSI_	83	48	5	96	48	0
NMTAP	83	144	1
NMTAP	83	144	5
NMTAP	83	240	3
BRTAP	83	288	2
BRTAP	83	288	4
NMSTR	84	0	6
NMSI_	84	0	6	96	48	2
NMSTR	84	48	7
NMSI_	84	48	7	96	48	3
NMTAP	84	96	6
NMSTR	84	144	7
NMSCL	84	144	7	96	48	4
EXTAP	84	240	2
NMSTR	84	240	7
NMSCR	84	240	7	96	48	2
EXTAP	84	336	5
NMTAP	84	336	7
NMSTR	85	48	6
NMSI_	85	48	6	96	48	3
EXTAP	85	96	2
NMTAP	85	144	6
EXTAP	85	240	1
EXTAP	85	240	5
EXTAP	85	288	1
EXTAP	85	288	5
BRTAP	86	0	0
NMTAP	86	0	4
BRTAP	86	48	1
NMTAP	86	48	5
BRTAP	86	96	2
NMTAP	86	96	6
BRTAP	86	144	3
NMTAP	86	144	7
BRTAP	86	192	0
NMTAP	86	192	4
BRTAP	86	240	1
NMTAP	86	240	5
BRTAP	86	288	2
NMTAP	86	288	6
BRTAP	86	336	3
NMTAP	86	336	7
NMTAP	87	0	0
NMTAP	87	24	1
NMTAP	87	48	2
NMTAP	87	72	3
NMTAP	87	96	0
NMTAP	87	96	4
NMTAP	87	120	5
NMTAP	87	144	6
NMTAP	87	168	7
NMHLD	87	192	0	96
NMHLD	87	192	4	96
NMSTR	88	0	1
NMSI_	88	0	1	96	48	3
NMSTR	88	48	0
NMSI_	88	48	0	96	48	4
NMTAP	88	96	1
NMTAP	88	144	0
NMSTR	88	192	7
NMSI_	88	192	7	96	48	3
NMSTR	88	240	6
NMSI_	88	240	6	96	48	4
NMTAP	88	288	7
NMSTR	88	336	6
NMSCR	88	336	6	96	48	1
NMSTR	89	48	2
NMSCR	89	48	2	96	48	5
NMTAP	89	48	6
NMTAP	89	144	2
NMSTR	89	144	7
NMSUR	89	144	7	96	48	3
NMSV_	89	144	7	96	48	2
NMTAP	89	240	7
EXTAP	89	336	1
EXTAP	89	336	4
EXTAP	90	0	1
EXTAP	90	0	4
NMTAP	90	48	2
NMTAP	90	72	3
NMTAP	90	96	2
NMSTR	90	144	1
NMSI_	90	144	1	96	48	5
NMTAP	90	144	5
NMTAP	90	240	1
NMTAP	90	240	7
NMSTR	90	336	0
NMSI_	90	336	0	96	48	4
NMTAP	90	336	4
NMTAP	91	48	0
NMSTR	91	48	7
NMSI_	91	48	7	96	48	3
NMTAP	91	144	2
NMTAP	91	144	7
NMTAP	91	240	2
NMTAP	91	240	4
NMTAP	91	288	1
NMTAP	91	288	5
NMSTR	92	0	6
NMSI_	92	0	6	96	48	4
NMSTR	92	48	7
NMSI_	92	48	7	96	48	3
NMTAP	92	96	6
NMTAP	92	144	7
NMSTR	92	192	0
NMSI_	92	192	0	96	48	4
NMSTR	92	240	1
NMSI_	92	240	1	96	48	3
NMTAP	92	288	0
NMSTR	92	336	1
NMSCL	92	336	1	96	48	6
NMTAP	93	48	1
NMSTR	93	48	5
NMSI_	93	48	5	96	48	2
NMSTR	93	144	0
NMSLR	93	144	0	96	96	4
NMTAP	93	144	5
NMTAP	93	240	0
NMTAP	93	240	6
NMTAP	93	336	7
EXTAP	94	0	3
NMTAP	94	0	7
NMTAP	94	48	2
NMTAP	94	96	1
NMTAP	94	96	5
NMTAP	94	144	4
NMTAP	94	192	2
NMTAP	94	216	3
NMTAP	94	240	1
NMTAP	94	264	3
NMTAP	94	288	2
BRTAP	95	0	1
BRTAP	95	0	3
BRTAP	95	96	4
BRTAP	95	96	6
NMTAP	95	192	0
NMTAP	95	192	7
NMTAP	95	240	1
NMTAP	95	240	6
BRTAP	95	288	2
BRTAP	95	288	5
NMSTR	96	0	6
NMSI_	96	0	6	96	48	3
NMTAP	96	48	6
NMSTR	96	96	2
NMSI_	96	96	2	96	48	7
NMTAP	96	144	2
NMSTR	96	192	5
NMSI_	96	192	5	96	48	2
NMTAP	96	240	5
NMSTR	96	288	1
NMSI_	96	288	1	96	48	5
NMTAP	96	336	1
NMSTR	97	0	6
NMSI_	97	0	6	96	48	2
NMTAP	97	48	6
NMSTR	97	96	7
NMSI_	97	96	7	96	48	3
NMTAP	97	144	7
NMSTR	97	192	0
NMSI_	97	192	0	96	48	4
NMTAP	97	240	0
NMSTR	97	288	1
NMSI_	97	288	1	96	48	5
NMTAP	97	336	1
NMSTR	98	0	6
NMSI_	98	0	6	96	48	0
NMTAP	98	48	6
NMSTR	98	96	2
NMSI_	98	96	2	96	48	4
NMTAP	98	144	2
NMSTR	98	192	5
NMSI_	98	192	5	96	48	0
NMTAP	98	240	5
NMSTR	98	288	2
NMSI_	98	288	2	96	48	7
NMTAP	98	336	2
NMSTR	99	0	4
NMSI_	99	0	4	96	48	0
NMTAP	99	48	4
NMSTR	99	96	1
NMSI_	99	96	1	96	48	4
NMTAP	99	144	1
NMSTR	99	192	7
NMSI_	99	192	7	96	48	4
NMTAP	99	240	7
NMTAP	99	288	3
NMTAP	100	0	2
NMTAP	100	0	5
NMTAP	100	48	1
NMTAP	100	72	3
NMTAP	100	96	1
NMTAP	100	144	6
NMTAP	100	168	7
NMTAP	100	192	5
NMTAP	100	216	0
NMTAP	100	240	4
EXTAP	100	288	1
EXTAP	100	288	3
NMTAP	101	0	2
NMTAP	101	0	5
NMTAP	101	48	6
NMTAP	101	72	4
NMTAP	101	96	6
NMTAP	101	144	1
NMTAP	101	168	0
NMTAP	101	192	2
NMTAP	101	216	7
NMTAP	101	240	3
EXTAP	101	288	4
EXTAP	101	288	6
BRTAP	102	0	3
NMTAP	102	24	5
BRTAP	102	48	3
NMTAP	102	72	5
BRTAP	102	96	2
NMTAP	102	120	6
BRTAP	102	144	2
NMTAP	102	168	6
BRTAP	102	192	1
NMTAP	102	216	7
BRTAP	102	240	1
NMTAP	102	264	7
NMTAP	102	288	0
NMTAP	102	304	0
NMTAP	102	320	0
NMTAP	102	336	0
NMTAP	102	352	0
NMTAP	102	368	0
NMTAP	103	0	0
EXHLD	103	96	1	48
EXHLD	103	96	7	48
NMHLD	103	192	3	48
NMHLD	103	192	5	48
BRHLD	103	288	2	48
BRHLD	103	288	6	48
NMTAP	104	0	0
NMTAP	104	0	4
NMTAP	104	96	6
NMTAP	104	96	7
NMTAP	104	144	6
NMTAP	104	192	6
NMTAP	104	192	7
NMTAP	104	288	0
NMTAP	104	288	5
NMTAP	104	336	6
NMTAP	104	360	7
NMTAP	105	0	6
NMTAP	105	96	0
NMTAP	105	96	7
NMTAP	105	144	7
NMTAP	105	192	1
NMTAP	105	192	7
NMTAP	105	288	2
NMTAP	105	288	6
NMTAP	106	0	3
NMTAP	106	0	7
NMTAP	106	96	0
NMTAP	106	96	1
NMTAP	106	144	1
NMTAP	106	192	0
NMTAP	106	192	1
NMTAP	106	288	2
NMTAP	106	288	7
NMTAP	106	336	1
NMTAP	106	360	0
NMTAP	107	0	1
NMTAP	107	96	1
NMTAP	107	144	1
NMHLD	107	192	2	48
NMHLD	107	192	3	48
NMHLD	107	264	3	48
NMHLD	107	264	4	48
NMTAP	107	336	4
NMTAP	107	336	5
NMTAP	108	0	5
NMTAP	108	24	4
NMTAP	108	48	5
NMTAP	108	72	4
NMTAP	108	96	6
NMTAP	108	120	3
NMTAP	108	144	6
NMTAP	108	168	3
NMTAP	108	192	7
NMTAP	108	216	2
NMTAP	108	240	7
NMTAP	108	264	2
NMTAP	108	288	0
NMTAP	108	288	1
NMTAP	109	0	2
NMTAP	109	24	3
NMTAP	109	48	2
NMTAP	109	72	3
NMTAP	109	96	1
NMTAP	109	120	4
NMTAP	109	144	1
NMTAP	109	168	4
NMTAP	109	192	0
NMTAP	109	216	5
NMTAP	109	240	0
NMTAP	109	264	5
NMTAP	109	288	6
NMTAP	109	288	7
NMTAP	110	0	0
NMTAP	110	24	1
NMTAP	110	48	2
NMTAP	110	72	3
NMTAP	110	96	7
NMTAP	110	120	6
NMTAP	110	144	5
NMTAP	110	168	4
NMTAP	110	192	0
NMTAP	110	204	1
NMTAP	110	216	2
NMTAP	110	228	3
NMTAP	110	240	4
NMTAP	110	252	5
NMTAP	110	264	6
NMTAP	110	276	7
NMTAP	110	288	0
NMTAP	110	300	1
NMTAP	110	312	2
NMTAP	110	324	3
NMTAP	110	336	4
NMTAP	110	348	5
NMTAP	110	360	6
NMTAP	110	372	7
NMSTR	111	0	0
NMSI_	111	0	0	96	48	4
NMSTR	111	96	0
NMSCL	111	96	0	96	48	5
NMSCR	111	96	0	96	48	3
NMSTR	111	192	0
NMSF_	111	192	0	96	48	4
NMTTP	111	288	0	A	1	M1
EXHLD	112	0	2	48
EXHLD	112	0	6	48
EXHLD	112	96	3	48
EXHLD	112	96	6	48
NMTAP	112	192	4
NMHLD	112	240	6	48
NMTAP	112	288	4
NMHLD	112	336	6	48
NMTAP	113	0	3
NMHLD	113	48	5	48
NMTAP	113	96	3
NMHLD	113	144	5	48
NMTAP	113	192	2
NMHLD	113	240	5	48
NMTAP	113	288	2
NMHLD	113	336	5	48
NMTAP	114	0	1
NMHLD	114	48	4	48
NMTAP	114	96	0
NMHLD	114	144	4	48
NMTAP	114	192	7
NMHLD	114	240	4	48
NMTAP	114	288	6
NMHLD	114	336	4	48
NMTAP	115	0	5
NMTAP	115	48	4
NMSTR	115	96	3
NMSUL	115	96	3	96	192	0
NMTAP	115	144	4
NMTAP	115	192	3
NMTHO	116	0	0	96	C	0	M1

T_REC_TAP	580
T_REC_BRK	36
T_REC_XTP	29
T_REC_BXX	14
T_REC_HLD	52
T_REC_XHO	8
T_REC_BHO	2
T_REC_BXH	0
T_REC_STR	131
T_REC_BST	2
T_REC_XST	2
T_REC_XBS	0
T_REC_TTP	12
T_REC_THO	2
T_REC_SLD	134
T_REC_BSL	6
T_REC_ALL	1010
T_NUM_TAP	754
T_NUM_BRK	60
T_NUM_HLD	62
T_NUM_SLD	134
T_NUM_ALL	1010
T_JUDGE_TAP	806
T_JUDGE_HLD	133
T_JUDGE_SLD	140
T_JUDGE_ALL	1079
TTM_EACHPAIRS	170
TTM_SCR_TAP	377000
TTM_SCR_BRK	156000
TTM_SCR_HLD	62000
TTM_SCR_SLD	201000
TTM_SCR_ALL	796000
TTM_SCR_S	766300
TTM_SCR_SS	790000
TTM_RAT_ACV	10075

