VERSION	0.00.00	1.04.00
FES_MODE	0
BPM_DEF	180.000	180.000	230.000	130.000
MET_DEF	4	4
RESOLUTION	384
CLK_DEF	384
COMPATIBLE_CODE	MA2

BPM	0	0	180.000
BPM	52	0	190.000
BPM	56	0	200.000
BPM	58	0	210.000
BPM	60	0	220.000
BPM	62	0	230.000
BPM	112	0	225.000
BPM	112	96	215.000
BPM	112	288	195.000
BPM	113	96	180.000
BPM	113	288	165.000
BPM	114	48	155.000
BPM	114	192	140.000
BPM	114	288	136.000
BPM	114	336	131.000
BPM	115	48	130.000
MET	0	0	4	4

NMHLD	2	0	2	672
NMTAP	2	0	4
NMTAP	2	96	4
NMTAP	2	192	4
NMTAP	2	288	4
NMHLD	3	0	3	96
NMTAP	3	192	3
NMTAP	3	288	4
NMTAP	4	0	3
NMHLD	4	0	5	480
NMTAP	4	96	3
NMTAP	4	192	3
NMTAP	4	288	3
NMHLD	5	0	4	96
EXTAP	5	192	2
EXTAP	5	192	6
EXTAP	5	288	3
EXTAP	5	288	6
NMTAP	6	0	4
NMHLD	6	0	5	96
NMTAP	6	96	4
NMHLD	6	192	3	96
NMTAP	6	192	4
NMTAP	6	288	4
NMTAP	7	0	2
NMHLD	7	0	3	96
NMTAP	7	96	2
NMHLD	7	192	1	96
NMTAP	7	192	2
NMTAP	7	288	2
NMTAP	8	0	0
NMTAP	8	96	0
NMTAP	8	192	7
NMSTR	8	288	0
NMSCR	8	288	0	96	192	3
NMSTR	8	288	6
NMSCL	8	288	6	96	192	3
EXTAP	9	288	2
EXTAP	9	288	4
NMHLD	10	0	3	576
NMTAP	10	0	4
EXTAP	11	0	7
EXTAP	11	96	6
EXTAP	11	192	5
BXTAP	11	288	1
BXTAP	11	288	7
NMTAP	12	0	2
NMTAP	12	64	2
NMTAP	12	96	3
NMTAP	12	192	5
NMTAP	12	256	5
NMTAP	12	288	4
NMTAP	13	0	1
NMTAP	13	64	1
NMTAP	13	96	3
NMTAP	13	192	2
NMTAP	13	192	4
NMTAP	13	288	3
NMTAP	13	288	5
NMTAP	14	0	5
NMTAP	14	64	5
NMTAP	14	96	4
NMTAP	14	160	4
NMTAP	14	192	6
NMTAP	14	256	6
NMTAP	14	288	0
NMTAP	14	352	0
NMTAP	15	0	7
NMTAP	15	96	1
NMTAP	15	96	5
NMTAP	15	192	2
NMTAP	15	192	3
NMTAP	15	288	3
NMTAP	15	288	4
NMTAP	16	0	6
NMTAP	16	64	6
NMTAP	16	96	4
NMTAP	16	192	2
NMTAP	16	256	2
NMTAP	16	288	3
NMTAP	17	0	5
NMTAP	17	64	5
NMTAP	17	96	4
NMTAP	17	192	2
NMTAP	17	192	3
NMTAP	17	288	1
NMTAP	17	288	4
BRTAP	18	0	1
NMTAP	18	64	1
NMTAP	18	96	3
NMTAP	18	160	3
NMTAP	18	192	2
NMTAP	18	256	2
NMTAP	18	288	4
NMTAP	18	352	4
NMSTR	19	0	3
NMSI_	19	0	3	96	96	0
NMSI_	19	0	3	96	96	6
EXTAP	19	288	7
NMHLD	20	0	0	96
NMSTR	20	0	1
NMSI_	20	0	1	96	48	4
NMSTR	20	192	6
NMSI_	20	192	6	96	48	3
NMHLD	20	192	7	96
NMHLD	21	0	0	96
NMSTR	21	0	1
NMSCR	21	0	1	96	48	4
NMTAP	21	192	6
NMTAP	21	192	7
NMTAP	21	288	0
NMTAP	21	288	5
NMSTR	22	0	2
NMSI_	22	0	2	96	48	7
NMHLD	22	0	3	96
NMHLD	22	192	4	96
NMSTR	22	192	5
NMSI_	22	192	5	96	48	0
NMSTR	23	0	2
NMSCL	23	0	2	96	48	7
NMHLD	23	0	3	96
NMTAP	23	192	5
NMTAP	23	288	4
NMTAP	23	288	6
NMTAP	24	0	6
NMTAP	24	64	6
NMTAP	24	96	7
NMTAP	24	192	1
NMTAP	24	256	1
NMTAP	24	288	0
NMTAP	25	0	6
NMTAP	25	64	6
NMTAP	25	96	4
NMTAP	25	192	3
NMTAP	25	192	4
BRTAP	25	288	0
NMTAP	26	0	1
NMTAP	26	64	1
NMTAP	26	96	3
NMTAP	26	192	5
NMTAP	26	256	5
NMTAP	26	288	4
NMTAP	27	0	6
NMTAP	27	0	7
NMTAP	27	96	0
NMTAP	27	96	1
EXTAP	27	192	2
EXTAP	27	192	3
BRTAP	27	288	0
BRTAP	27	288	6
NMTAP	28	0	5
NMTAP	28	64	5
NMTAP	28	96	3
NMTAP	28	160	3
NMTAP	28	192	4
NMTAP	28	256	4
EXTAP	28	288	2
NMHLD	29	0	2	64
NMHLD	29	0	4	64
NMHLD	29	96	3	64
NMHLD	29	96	5	64
NMHLD	29	192	4	64
NMHLD	29	192	6	64
EXTAP	29	288	3
EXTAP	29	288	7
EXTAP	30	0	1
EXTAP	30	32	0
EXTAP	30	64	1
EXTAP	30	96	0
EXTAP	30	192	6
EXTAP	30	224	7
EXTAP	30	256	6
EXTAP	30	288	7
NMSTR	31	0	0
NMSF_	31	0	0	96	96	4
NMTAP	31	0	7
BRTAP	31	288	2
BRTAP	31	288	6
NMHLD	32	0	5	64
NMTAP	32	64	4
NMTAP	32	96	6
NMTAP	32	160	6
NMHLD	32	192	2	64
NMTAP	32	256	3
NMTAP	32	288	1
NMTAP	32	352	1
BRTAP	33	0	7
EXTAP	33	96	5
EXTAP	33	128	5
EXTAP	33	160	4
EXTAP	33	192	6
NMTAP	33	288	1
NMTAP	33	288	7
NMTAP	34	0	0
NMTAP	34	0	5
EXTAP	34	96	2
EXTAP	34	128	2
EXTAP	34	160	3
EXTAP	34	192	1
NMTAP	34	288	0
NMSTR	34	288	6
NMSI_	34	288	6	96	48	3
NMSTR	35	0	2
NMSI_	35	0	2	96	48	5
NMSTR	35	96	7
NMSI_	35	96	7	96	48	3
NMTAP	35	192	0
BRTAP	35	288	1
BRTAP	35	288	5
NMHLD	36	0	2	64
NMTAP	36	64	3
NMTAP	36	96	1
NMTAP	36	160	1
NMHLD	36	192	5	64
NMTAP	36	256	4
NMTAP	36	288	6
NMTAP	36	352	6
BRTAP	37	0	0
EXTAP	37	96	2
EXTAP	37	128	2
EXTAP	37	160	3
EXTAP	37	192	1
BRTAP	37	288	0
BRTAP	37	288	6
NMHLD	38	0	1	64
NMTAP	38	64	3
NMHLD	38	96	3	64
NMTAP	38	160	5
NMHLD	38	192	5	64
NMTAP	38	256	7
NMSTR	38	288	7
NMSCL	38	288	7	96	192	1
BRTAP	39	288	0
BRTAP	39	288	6
NMHLD	40	0	1	64
NMTAP	40	64	0
NMTAP	40	96	2
NMTAP	40	160	2
NMHLD	40	192	6	64
NMTAP	40	256	7
NMTAP	40	288	5
NMTAP	40	352	5
NMSTR	41	0	0
NMSI_	41	0	0	96	48	4
NMSTR	41	96	6
NMSI_	41	96	6	96	48	2
NMTAP	41	192	0
BRTAP	41	288	1
BRTAP	41	288	3
NMHLD	42	0	2	64
NMTAP	42	64	3
NMTAP	42	96	1
NMTAP	42	160	1
NMTAP	42	192	7
NMTAP	42	256	7
NMHLD	42	288	0	96
EXTAP	43	0	6
EXTAP	43	32	6
EXTAP	43	64	6
EXTAP	43	96	6
EXTAP	43	96	7
NMTAP	43	192	3
NMTAP	43	192	4
BRTAP	43	288	0
BRTAP	43	288	5
NMSTR	44	0	1
NMSI_	44	0	1	96	48	4
NMSTR	44	96	5
NMSI_	44	96	5	96	48	0
NMTAP	44	192	3
EXTAP	44	288	1
EXTAP	44	288	7
NMSTR	45	0	6
NMSI_	45	0	6	96	48	3
NMSTR	45	96	2
NMSI_	45	96	2	96	48	7
NMTAP	45	192	4
EXTAP	45	288	0
EXTAP	45	288	6
EXTAP	46	0	0
EXTAP	46	32	7
EXTAP	46	64	0
EXTAP	46	96	7
EXTAP	46	128	0
EXTAP	46	160	7
EXTAP	46	192	1
EXTAP	46	224	6
EXTAP	46	256	1
EXTAP	46	288	6
EXTAP	46	320	1
EXTAP	46	352	6
BXSTR	47	0	2
BRSF_	47	0	2	96	96	6
NMTAP	48	0	4
NMTAP	48	0	6
NMHLD	48	96	4	480
NMSTR	48	96	6
NMSSL	48	96	6	96	384	2
NMTAP	50	0	1
NMTAP	50	0	3
NMSTR	50	96	1
NMSSR	50	96	1	96	384	5
NMHLD	50	96	3	480
NMTAP	52	0	4
NMTAP	52	0	6
NMSTR	52	96	4
NMSUL	52	96	4	96	480	2
NMTAP	52	96	6
NMTAP	54	0	1
NMTAP	54	0	3
NMTAP	54	96	1
NMSTR	54	96	3
NMSUR	54	96	3	96	480	5
EXTAP	56	0	6
EXHLD	56	96	6	192
NMTAP	56	192	4
NMHLD	56	288	4	192
NMTAP	57	0	3
NMHLD	57	96	3	192
NMTAP	57	192	1
NMTAP	57	288	1
EXTAP	58	0	0
EXTAP	58	0	4
EXHLD	58	96	0	192
EXTAP	58	96	4
NMTAP	58	192	2
NMHLD	58	288	2	192
NMTAP	59	0	4
NMHLD	59	96	4	192
NMTAP	59	192	6
NMTAP	59	288	6
NMHLD	60	0	7	96
NMHLD	60	96	6	96
NMHLD	60	192	5	96
NMHLD	60	288	4	96
NMHLD	61	0	3	96
NMHLD	61	96	2	96
NMHLD	61	192	1	96
NMHLD	61	288	0	96
NMHLD	62	0	7	96
NMHLD	62	96	6	96
NMHLD	62	192	5	96
NMHLD	62	288	4	96
BRTAP	63	0	3
BRTAP	63	96	3
BRHLD	63	192	1	96
BRHLD	63	192	5	96
NMTAP	64	0	2
NMTAP	64	96	1
NMTAP	64	96	3
NMTAP	64	144	1
NMTAP	64	144	3
NMTAP	64	240	2
NMTAP	64	240	4
NMTAP	64	288	2
NMTAP	64	288	4
NMTAP	65	0	5
NMTAP	65	96	4
NMTAP	65	96	6
NMTAP	65	144	4
NMTAP	65	144	6
NMTAP	65	240	3
NMTAP	65	240	5
NMTAP	65	288	3
NMTAP	65	288	5
NMHLD	66	0	1	96
NMTAP	66	96	0
NMTAP	66	144	0
NMTAP	66	240	1
NMHLD	66	240	7	96
NMHLD	66	336	6	96
NMHLD	67	48	5	96
NMTAP	67	144	4
NMTAP	67	240	3
NMTAP	67	240	4
NMTAP	67	288	3
NMTAP	67	288	4
NMTAP	68	0	2
NMTAP	68	0	3
NMTAP	68	96	1
NMTAP	68	96	4
NMHLD	68	144	1	144
NMTAP	68	144	4
NMTAP	68	240	3
NMTAP	68	288	3
NMTAP	69	0	4
NMTAP	69	0	5
NMTAP	69	96	3
NMTAP	69	96	6
NMTAP	69	144	3
NMHLD	69	144	6	144
NMTAP	69	240	4
NMTAP	69	288	4
EXTAP	70	0	1
EXTAP	70	48	1
EXTAP	70	96	0
EXTAP	70	96	1
EXTAP	70	192	6
EXTAP	70	240	6
EXSTR	70	288	6
NMSXR	70	288	6	96	240	3
EXSTR	70	288	7
NMSXL	70	288	7	96	240	2
NMHLD	72	0	1	96
NMHLD	72	96	2	96
NMHLD	72	192	3	96
NMHLD	72	288	4	96
NMHLD	73	0	5	96
NMHLD	73	96	6	96
NMTAP	73	192	7
NMTAP	73	288	6
NMTAP	73	288	7
NMHLD	74	0	6	96
NMTAP	74	0	7
NMHLD	74	96	5	96
NMHLD	74	192	4	96
NMHLD	74	288	3	96
NMHLD	75	0	2	96
NMHLD	75	96	1	96
NMTAP	75	192	0
NMTAP	75	288	0
NMTAP	75	288	1
NMHLD	76	0	2	144
NMHLD	76	0	3	144
NMTAP	76	192	2
NMTAP	76	192	3
BRTAP	76	288	1
BRTAP	76	288	4
NMHLD	77	0	4	144
NMHLD	77	0	5	144
NMTAP	77	192	4
NMTAP	77	192	5
BRTAP	77	288	3
BRTAP	77	288	6
NMTHO	78	0	0	384	C	0	M1
EXTAP	79	192	0
EXTAP	79	192	7
BRTAP	79	288	1
BRTAP	79	288	6
NMTAP	80	0	4
NMTAP	80	0	5
NMTAP	80	96	1
NMTAP	80	96	3
NMSTR	80	144	1
NMSI_	80	144	1	96	48	4
NMTAP	80	144	3
NMTAP	80	240	0
NMSTR	80	336	6
NMSI_	80	336	6	96	48	3
NMTAP	81	48	7
NMTAP	81	144	0
NMTAP	81	240	1
NMTAP	81	240	7
NMTAP	81	288	1
NMTAP	81	288	7
NMTAP	82	0	3
NMTAP	82	0	5
NMTAP	82	48	3
NMTAP	82	48	5
NMTAP	82	144	6
NMTAP	82	144	7
NMTAP	82	240	0
NMTAP	82	240	1
NMTAP	82	336	4
NMTAP	82	336	6
NMTAP	83	48	2
NMTAP	83	48	3
NMTAP	83	144	1
NMTAP	83	144	7
BRTAP	83	240	0
BRTAP	83	240	4
BRTAP	83	288	0
BRTAP	83	288	4
NMTAP	84	0	2
NMTAP	84	0	3
NMTAP	84	96	4
NMTAP	84	96	6
NMTAP	84	144	4
NMSTR	84	144	6
NMSI_	84	144	6	96	48	3
NMTAP	84	240	7
NMSTR	84	336	1
NMSI_	84	336	1	96	48	4
NMTAP	85	48	0
NMTAP	85	144	7
NMTAP	85	240	0
NMTAP	85	240	6
NMTAP	85	288	0
NMTAP	85	288	6
NMTAP	86	0	1
NMTAP	86	0	3
NMTAP	86	48	1
NMTAP	86	48	3
NMTAP	86	96	1
NMTAP	86	96	3
NMTAP	86	192	4
NMTAP	86	192	6
NMTAP	86	240	4
NMTAP	86	240	6
NMTAP	86	288	4
NMTAP	86	288	6
NMTAP	87	0	0
NMTAP	87	0	1
NMTAP	87	48	0
NMTAP	87	48	1
NMSTR	87	96	0
BRSF_	87	96	0	96	96	4
NMTAP	87	96	1
EXSTR	88	0	7
NMSI_	88	0	7	96	48	5
NMSTR	88	96	0
NMSI_	88	96	0	96	48	4
NMSTR	88	192	7
NMSI_	88	192	7	96	48	3
NMTAP	88	288	2
NMSTR	89	0	0
NMSI_	89	0	0	96	48	2
NMSTR	89	96	7
NMSI_	89	96	7	96	48	3
NMSTR	89	192	0
NMSI_	89	192	0	96	48	4
NMTAP	89	288	5
NMSTR	90	0	7
NMSI_	90	0	7	96	48	5
NMSTR	90	96	0
NMSI_	90	96	0	96	48	4
NMSTR	90	192	7
NMSI_	90	192	7	96	48	3
NMTAP	90	288	2
NMTAP	91	0	0
NMTAP	91	0	1
NMTAP	91	48	0
NMTAP	91	48	1
BRTAP	91	96	0
BRTAP	91	96	1
NMTAP	91	192	6
NMTAP	91	192	7
NMTAP	91	240	6
NMTAP	91	240	7
BRTAP	91	288	6
BRTAP	91	288	7
NMHLD	92	0	5	96
NMTAP	92	96	4
NMTAP	92	144	4
NMTAP	92	192	3
NMTAP	92	192	6
BRTAP	92	288	0
BRTAP	92	288	1
NMHLD	93	0	2	96
NMTAP	93	96	3
NMTAP	93	144	3
NMTAP	93	192	1
NMTAP	93	192	4
BRTAP	93	288	6
BRTAP	93	288	7
NMTAP	94	0	4
NMTAP	94	0	5
NMTAP	94	96	2
NMTAP	94	96	3
NMTAP	94	192	0
NMTAP	94	192	1
NMTAP	94	288	2
NMTAP	94	288	7
EXTAP	95	0	4
EXTAP	95	0	6
EXTAP	95	96	0
EXTAP	95	96	7
EXTAP	95	192	1
EXTAP	95	192	4
EXTAP	95	288	1
EXTAP	95	288	4
BRTAP	96	0	2
NMTAP	96	48	2
NMTAP	96	96	3
NMTAP	96	144	1
NMTAP	96	192	5
NMTAP	96	240	5
NMTAP	96	288	4
NMTAP	96	336	6
NMTAP	97	0	0
NMTAP	97	48	0
NMTAP	97	96	6
NMTAP	97	144	6
NMTAP	97	192	1
NMTAP	97	240	1
NMTAP	97	288	7
NMTAP	97	336	7
NMTAP	98	0	2
NMTAP	98	48	2
NMTAP	98	96	4
NMTAP	98	144	4
NMTAP	98	192	3
NMTAP	98	240	3
NMTAP	98	288	5
NMTAP	98	336	5
NMTAP	99	0	1
NMTAP	99	48	1
NMTAP	99	96	3
NMTAP	99	144	3
NMTAP	99	192	4
NMTAP	99	240	4
NMTAP	99	288	6
NMTAP	99	336	6
NMTAP	100	0	4
NMTAP	100	48	4
NMTAP	100	96	2
NMTAP	100	144	2
NMTAP	100	192	0
NMTAP	100	240	0
NMTAP	100	288	6
NMTAP	100	336	6
NMTAP	101	0	0
NMTAP	101	48	0
NMTAP	101	96	2
NMTAP	101	144	2
NMTAP	101	192	4
NMTAP	101	240	4
NMTAP	101	288	6
NMTAP	101	336	6
NMTAP	102	0	6
NMTAP	102	0	7
NMTAP	102	48	6
NMTAP	102	48	7
BRTAP	102	96	0
BRTAP	102	96	5
NMTAP	102	192	1
NMTAP	102	192	7
NMTAP	102	240	1
NMTAP	102	240	7
BRTAP	102	288	1
BRSTR	102	288	7
BRSV_	102	288	7	96	192	2
BRSV_	102	288	7	96	192	4
BXTAP	103	288	1
BXTAP	103	288	5
NMHLD	104	0	2	672
NMTAP	104	0	4
NMTAP	104	96	4
NMTAP	104	192	4
NMTAP	104	288	4
NMTAP	105	0	3
NMTAP	105	96	3
NMTAP	105	192	1
NMTAP	105	288	3
NMTAP	106	0	4
NMHLD	106	0	5	480
NMTAP	106	96	4
NMTAP	106	192	4
NMTAP	106	288	4
NMTAP	107	0	6
NMTAP	107	96	0
NMTAP	107	192	1
NMTAP	107	192	4
NMTAP	107	240	1
NMTAP	107	240	4
NMTAP	107	288	1
NMTAP	107	288	4
NMTAP	108	0	2
NMTAP	108	48	2
NMTAP	108	96	3
NMTAP	108	144	1
NMTAP	108	192	7
NMTAP	108	240	7
NMTAP	108	288	0
NMTAP	108	288	6
NMTAP	109	0	5
NMTAP	109	48	5
NMTAP	109	96	4
NMTAP	109	144	6
NMTAP	109	192	0
NMTAP	109	240	0
NMTAP	109	288	1
NMTAP	109	288	7
NMTAP	110	0	0
NMTAP	110	48	0
NMTAP	110	96	7
NMTAP	110	144	7
EXTAP	110	192	0
EXTAP	110	216	7
EXTAP	110	240	0
EXTAP	110	264	7
EXTAP	110	288	0
EXTAP	110	312	7
EXTAP	110	336	0
EXTAP	110	360	7
BXSTR	111	0	0
BRSF_	111	0	0	96	96	4
BRTAP	111	288	1
BRTAP	111	288	7
EXHLD	112	0	2	96
EXHLD	112	0	6	96
EXHLD	112	192	3	96
EXHLD	112	192	5	96
EXHLD	113	0	4	96
EXTAP	113	192	4
EXTAP	113	288	4
NMTTP	114	0	3	B	0	M1
NMTTP	114	96	2	B	0	M1
NMTTP	114	96	4	B	0	M1
NMTTP	114	192	1	B	0	M1
NMTTP	114	192	5	B	0	M1
NMTTP	114	288	0	B	0	M1
NMTTP	114	288	6	B	0	M1
NMTTP	115	0	7	E	0	M1
NMTTP	115	48	1	E	0	M1
NMTTP	115	96	6	E	0	M1
NMTTP	115	144	2	E	0	M1
NMTHO	115	192	0	192	C	1	M1
NMTTP	116	0	0	B	0	M1
NMTTP	116	0	1	B	0	M1
NMTTP	116	0	6	B	0	M1
NMTTP	116	0	7	B	0	M1

T_REC_TAP	388
T_REC_BRK	44
T_REC_XTP	86
T_REC_BXX	4
T_REC_HLD	76
T_REC_XHO	7
T_REC_BHO	2
T_REC_BXH	0
T_REC_STR	37
T_REC_BST	1
T_REC_XST	3
T_REC_XBS	2
T_REC_TTP	15
T_REC_THO	2
T_REC_SLD	40
T_REC_BSL	5
T_REC_ALL	712
T_NUM_TAP	529
T_NUM_BRK	58
T_NUM_HLD	85
T_NUM_SLD	40
T_NUM_ALL	712
T_JUDGE_TAP	580
T_JUDGE_HLD	266
T_JUDGE_SLD	45
T_JUDGE_ALL	891
TTM_EACHPAIRS	155
TTM_SCR_TAP	264500
TTM_SCR_BRK	150800
TTM_SCR_HLD	85000
TTM_SCR_SLD	60000
TTM_SCR_ALL	560300
TTM_SCR_S	537900
TTM_SCR_SS	554500
TTM_RAT_ACV	10104

