VERSION	0.00.00	1.04.00
FES_MODE	0
BPM_DEF	180.000	180.000	230.000	130.000
MET_DEF	4	4
RESOLUTION	384
CLK_DEF	384
COMPATIBLE_CODE	MA2

BPM	0	0	180.000
BPM	52	0	190.000
BPM	56	0	200.000
BPM	58	0	210.000
BPM	60	0	220.000
BPM	62	0	230.000
BPM	112	0	225.000
BPM	112	96	215.000
BPM	112	288	195.000
BPM	113	96	180.000
BPM	113	288	165.000
BPM	114	48	155.000
BPM	114	192	140.000
BPM	114	288	136.000
BPM	114	336	131.000
BPM	115	48	130.000
MET	0	0	4	4

NMHLD	2	0	2	192
NMHLD	2	192	3	192
NMHLD	3	0	4	192
NMTAP	3	192	5
NMHLD	4	0	5	192
NMHLD	4	192	4	192
NMHLD	5	0	3	192
NMTAP	5	192	2
NMHLD	6	0	1	192
NMHLD	6	192	2	192
NMHLD	7	0	3	192
NMTAP	7	192	4
NMHLD	8	0	6	192
NMHLD	8	192	5	192
NMHLD	9	0	4	192
NMTAP	9	192	3
NMHLD	10	0	2	192
NMHLD	10	0	4	192
NMHLD	11	0	3	192
NMHLD	11	0	5	192
NMTAP	12	0	5
NMTAP	12	96	5
NMTAP	12	192	4
NMTAP	12	192	5
NMTAP	13	0	6
NMTAP	13	96	6
NMTAP	13	192	6
NMTAP	13	192	7
NMTAP	14	0	0
NMTAP	14	96	0
NMTAP	14	192	0
NMTAP	14	192	1
NMTAP	15	0	2
NMTAP	15	0	3
NMTAP	15	96	2
NMTAP	15	96	3
NMTAP	15	192	2
NMTAP	15	192	3
NMTAP	16	0	2
NMTAP	16	96	2
NMTAP	16	192	2
NMTAP	16	192	3
NMTAP	17	0	1
NMTAP	17	96	1
NMTAP	17	192	0
NMTAP	17	192	1
NMTAP	18	0	7
NMTAP	18	96	7
NMTAP	18	192	6
NMTAP	18	192	7
NMTAP	19	0	4
NMTAP	19	0	5
NMTAP	19	96	4
NMTAP	19	96	5
NMTAP	19	192	4
NMTAP	19	192	5
NMTTP	20	0	4	B	0	L1
NMTTP	20	0	5	B	0	L1
NMTTP	20	192	6	B	0	L1
NMTTP	20	192	7	B	0	L1
NMTTP	21	0	0	B	0	L1
NMTTP	21	0	1	B	0	L1
NMTTP	21	192	2	B	0	L1
NMTTP	21	192	3	B	0	L1
NMTTP	22	0	6	B	0	L1
NMTTP	22	96	5	B	0	L1
NMTTP	22	192	4	B	0	L1
NMTTP	22	288	3	B	0	L1
NMTTP	23	0	2	B	0	L1
NMTTP	23	96	1	B	0	L1
NMTTP	23	192	0	C	0	L1
NMTAP	24	0	6
NMTAP	24	96	6
NMTAP	24	192	6
NMTAP	25	0	5
NMTAP	25	96	5
NMTAP	25	192	5
NMTAP	26	0	4
NMTAP	26	96	4
NMTAP	26	192	4
NMTAP	27	0	2
NMTAP	27	0	3
NMTAP	27	192	2
NMTAP	27	192	3
NMTAP	28	0	1
NMTAP	28	96	1
NMTAP	28	192	1
NMTAP	29	0	2
NMTAP	29	96	2
NMTAP	29	192	2
NMTAP	30	0	3
NMTAP	30	96	3
NMTAP	30	192	3
NMTAP	31	0	3
NMTAP	31	0	4
NMTAP	31	192	3
NMTAP	31	192	4
NMTAP	32	0	2
NMTAP	32	96	2
NMTAP	32	192	1
NMTAP	32	288	1
NMTAP	33	0	0
NMTAP	33	96	0
NMTAP	33	192	6
NMTAP	33	192	7
NMTAP	34	0	5
NMTAP	34	96	5
NMTAP	34	192	6
NMTAP	34	288	6
NMTAP	35	0	7
NMTAP	35	96	7
NMTAP	35	192	0
NMTAP	35	192	1
NMTAP	36	0	1
NMTAP	36	96	1
NMTAP	36	192	2
NMTAP	36	288	2
NMTAP	37	0	3
NMTAP	37	96	3
NMTAP	37	192	4
NMTAP	37	192	5
NMTAP	38	0	6
NMTAP	38	96	6
NMTAP	38	192	5
NMTAP	38	288	5
NMTAP	39	0	4
NMTAP	39	96	4
NMTAP	39	192	2
NMTAP	39	192	3
NMTAP	40	0	2
NMTAP	40	96	2
NMTAP	40	192	0
NMTAP	40	192	1
NMTAP	40	288	0
NMTAP	40	288	1
NMTAP	41	0	7
NMTAP	41	96	7
NMTAP	41	192	6
NMTAP	41	192	7
NMTAP	42	0	5
NMTAP	42	96	5
NMTAP	42	192	6
NMTAP	42	192	7
NMTAP	42	288	6
NMTAP	42	288	7
NMTAP	43	0	0
NMTAP	43	96	0
NMTAP	43	192	0
NMTAP	43	192	1
NMTAP	44	0	1
NMTAP	44	96	1
NMTAP	44	192	2
NMTAP	44	192	3
NMTAP	44	288	2
NMTAP	44	288	3
NMTAP	45	0	4
NMTAP	45	96	4
NMTAP	45	192	4
NMTAP	45	192	5
NMTAP	46	0	6
NMTAP	46	96	6
NMTAP	46	192	4
NMTAP	46	192	5
NMTAP	46	288	4
NMTAP	46	288	5
NMTAP	47	0	3
NMTAP	47	96	3
NMTAP	47	192	2
NMTAP	47	192	4
EXTAP	48	0	2
EXSTR	48	96	2
NMSI_	48	96	2	96	384	5
EXTAP	50	0	6
EXSTR	50	96	6
NMSI_	50	96	6	96	384	2
EXTAP	52	0	1
EXSTR	52	96	1
NMSI_	52	96	1	96	384	5
EXTAP	54	0	7
EXSTR	54	96	7
NMSI_	54	96	7	96	384	3
EXTAP	56	0	1
EXSTR	56	96	1
NMSI_	56	96	1	96	384	5
EXTAP	58	0	6
EXSTR	58	96	6
NMSI_	58	96	6	96	384	2
EXTAP	60	0	0
EXSTR	60	96	0
NMSI_	60	96	0	96	384	4
EXTAP	62	0	5
EXSTR	62	96	5
NMSI_	62	96	5	96	384	2
EXTAP	64	0	1
EXTAP	64	96	1
EXTAP	64	192	1
NMTAP	65	0	2
NMTAP	65	96	2
NMTAP	65	192	2
NMTAP	66	0	3
NMTAP	66	96	3
NMTAP	66	192	3
NMTAP	67	0	4
NMTAP	67	0	5
NMTAP	67	96	4
NMTAP	67	96	5
NMTAP	67	192	4
NMTAP	67	192	5
EXTAP	68	0	6
EXTAP	68	96	6
EXTAP	68	192	6
NMTAP	69	0	5
NMTAP	69	96	5
NMTAP	69	192	5
NMTAP	70	0	4
NMTAP	70	96	4
NMTAP	70	192	4
BXTAP	71	0	2
BXTAP	71	0	3
NMTTP	72	0	2	B	0	L1
NMTTP	72	0	3	B	0	L1
NMTTP	72	192	0	B	0	L1
NMTTP	72	192	1	B	0	L1
NMTTP	73	0	6	B	0	L1
NMTTP	73	0	7	B	0	L1
NMTTP	73	192	4	B	0	L1
NMTTP	73	192	5	B	0	L1
NMTTP	74	0	1	B	0	L1
NMTTP	74	96	2	B	0	L1
NMTTP	74	192	3	B	0	L1
NMTTP	75	0	6	B	0	L1
NMTTP	75	96	5	B	0	L1
NMTTP	75	192	4	B	0	L1
NMTTP	76	0	2	E	0	L1
NMTTP	76	0	3	E	0	L1
NMTTP	76	192	0	E	0	L1
NMTTP	76	192	1	E	0	L1
NMTTP	77	0	6	E	0	L1
NMTTP	77	0	7	E	0	L1
NMTTP	77	192	4	E	0	L1
NMTTP	77	192	5	E	0	L1
NMTHO	78	0	0	384	C	0	L1
BRTAP	80	0	1
NMTAP	80	96	1
NMTAP	80	192	0
NMTAP	80	192	1
NMTAP	80	288	0
NMTAP	80	288	1
NMTAP	81	0	7
NMTAP	81	96	7
NMTAP	81	192	6
NMTAP	81	192	7
NMTAP	82	0	5
NMTAP	82	96	5
NMTAP	82	192	6
NMTAP	82	192	7
NMTAP	82	288	6
NMTAP	82	288	7
NMTAP	83	0	0
NMTAP	83	96	0
NMTAP	83	192	0
NMTAP	83	192	1
NMTAP	84	0	1
NMTAP	84	96	1
NMTAP	84	192	2
NMTAP	84	192	3
NMTAP	84	288	2
NMTAP	84	288	3
NMTAP	85	0	4
NMTAP	85	96	4
NMTAP	85	192	4
NMTAP	85	192	5
NMTAP	86	0	6
NMTAP	86	96	6
NMTAP	86	192	4
NMTAP	86	192	5
NMTAP	86	288	4
NMTAP	86	288	5
NMTAP	87	0	3
NMTAP	87	96	3
NMTAP	87	192	2
NMTAP	87	192	3
NMTAP	88	0	2
NMTAP	88	48	2
NMTAP	88	96	2
NMTAP	88	192	1
NMTAP	88	288	1
NMTAP	89	0	0
NMTAP	89	48	0
NMTAP	89	96	0
NMTAP	89	192	6
NMTAP	89	192	7
NMTAP	90	0	5
NMTAP	90	48	5
NMTAP	90	96	5
NMTAP	90	192	6
NMTAP	90	288	6
NMTAP	91	0	7
NMTAP	91	48	7
NMTAP	91	96	7
NMTAP	91	192	0
NMTAP	91	192	1
NMTAP	92	0	1
NMTAP	92	48	1
NMTAP	92	96	1
NMTAP	92	192	2
NMTAP	92	288	2
NMTAP	93	0	3
NMTAP	93	48	3
NMTAP	93	96	3
NMTAP	93	192	4
NMTAP	93	192	5
NMTAP	94	0	6
NMTAP	94	48	6
NMTAP	94	96	6
NMTAP	94	192	5
NMTAP	94	288	5
NMTAP	95	0	4
NMTAP	95	48	4
NMTAP	95	96	4
NMTAP	95	192	2
NMTAP	95	192	3
NMTAP	96	0	2
NMTAP	96	48	2
NMTAP	96	96	2
NMTAP	96	192	0
NMTAP	96	192	1
NMTAP	96	288	0
NMTAP	96	288	1
NMTAP	97	0	7
NMTAP	97	48	7
NMTAP	97	96	7
NMTAP	97	192	6
NMTAP	97	192	7
NMTAP	98	0	5
NMTAP	98	48	5
NMTAP	98	96	5
NMTAP	98	192	6
NMTAP	98	192	7
NMTAP	98	288	6
NMTAP	98	288	7
NMTAP	99	0	0
NMTAP	99	48	0
NMTAP	99	96	0
NMTAP	99	192	0
NMTAP	99	192	1
NMTAP	100	0	1
NMTAP	100	48	1
NMTAP	100	96	1
NMTAP	100	192	2
NMTAP	100	192	3
NMTAP	100	288	2
NMTAP	100	288	3
NMTAP	101	0	4
NMTAP	101	48	4
NMTAP	101	96	4
NMTAP	101	192	4
NMTAP	101	192	5
NMTAP	102	0	6
NMTAP	102	48	6
NMTAP	102	96	6
NMTAP	102	192	4
NMTAP	102	192	5
NMTAP	102	288	4
NMTAP	102	288	5
NMTAP	103	0	3
NMTAP	103	48	3
NMTAP	103	96	3
NMTAP	103	192	2
NMTAP	103	192	3
EXSTR	104	0	1
NMSI_	104	0	1	96	288	4
NMTAP	105	192	5
NMSTR	106	0	6
NMSI_	106	0	6	96	288	2
NMTAP	108	0	1
NMTAP	108	96	1
NMTAP	108	192	2
NMTAP	108	288	2
NMTAP	109	0	3
NMTAP	109	96	3
NMTAP	109	192	4
NMTAP	109	288	4
NMTAP	110	0	3
NMTAP	110	0	4
NMTAP	110	96	3
NMTAP	110	96	4
NMTAP	110	192	2
NMTAP	110	192	5
NMTAP	110	288	2
NMTAP	110	288	5
NMTAP	111	0	1
NMTAP	111	0	6
NMTAP	111	96	1
NMTAP	111	96	6
BRTAP	111	192	0
BRTAP	111	192	7
EXSTR	112	0	6
NMSXR	112	0	6	96	672	7
EXTAP	114	192	0
EXTAP	115	0	0
EXHLD	115	192	0	192
EXHLD	115	192	7	192

T_REC_TAP	304
T_REC_BRK	3
T_REC_XTP	16
T_REC_BXX	2
T_REC_HLD	16
T_REC_XHO	2
T_REC_BHO	0
T_REC_BXH	0
T_REC_STR	1
T_REC_BST	0
T_REC_XST	10
T_REC_XBS	0
T_REC_TTP	37
T_REC_THO	1
T_REC_SLD	11
T_REC_BSL	0
T_REC_ALL	403
T_NUM_TAP	368
T_NUM_BRK	5
T_NUM_HLD	19
T_NUM_SLD	11
T_NUM_ALL	403
T_JUDGE_TAP	373
T_JUDGE_HLD	80
T_JUDGE_SLD	11
T_JUDGE_ALL	464
TTM_EACHPAIRS	74
TTM_SCR_TAP	184000
TTM_SCR_BRK	13000
TTM_SCR_HLD	19000
TTM_SCR_SLD	16500
TTM_SCR_ALL	232500
TTM_SCR_S	225050
TTM_SCR_SS	232000
TTM_RAT_ACV	10021

