VERSION	0.00.00	1.04.00
FES_MODE	0
BPM_DEF	170.000	170.000	170.000	170.000
MET_DEF	4	4
RESOLUTION	384
CLK_DEF	384
COMPATIBLE_CODE	MA2

BPM	0	0	170.000
MET	0	0	4	4

NMTTP	1	0	0	C	1	M1
NMTTP	1	0	1	B	0	M1
NMTTP	1	0	2	E	0	M1
NMTTP	1	0	5	B	0	M1
NMTTP	1	0	6	E	0	M1
BRTAP	2	0	3
BRSTR	2	0	5
NMSI_	2	0	5	96	48	3
BRSTR	2	96	1
NMSI_	2	96	1	96	48	5
BRTAP	2	96	5
BRTAP	2	192	1
BRSTR	2	192	7
NMSF_	2	192	7	96	48	3
BRTAP	2	288	7
NMSTR	3	0	1
NMSCL	3	0	1	96	480	2
NMHLD	3	0	5	144
NMTAP	4	288	4
NMHLD	5	0	3	144
NMSTR	5	0	5
NMSXL	5	0	5	96	240	4
NMTAP	6	0	2
NMTAP	6	0	3
NMTAP	6	144	3
NMTAP	6	144	4
NMTAP	6	288	4
NMTAP	6	288	5
NMTAP	7	0	6
NMHLD	7	48	6	72
NMTAP	7	120	4
NMHLD	7	192	5	72
NMTAP	7	264	3
NMTAP	7	336	3
NMTAP	7	336	4
NMTTP	8	24	2	E	0	M1
NMTTP	8	96	3	E	0	M1
NMTTP	8	168	4	E	0	M1
NMTTP	8	240	5	E	0	M1
NMTTP	8	312	6	E	0	M1
NMTAP	9	0	1
NMHLD	9	48	1	72
NMTAP	9	120	3
NMHLD	9	192	2	72
NMTAP	9	264	4
NMTAP	9	336	3
EXSTR	10	0	3
NMSI_	10	0	3	96	48	1
EXSTR	10	0	4
NMSI_	10	0	4	96	48	0
EXTAP	10	96	3
EXTAP	10	96	4
EXSTR	10	192	6
NMSI_	10	192	6	96	48	4
EXSTR	10	192	7
NMSI_	10	192	7	96	48	3
BRTAP	10	288	6
BRTAP	10	288	7
EXTAP	11	0	0
NMTAP	11	96	0
NMTAP	11	96	3
NMTAP	11	144	3
NMTAP	11	192	1
NMSTR	11	192	4
NMSI_	11	192	4	96	48	7
NMTAP	11	288	1
EXTAP	12	0	2
NMTAP	12	96	2
NMTAP	12	96	4
NMTAP	12	144	5
NMTAP	12	192	3
NMTAP	12	192	6
NMTAP	12	240	5
NMTAP	12	288	3
NMTAP	12	288	4
NMTAP	12	336	2
EXTAP	13	0	4
NMTAP	13	48	1
NMTAP	13	96	2
NMTAP	13	96	4
NMTAP	13	144	3
NMSTR	13	192	3
NMSI_	13	192	3	96	48	0
NMTAP	13	192	5
NMTAP	13	288	5
EXTAP	14	0	6
NMTAP	14	96	4
NMTAP	14	96	6
NMTAP	14	144	3
NMTAP	14	192	2
NMTAP	14	192	7
NMTAP	14	240	6
NMTAP	14	288	0
NMTAP	14	288	7
NMTAP	14	336	1
EXTAP	15	0	0
NMTAP	15	48	6
NMTAP	15	96	1
NMTAP	15	96	5
NMTAP	15	144	2
NMSTR	15	192	2
NMSV_	15	192	2	96	48	7
EXTAP	15	192	7
NMTAP	15	288	6
EXTAP	16	0	1
NMTAP	16	96	2
NMTAP	16	96	4
NMTAP	16	144	5
NMTAP	16	192	3
EXTAP	16	192	6
NMTAP	16	240	2
NMTAP	16	288	1
NMTAP	16	288	5
NMTAP	16	336	4
EXTAP	17	0	2
NMTAP	17	48	3
NMTAP	17	96	4
NMTAP	17	96	6
NMTAP	17	144	2
NMTAP	17	192	0
EXSTR	17	192	5
NMSV_	17	192	5	96	48	0
NMTAP	17	288	4
NMTTP	18	0	6	B	0	M1
NMTTP	18	0	7	B	0	M1
NMTTP	18	0	7	E	1	M1
NMSTR	18	192	3
NMSV_	18	192	3	96	48	0
NMSTR	18	192	7
NMSI_	18	192	7	96	48	4
BRTAP	18	288	3
BRTAP	18	288	7
NMHLD	19	0	1	1152
NMTTP	19	96	4	E	0	M1
NMTTP	19	192	5	E	0	M1
NMTTP	19	288	6	E	0	M1
NMTTP	20	0	7	E	0	M1
NMTTP	20	96	0	E	0	M1
NMTTP	20	192	1	E	0	M1
NMTTP	20	288	2	E	0	M1
NMTTP	21	0	3	E	0	M1
NMTTP	21	96	4	E	0	M1
NMTTP	21	192	5	E	0	M1
NMTTP	21	288	6	E	0	M1
NMSTR	22	0	7
NMSCL	22	0	7	96	48	4
NMSTR	22	96	2
NMSCL	22	96	2	96	48	7
NMSTR	22	192	5
NMSCL	22	192	5	96	48	2
BRTAP	22	288	0
NMTAP	23	0	1
NMTAP	23	48	1
NMTAP	23	96	2
NMTAP	23	96	3
NMHLD	23	192	1	72
NMHLD	23	264	3	72
NMTAP	23	336	2
NMTAP	24	0	6
NMTAP	24	48	6
NMTAP	24	96	4
NMTAP	24	96	5
NMHLD	24	192	6	72
NMHLD	24	264	4	72
NMTAP	24	336	5
BRHLD	25	0	3	288
BRHLD	25	0	4	288
EXSTR	26	0	2
NMSI_	26	0	2	96	48	7
EXTAP	26	96	2
EXSTR	26	96	6
NMSI_	26	96	6	96	48	3
EXSTR	26	192	1
BRSCL	26	192	1	96	96	2
EXTAP	26	192	6
NMTTP	26	288	0	C	1	M1
EXTAP	27	0	7
EXTAP	27	48	7
NMTAP	27	96	0
NMTAP	27	96	6
NMHLD	27	192	1	72
NMHLD	27	264	2	72
NMTAP	27	336	3
NMTAP	28	0	5
NMTAP	28	48	4
NMTAP	28	48	5
NMTAP	28	96	2
NMTAP	28	120	3
NMTAP	28	144	1
NMHLD	28	192	7	72
NMHLD	28	264	6	72
NMTAP	28	336	5
NMTAP	29	0	2
NMTAP	29	48	2
NMTAP	29	48	3
NMTAP	29	96	5
NMTAP	29	120	4
NMTAP	29	144	6
NMHLD	29	192	0	72
NMHLD	29	264	1	72
NMTAP	29	336	2
NMTAP	30	0	4
NMTAP	30	0	5
NMTAP	30	48	6
NMTAP	30	96	2
NMTAP	30	96	3
NMTAP	30	144	1
NMHLD	30	192	0	72
NMHLD	30	192	7	72
BRTAP	30	288	1
BRTAP	30	288	6
NMTAP	31	0	0
NMTAP	31	48	0
NMTAP	31	96	1
NMTAP	31	96	7
NMTAP	31	144	2
NMTAP	31	192	6
NMTAP	31	240	6
NMTAP	31	264	4
NMTAP	31	312	4
NMTAP	31	336	5
NMTAP	32	0	2
NMTAP	32	48	2
NMTAP	32	48	3
NMTAP	32	96	6
NMTAP	32	120	7
NMTAP	32	144	6
NMTAP	32	192	1
NMTAP	32	240	1
NMTAP	32	264	3
NMTAP	32	312	3
NMTAP	32	336	2
NMTAP	33	0	5
NMTAP	33	48	4
NMTAP	33	48	5
NMTAP	33	96	1
NMTAP	33	120	0
NMTAP	33	144	1
NMTAP	33	192	6
NMTAP	33	240	6
NMTAP	33	264	4
NMTAP	33	312	4
NMTAP	33	336	5
NMHLD	34	0	3	144
NMTAP	34	0	7
NMTAP	34	48	7
NMTAP	34	96	7
NMTAP	34	144	7
NMSTR	34	192	3
NMSCL	34	192	3	96	48	0
NMSTR	34	192	7
NMSCL	34	192	7	96	48	4
BRTAP	34	288	3
BRTAP	34	288	7
NMTAP	35	0	1
NMTAP	35	48	0
NMTAP	35	48	1
NMTAP	35	96	5
NMTAP	35	120	4
NMTAP	35	144	6
NMTAP	35	192	2
NMTAP	35	216	3
NMTAP	35	240	1
NMTAP	35	264	1
NMTAP	35	312	4
NMTAP	35	336	3
NMTAP	36	0	6
NMTAP	36	48	6
NMTAP	36	48	7
NMTAP	36	96	2
NMTAP	36	120	3
NMTAP	36	144	1
NMTAP	36	192	5
NMTAP	36	216	4
NMTAP	36	240	6
NMTAP	36	264	6
NMTAP	36	312	3
NMTAP	36	336	4
EXSTR	37	0	0
NMSV_	37	0	0	96	48	3
EXSTR	37	0	1
NMSV_	37	0	1	96	48	4
EXTAP	37	48	0
EXTAP	37	48	1
EXSTR	37	192	6
NMSCL	37	192	6	96	48	4
EXSTR	37	192	7
NMSUL	37	192	7	96	48	3
BXSTR	38	0	2
NMSI_	38	0	2	96	48	4
BRSTR	38	96	0
NMSI_	38	96	0	96	48	6
BRSTR	38	192	1
NMSI_	38	192	1	96	48	5
EXTAP	39	0	7
NMTAP	39	48	7
NMTAP	39	96	0
NMTAP	39	96	6
NMTAP	39	144	5
NMTAP	39	192	1
NMTAP	39	240	1
NMTAP	39	264	3
NMTAP	39	312	3
NMTAP	39	336	2
NMTAP	40	0	5
NMTAP	40	48	4
NMTAP	40	48	5
NMTAP	40	96	2
NMTAP	40	120	3
NMTAP	40	144	1
NMTAP	40	192	6
NMTAP	40	240	6
NMTAP	40	264	4
NMTAP	40	312	4
NMTAP	40	336	5
NMTAP	41	0	2
NMTAP	41	0	3
NMTAP	41	48	1
NMTAP	41	96	4
NMTAP	41	96	5
NMTAP	41	144	6
NMTAP	41	192	0
NMTAP	41	216	7
NMTAP	41	240	0
NMTAP	41	264	7
NMSTR	41	288	0
NMSCR	41	288	0	96	48	3
NMTAP	41	312	7
NMTAP	41	336	0
NMTAP	41	360	7
NMSTR	42	0	0
NMSCL	42	0	0	96	48	5
NMSTR	42	96	0
NMSI_	42	96	0	96	48	4
NMSTR	42	192	0
NMSF_	42	192	0	96	48	4
BRTAP	42	288	0
NMTAP	43	0	2
EXTAP	43	0	6
EXTAP	43	96	3
NMTAP	43	96	5
NMTAP	43	144	3
NMHLD	43	192	2	48
EXHLD	43	192	4	48
EXTAP	43	288	1
EXTAP	43	288	5
NMTAP	44	0	3
EXTAP	44	0	7
NMTAP	44	48	6
NMTAP	44	96	4
EXTAP	44	96	5
NMSTR	44	144	4
NMSI_	44	144	4	96	48	1
EXTAP	44	144	5
EXTAP	44	240	4
NMSTR	44	240	7
NMSI_	44	240	7	96	48	3
EXTAP	44	336	0
EXTAP	45	0	0
NMTAP	45	48	1
NMTAP	45	96	2
NMTAP	45	96	4
NMTAP	45	144	5
NMSTR	45	192	3
NMSCL	45	192	3	96	48	0
NMSTR	45	192	6
NMSCL	45	192	6	96	48	3
EXHLD	46	0	7	48
NMTAP	46	48	5
EXHLD	46	96	1	48
NMTAP	46	144	7
EXHLD	46	192	3	48
NMTAP	46	240	1
BRTAP	46	288	3
BRTAP	46	288	7
EXTAP	47	0	1
NMTAP	47	0	5
NMTAP	47	48	1
NMTAP	47	96	2
EXTAP	47	96	4
NMTAP	47	144	4
EXHLD	47	192	3	48
NMHLD	47	192	5	48
EXTAP	47	288	2
EXTAP	47	288	6
EXTAP	48	0	0
NMTAP	48	0	4
NMTAP	48	48	1
EXTAP	48	96	2
NMTAP	48	96	3
EXTAP	48	144	2
NMSTR	48	144	3
NMSI_	48	144	3	96	48	6
NMSTR	48	240	0
NMSI_	48	240	0	96	48	4
EXTAP	48	240	3
EXTAP	48	336	7
EXTAP	49	0	7
NMTAP	49	48	6
NMTAP	49	96	3
NMTAP	49	96	5
NMTAP	49	144	2
NMSTR	49	192	1
NMSCR	49	192	1	96	48	4
NMSTR	49	192	4
NMSCR	49	192	4	96	48	7
EXHLD	50	0	0	48
NMTAP	50	48	2
EXHLD	50	96	6	48
NMTAP	50	144	0
EXHLD	50	192	4	48
NMTAP	50	240	6
BRTAP	50	288	0
BRTAP	50	288	7
NMTAP	51	0	3
NMTAP	51	0	5
NMTAP	51	48	4
NMTAP	51	96	2
NMTAP	51	96	5
NMTAP	51	144	4
NMTAP	51	192	1
NMTAP	51	192	5
NMTAP	51	240	4
NMTAP	51	288	0
NMHLD	51	288	5	96
NMTAP	52	0	4
NMTAP	52	48	3
NMTAP	52	96	2
NMTAP	52	96	4
NMTAP	52	144	0
NMTAP	52	192	6
NMTAP	52	192	7
NMTAP	52	240	5
NMTAP	52	288	6
NMTAP	52	288	7
NMTAP	52	336	0
NMTAP	53	0	1
NMTAP	53	0	5
NMTAP	53	48	2
NMTAP	53	96	1
NMTAP	53	96	3
NMTAP	53	144	2
NMTAP	53	192	1
NMTAP	53	192	7
NMTAP	53	240	2
NMHLD	53	288	1	96
NMTAP	53	288	5
NMTAP	54	0	3
NMTAP	54	48	4
NMTAP	54	96	3
NMTAP	54	96	5
NMTAP	54	144	7
NMTAP	54	192	0
NMTAP	54	192	1
NMTAP	54	240	2
NMTAP	54	288	0
NMTAP	54	288	1
NMTAP	54	336	7
NMTAP	55	0	2
NMTAP	55	0	6
NMTAP	55	48	6
NMTAP	55	96	4
NMTAP	55	96	6
NMTAP	55	144	6
NMTAP	55	192	0
NMTAP	55	192	6
NMTAP	55	240	6
NMHLD	55	288	2	48
NMTAP	55	288	6
NMTAP	55	336	6
NMTAP	56	0	1
NMTAP	56	0	5
NMTAP	56	48	1
NMTAP	56	96	1
NMTAP	56	96	3
NMTAP	56	144	1
NMTAP	56	192	0
NMTAP	56	192	7
NMTAP	56	240	1
NMTAP	56	288	0
NMTAP	56	288	7
NMTAP	56	336	6
NMTAP	57	0	1
NMTAP	57	24	5
NMTAP	57	48	1
NMTAP	57	72	5
NMTAP	57	96	1
NMTAP	57	120	4
NMTAP	57	144	1
NMTAP	57	168	4
NMTAP	57	192	1
NMTAP	57	216	3
NMTAP	57	240	1
NMTAP	57	264	3
NMSTR	57	288	1
NMSCL	57	288	1	96	288	2
NMTAP	57	312	2
NMTAP	57	336	1
NMTAP	57	360	2
BRTAP	58	0	1
BRTAP	58	96	5
BRTAP	58	192	2
BRTAP	58	288	7
NMTTP	59	0	0	A	0	M1
NMTTP	59	0	0	D	1	M1
NMTTP	59	0	1	D	0	M1
NMTTP	59	0	3	A	0	M1
NMTTP	59	0	3	D	0	M1
NMTTP	59	0	4	A	0	M1
NMTTP	59	0	4	D	0	M1
NMTTP	59	0	5	A	0	M1
NMTTP	59	0	5	D	0	M1
NMTTP	59	0	6	A	0	M1
NMTTP	59	0	6	D	0	M1
NMTTP	59	0	7	A	0	M1
NMTTP	59	0	7	D	0	M1
NMHLD	63	0	5	1440
NMTTP	63	96	3	E	0	M1
NMTTP	63	192	4	E	0	M1
NMTTP	63	288	5	E	0	M1
NMTTP	64	0	6	E	0	M1
NMTTP	64	96	7	E	0	M1
NMTTP	64	192	0	E	0	M1
NMTTP	64	288	1	E	0	M1
NMTTP	65	0	2	E	0	M1
NMTTP	65	96	3	E	0	M1
NMTTP	65	192	4	E	0	M1
NMTTP	65	288	5	E	0	M1
NMTTP	66	0	6	E	0	M1
NMTTP	66	96	7	E	0	M1
NMTTP	66	192	0	E	0	M1
NMTTP	66	288	1	E	1	M1
NMTAP	67	0	3
NMTAP	67	48	3
NMTAP	67	96	2
NMTAP	67	96	4
NMHLD	67	192	1	72
NMHLD	67	264	3	72
NMTAP	67	336	2
NMTAP	68	0	4
NMTAP	68	48	4
NMTAP	68	96	3
NMTAP	68	96	5
NMHLD	68	192	6	72
NMHLD	68	264	4	72
NMTAP	68	336	5
NMTAP	69	0	0
NMTAP	69	24	7
NMTAP	69	48	0
NMTAP	69	72	7
NMTAP	69	96	1
NMTAP	69	120	6
NMTAP	69	144	1
NMTAP	69	168	6
NMTAP	69	192	2
NMTAP	69	216	5
NMTAP	69	240	2
NMTAP	69	264	5
NMTAP	69	288	3
NMTAP	69	312	4
NMTAP	69	336	3
NMTAP	69	360	4
BRSTR	70	0	2
NMSI_	70	0	2	96	48	4
BRTAP	70	96	2
BRSTR	70	96	6
NMSI_	70	96	6	96	48	2
BRSTR	70	192	0
NMSF_	70	192	0	96	48	4
BRTAP	70	192	6
BRTAP	70	288	0
EXTAP	71	0	1
EXTAP	71	0	7
NMTAP	71	48	1
NMTAP	71	48	7
NMTAP	71	96	2
NMTAP	71	120	3
NMTAP	71	144	2
NMHLD	71	192	6	72
NMHLD	71	264	5	72
NMTAP	71	336	4
NMTAP	72	0	2
NMTAP	72	48	2
NMTAP	72	48	3
NMTAP	72	96	5
NMTAP	72	120	4
NMTAP	72	144	6
NMHLD	72	192	0	72
NMHLD	72	264	1	72
NMTAP	72	336	2
NMTAP	73	0	5
NMTAP	73	48	4
NMTAP	73	48	5
NMTAP	73	96	2
NMTAP	73	120	3
NMTAP	73	144	1
NMHLD	73	192	7	72
NMHLD	73	264	5	72
NMTAP	73	336	3
NMTAP	74	0	2
NMTAP	74	0	4
NMTAP	74	48	1
NMTAP	74	96	3
NMTAP	74	96	5
NMTAP	74	144	6
NMHLD	74	192	3	72
NMHLD	74	192	7	72
BRTAP	74	288	1
BRTAP	74	288	5
NMTAP	75	0	0
NMTAP	75	0	6
NMTAP	75	48	0
NMTAP	75	48	6
NMTAP	75	96	5
NMTAP	75	120	4
NMTAP	75	144	5
NMTAP	75	192	1
NMTAP	75	240	1
NMTAP	75	264	3
NMTAP	75	312	3
NMTAP	75	336	2
NMTAP	76	0	5
NMTAP	76	48	4
NMTAP	76	48	6
NMTAP	76	96	1
NMTAP	76	120	0
NMTAP	76	144	1
NMTAP	76	192	6
NMTAP	76	240	6
NMTAP	76	264	4
NMTAP	76	312	4
NMTAP	76	336	5
NMTAP	77	0	2
NMTAP	77	48	1
NMTAP	77	48	3
NMTAP	77	96	6
NMTAP	77	120	7
NMTAP	77	144	6
NMTAP	77	192	1
NMTAP	77	240	1
NMTAP	77	264	3
NMTAP	77	312	3
NMTAP	77	336	2
BRTAP	78	0	0
NMTAP	78	0	4
NMTAP	78	48	4
BRTAP	78	96	0
NMTAP	78	96	4
NMTAP	78	144	4
BRSTR	78	192	0
NMSCR	78	192	0	96	48	3
NMSTR	78	192	4
NMSCR	78	192	4	96	48	7
BRTAP	78	288	0
BRTAP	78	288	4
NMTAP	79	0	6
NMTAP	79	48	6
NMTAP	79	48	7
NMTAP	79	96	2
NMTAP	79	120	3
NMTAP	79	144	1
NMTAP	79	168	1
NMTAP	79	192	5
NMTAP	79	216	4
NMTAP	79	240	6
NMHLD	79	264	0	72
NMTAP	79	312	7
NMTAP	79	336	7
NMTAP	80	0	1
NMTAP	80	48	0
NMTAP	80	48	1
NMTAP	80	96	5
NMTAP	80	120	4
NMTAP	80	144	6
NMTAP	80	168	6
NMTAP	80	192	2
NMTAP	80	216	3
NMTAP	80	240	1
NMHLD	80	264	7	72
NMTAP	80	312	0
NMTAP	80	336	0
EXSTR	81	0	6
NMSV_	81	0	6	96	24	5
EXSTR	81	0	7
NMSV_	81	0	7	96	48	4
EXTAP	81	48	6
EXTAP	81	48	7
CNSI_	81	120	5	0	24	3
EXSTR	81	192	0
NMSUL	81	192	0	96	48	4
EXSTR	81	192	1
NMSXL	81	192	1	96	48	3
BXSTR	82	0	2
NMSI_	82	0	2	96	48	7
BRSTR	82	96	2
NMSI_	82	96	2	96	48	5
BRSTR	82	192	2
NMSI_	82	192	2	96	48	6
NMHLD	82	288	2	96
EXTAP	83	0	0
NMTAP	83	48	1
NMTAP	83	48	7
NMTAP	83	96	6
NMTAP	83	120	4
NMTAP	83	144	5
NMTAP	83	168	5
NMHLD	83	192	2	48
NMTAP	83	240	3
NMHLD	83	264	1	48
NMTAP	83	312	3
NMTAP	83	336	0
NMTAP	84	0	5
NMTAP	84	48	4
NMTAP	84	48	6
NMTAP	84	96	1
NMTAP	84	120	3
NMTAP	84	144	2
NMTAP	84	168	2
NMHLD	84	192	5	48
NMTAP	84	240	4
NMHLD	84	264	6	48
NMTAP	84	312	4
NMTAP	84	336	7
NMTAP	85	0	2
NMTAP	85	0	3
NMTAP	85	48	1
NMTAP	85	96	4
NMTAP	85	96	5
NMTAP	85	144	6
NMTAP	85	192	0
NMTAP	85	216	7
NMTAP	85	240	1
NMTAP	85	264	6
NMTAP	85	288	2
NMTAP	85	312	5
NMTAP	85	336	3
NMTAP	85	360	4
BRSTR	86	0	3
NMSCL	86	0	3	96	48	0
BRTAP	86	96	3
BRSTR	86	96	6
NMSCL	86	96	6	96	48	3
BRSTR	86	192	1
NMSI_	86	192	1	96	48	5
BRTAP	86	192	6
BRTAP	86	288	0
BRTAP	86	288	1
EXTAP	87	0	6
EXSTR	87	0	7
NMSI_	87	0	7	96	48	3
NMTAP	87	96	4
NMTAP	87	144	5
NMSTR	87	192	4
NMSI_	87	192	4	96	48	0
NMTAP	87	192	6
NMTAP	87	288	4
NMTAP	87	288	5
NMSTR	88	0	1
NMSCR	88	0	1	96	48	4
NMTAP	88	0	6
NMTAP	88	96	7
NMTAP	88	144	6
NMSTR	88	192	3
NMSI_	88	192	3	96	48	0
NMTAP	88	192	5
NMTAP	88	288	3
NMTAP	88	288	7
NMSTR	89	0	1
NMSI_	89	0	1	96	48	3
NMTAP	89	0	4
NMTAP	89	48	4
NMSTR	89	96	1
NMSI_	89	96	1	96	48	7
NMTAP	89	96	5
NMTAP	89	144	5
NMSTR	89	192	1
NMSI_	89	192	1	96	48	5
NMTAP	89	192	6
NMTAP	89	288	1
NMTAP	89	288	5
NMSTR	90	0	3
NMSI_	90	0	3	96	48	1
NMTAP	90	0	7
NMTAP	90	48	7
NMSTR	90	96	3
NMSI_	90	96	3	96	48	7
NMTAP	90	96	6
NMTAP	90	144	6
NMTAP	90	192	3
NMTAP	90	192	5
EXHLD	90	288	6	48
EXHLD	90	288	7	48
EXSTR	91	0	0
NMSI_	91	0	0	96	48	4
EXTAP	91	0	1
NMTAP	91	96	3
NMTAP	91	144	2
NMTAP	91	192	1
NMSTR	91	192	3
NMSI_	91	192	3	96	48	7
NMTAP	91	288	2
NMTAP	91	288	3
NMTAP	92	0	1
NMSTR	92	0	6
NMSCL	92	0	6	96	48	3
NMTAP	92	96	0
NMTAP	92	144	1
NMTAP	92	192	2
NMSTR	92	192	4
NMSI_	92	192	4	96	48	7
NMTAP	92	288	0
NMTAP	92	288	4
NMTAP	93	0	3
NMSTR	93	0	6
NMSI_	93	0	6	96	48	4
NMTAP	93	48	3
NMTAP	93	96	2
NMSTR	93	96	6
NMSI_	93	96	6	96	48	0
NMTAP	93	144	2
NMTAP	93	192	1
NMSTR	93	192	6
NMSI_	93	192	6	96	48	2
NMTAP	93	288	2
NMTAP	93	288	6
NMTAP	94	0	0
NMSTR	94	0	4
NMSI_	94	0	4	96	48	6
NMTAP	94	48	0
NMTAP	94	96	1
NMSTR	94	96	4
NMSI_	94	96	4	96	48	0
NMTAP	94	144	1
NMTAP	94	192	2
NMTAP	94	192	4
NMTAP	94	288	1
NMTAP	94	288	7
NMTAP	94	336	1
NMTAP	94	336	7
BRTAP	95	0	2
BRTAP	95	0	6
NMSTR	95	96	5
NMSCR	95	96	5	96	120	3
NMSTR	95	144	7
NMSCR	95	144	7	96	72	3
NMSTR	95	192	1
NMSCR	95	192	1	96	24	3
NMSTR	95	288	4
NMSI_	95	288	4	96	48	0
NMTAP	96	0	4
NMTAP	96	0	5
NMSTR	96	96	5
NMSCR	96	96	5	96	120	3
NMSTR	96	144	7
NMSCR	96	144	7	96	72	3
NMSTR	96	192	1
NMSCR	96	192	1	96	24	3
NMTAP	96	288	4
NMSTR	97	0	0
NMSI_	97	0	0	96	48	4
NMSTR	97	48	1
NMSI_	97	48	1	96	48	3
NMTAP	97	96	0
NMTAP	97	144	1
NMSTR	97	192	6
NMSI_	97	192	6	96	48	2
NMTAP	97	288	6
NMTAP	97	288	7
NMSTR	98	0	1
NMSI_	98	0	1	96	48	3
NMSTR	98	48	0
NMSI_	98	48	0	96	48	4
NMSTR	98	96	1
NMSI_	98	96	1	96	48	5
NMTAP	98	144	0
NMTAP	98	192	1
NMTAP	98	288	6
NMTAP	98	288	7
NMTAP	98	336	6
NMTAP	98	336	7
BRTAP	99	0	1
BRTAP	99	0	5
NMSTR	99	96	2
NMSCL	99	96	2	96	120	4
NMSTR	99	144	0
NMSCL	99	144	0	96	72	4
NMSTR	99	192	6
NMSCL	99	192	6	96	24	4
NMSTR	99	288	3
NMSI_	99	288	3	96	48	7
NMTAP	100	0	2
NMTAP	100	0	3
NMSTR	100	96	2
NMSCL	100	96	2	96	120	4
NMSTR	100	144	0
NMSCL	100	144	0	96	72	4
NMSTR	100	192	6
NMSCL	100	192	6	96	24	4
NMTAP	100	288	3
NMSTR	101	0	7
NMSI_	101	0	7	96	48	3
NMSTR	101	48	6
NMSI_	101	48	6	96	48	4
NMTAP	101	96	7
NMTAP	101	144	6
NMSTR	101	192	1
NMSI_	101	192	1	96	48	5
NMSTR	101	288	0
NMSI_	101	288	0	96	48	4
NMTAP	101	288	1
BRTAP	102	0	0
BRSTR	102	0	7
NMSI_	102	0	7	96	48	3
BRSTR	102	96	6
NMSI_	102	96	6	96	48	2
BRTAP	102	96	7
BRTAP	102	192	5
BRTAP	102	192	6
BRSTR	102	288	1
NMSCL	102	288	1	96	672	2
BRTAP	102	288	2
NMTTP	103	0	0	C	1	M1

T_REC_TAP	515
T_REC_BRK	44
T_REC_XTP	45
T_REC_BXX	0
T_REC_HLD	45
T_REC_XHO	10
T_REC_BHO	2
T_REC_BXH	0
T_REC_STR	66
T_REC_BST	17
T_REC_XST	18
T_REC_XBS	2
T_REC_TTP	54
T_REC_THO	0
T_REC_SLD	102
T_REC_BSL	1
T_REC_ALL	921
T_NUM_TAP	698
T_NUM_BRK	66
T_NUM_HLD	55
T_NUM_SLD	102
T_NUM_ALL	921
T_JUDGE_TAP	761
T_JUDGE_HLD	158
T_JUDGE_SLD	103
T_JUDGE_ALL	1022
TTM_EACHPAIRS	176
TTM_SCR_TAP	349000
TTM_SCR_BRK	171600
TTM_SCR_HLD	55000
TTM_SCR_SLD	153000
TTM_SCR_ALL	728600
TTM_SCR_S	700350
TTM_SCR_SS	722000
TTM_RAT_ACV	10091

