VERSION	0.00.00	1.04.00
FES_MODE	0
BPM_DEF	170.000	170.000	170.000	170.000
MET_DEF	4	4
RESOLUTION	384
CLK_DEF	384
COMPATIBLE_CODE	MA2

BPM	0	0	170.000
MET	0	0	4	4

NMHLD	1	0	2	288
NMHLD	1	0	5	288
BRTAP	2	0	1
BRTAP	2	0	6
BRTAP	2	96	3
BRTAP	2	96	4
BRTAP	2	192	0
BRTAP	2	192	7
NMSTR	3	0	1
NMSCL	3	0	1	96	1056	2
NMTAP	3	0	6
NMSTR	7	0	1
NMSCR	7	0	1	96	192	4
NMSTR	8	0	6
NMSCL	8	0	6	96	192	3
NMSTR	9	0	1
NMSLR	9	0	1	96	192	5
BRTAP	10	0	6
BRTAP	10	96	6
BRTAP	10	192	0
BRTAP	10	192	7
EXHLD	11	0	6	768
NMTAP	11	192	7
NMTAP	11	288	7
NMTAP	12	0	5
NMTAP	12	96	4
NMTAP	12	192	3
NMTAP	12	288	2
EXHLD	13	0	1	768
NMTAP	13	192	0
NMTAP	13	288	0
NMTAP	14	0	2
NMTAP	14	96	3
NMTAP	14	192	4
NMTAP	14	288	5
EXHLD	15	0	6	672
NMTAP	15	192	4
NMTAP	15	288	4
NMTAP	16	0	5
NMTAP	16	96	7
NMTAP	16	192	0
NMTAP	16	288	1
EXTAP	17	0	2
NMTAP	17	96	2
NMTAP	17	96	3
NMTAP	17	192	5
NMSTR	17	288	4
NMSI_	17	288	4	96	96	0
NMTAP	17	288	5
BRTAP	18	192	1
BRTAP	18	192	7
NMHLD	19	0	2	384
NMTTP	19	192	3	B	0	M1
NMHLD	20	0	5	384
NMTTP	20	192	4	B	0	M1
NMHLD	21	0	1	384
NMTTP	21	192	3	E	0	M1
NMTTP	21	192	3	D	0	M1
NMHLD	22	0	6	384
NMTTP	22	192	5	E	0	M1
NMTTP	22	192	5	D	0	M1
NMTAP	23	0	3
NMTAP	23	96	2
NMTAP	23	192	1
NMTAP	23	288	0
NMTAP	24	0	7
NMTAP	24	96	6
NMTAP	24	192	5
NMTAP	24	288	3
NMTAP	24	288	4
NMHLD	25	0	2	288
NMHLD	25	0	5	288
BRTAP	26	0	1
BRTAP	26	0	6
BRTAP	26	96	3
BRTAP	26	96	4
BRTAP	26	192	0
BRTAP	26	192	7
NMTAP	27	0	1
NMTAP	27	48	1
NMTAP	27	96	0
NMTAP	27	96	1
NMTAP	27	192	2
NMTAP	27	240	2
NMTAP	27	288	2
NMTAP	27	288	3
NMTAP	28	0	5
NMTAP	28	48	5
NMTAP	28	96	4
NMTAP	28	96	5
NMTAP	28	192	3
NMTAP	28	192	6
NMTAP	28	288	3
NMTAP	28	288	6
NMTAP	29	0	2
NMTAP	29	48	2
NMTAP	29	96	2
NMTAP	29	96	3
NMTAP	29	192	5
NMTAP	29	240	5
NMTAP	29	288	4
NMTAP	29	288	5
NMTAP	30	0	6
NMTAP	30	0	7
NMTAP	30	96	0
NMTAP	30	96	1
NMTAP	30	192	2
NMTAP	30	192	3
BRTAP	30	288	1
BRTAP	30	288	4
NMTAP	31	0	5
NMTAP	31	48	5
NMTAP	31	96	4
NMTAP	31	96	5
NMTAP	31	192	6
NMTAP	31	240	6
NMTAP	31	288	6
NMTAP	31	288	7
NMTAP	32	0	1
NMTAP	32	48	1
NMTAP	32	96	0
NMTAP	32	96	1
NMTAP	32	192	2
NMTAP	32	192	7
NMTAP	32	288	2
NMTAP	32	288	7
NMTAP	33	0	0
NMTAP	33	0	1
NMTAP	33	96	3
NMTAP	33	96	4
NMTAP	33	192	6
NMTAP	33	192	7
NMSTR	33	288	3
NMSI_	33	288	3	96	96	0
NMSTR	33	288	4
NMSI_	33	288	4	96	96	7
BRTAP	34	192	1
BRTAP	34	192	6
NMTAP	35	0	5
NMTAP	35	48	5
NMTAP	35	96	5
NMTAP	35	96	7
NMTAP	35	192	2
NMTAP	35	240	2
NMTAP	35	288	0
NMTAP	35	288	2
NMTAP	36	0	6
NMTAP	36	48	6
NMTAP	36	96	4
NMTAP	36	96	6
NMTAP	36	192	1
NMTAP	36	240	1
NMTAP	36	288	1
NMTAP	36	288	3
EXSTR	37	0	0
NMSI_	37	0	0	96	48	4
EXTAP	37	0	4
EXTAP	37	192	3
EXSTR	37	192	5
NMSI_	37	192	5	96	48	2
BRTAP	38	0	1
BRTAP	38	0	3
BRTAP	38	96	4
BRTAP	38	96	5
BRSTR	38	192	3
NMSI_	38	192	3	96	48	7
BRTAP	38	192	6
NMTAP	39	0	6
NMTAP	39	48	6
NMTAP	39	96	4
NMTAP	39	144	4
NMTAP	39	192	3
NMTAP	39	288	2
NMTAP	39	288	4
NMTAP	40	0	1
NMTAP	40	48	1
NMTAP	40	96	3
NMTAP	40	144	3
NMTAP	40	192	4
NMTAP	40	288	3
NMTAP	40	288	5
NMTAP	41	0	2
NMTAP	41	48	2
NMTAP	41	96	6
NMTAP	41	144	6
NMTAP	41	192	0
NMTAP	41	240	0
NMTAP	41	288	0
NMTAP	41	288	7
BRTAP	42	0	0
BRTAP	42	0	7
BRTAP	42	96	3
BRTAP	42	96	4
BRTAP	42	192	1
BRTAP	42	192	6
NMHLD	43	0	0	1056
NMTAP	43	0	7
NMTAP	43	192	7
NMTAP	43	288	7
NMTAP	44	0	1
NMTAP	44	96	1
NMTAP	44	192	6
NMTAP	44	288	6
NMTAP	45	0	2
NMTAP	45	96	2
NMTAP	45	192	5
NMTAP	45	288	5
BRTAP	46	0	6
BRTAP	46	0	7
BRTAP	46	96	6
BRTAP	46	96	7
BRTAP	46	192	6
BRTAP	46	192	7
NMTAP	47	0	0
NMHLD	47	0	7	1056
NMTAP	47	192	0
NMTAP	47	288	0
NMTAP	48	0	6
NMTAP	48	96	6
NMTAP	48	192	1
NMTAP	48	288	1
NMTAP	49	0	5
NMTAP	49	96	5
NMTAP	49	192	2
NMTAP	49	288	2
BRTAP	50	0	0
BRTAP	50	0	1
BRTAP	50	96	0
BRTAP	50	96	1
BRTAP	50	192	0
BRTAP	50	192	1
NMHLD	51	0	2	96
NMTAP	51	0	3
NMTAP	51	96	3
NMTAP	51	192	3
NMHLD	51	192	4	96
NMTAP	51	288	3
NMHLD	52	0	1	96
NMTAP	52	0	3
NMTAP	52	96	3
NMTAP	52	192	3
NMHLD	52	192	5	96
NMTAP	52	288	3
NMHLD	53	0	0	96
NMTAP	53	0	3
NMTAP	53	96	3
NMTAP	53	192	3
NMHLD	53	192	6	96
NMTAP	53	288	3
BRTAP	54	0	4
BRTAP	54	0	5
BRTAP	54	96	4
BRTAP	54	96	5
BRTAP	54	192	4
BRTAP	54	192	5
NMHLD	55	0	7	192
NMTAP	55	96	6
NMHLD	55	192	6	192
NMTAP	55	288	5
NMHLD	56	0	5	192
NMTAP	56	96	4
NMTAP	56	192	4
NMTAP	56	288	3
NMTAP	56	288	4
NMTAP	57	0	2
NMTAP	57	48	2
NMTAP	57	96	1
NMTAP	57	144	1
NMTAP	57	192	0
NMTAP	57	240	0
NMTAP	57	288	0
NMTAP	57	288	7
BRTAP	58	0	1
BRTAP	58	0	6
BRTAP	58	96	3
BRTAP	58	96	4
BRTAP	58	192	0
BRTAP	58	192	7
NMSTR	59	0	1
NMSCL	59	0	1	96	624	2
NMTAP	59	0	6
CNSCR	60	336	2	0	624	1
NMTTP	63	0	2	B	0	M1
NMTTP	63	96	3	B	0	M1
NMTTP	63	192	4	B	0	M1
NMTTP	63	288	5	B	0	M1
NMTTP	64	0	2	B	0	M1
NMTTP	64	96	3	B	0	M1
NMTTP	64	192	4	B	0	M1
NMTTP	64	288	5	B	0	M1
NMTTP	65	0	2	B	0	M1
NMTTP	65	96	3	B	0	M1
NMTTP	65	192	4	B	0	M1
NMTTP	65	288	5	B	0	M1
NMTTP	66	0	1	B	0	M1
NMTTP	66	0	1	A	0	M1
NMTTP	66	96	6	B	0	M1
NMTTP	66	96	6	A	0	M1
NMTTP	66	192	0	B	0	M1
NMTTP	66	192	0	E	1	M1
NMTTP	66	192	7	B	0	M1
NMTAP	67	0	4
NMTAP	67	96	5
NMTAP	67	192	6
NMTAP	67	288	7
NMTAP	68	0	0
NMTAP	68	96	1
NMTAP	68	192	2
NMTAP	68	288	3
NMTAP	68	288	4
NMHLD	69	0	2	288
NMHLD	69	0	5	288
BRTAP	70	0	1
BRTAP	70	0	6
BRTAP	70	96	3
BRTAP	70	96	4
BRTAP	70	192	0
BRTAP	70	192	7
NMTAP	71	0	6
NMTAP	71	48	6
NMTAP	71	96	5
NMTAP	71	96	7
NMTAP	71	192	1
NMTAP	71	240	1
NMTAP	71	288	0
NMTAP	71	288	2
NMTAP	72	0	5
NMTAP	72	48	5
NMTAP	72	96	4
NMTAP	72	96	6
NMTAP	72	192	0
NMTAP	72	192	7
NMTAP	72	288	1
NMTAP	72	288	4
NMTAP	73	0	2
NMTAP	73	48	2
NMTAP	73	96	1
NMTAP	73	96	3
NMTAP	73	192	5
NMTAP	73	240	5
NMTAP	73	288	4
NMTAP	73	288	6
NMTAP	74	0	0
NMTAP	74	0	1
NMTAP	74	96	2
NMTAP	74	96	3
NMTAP	74	192	4
NMTAP	74	192	5
BRTAP	74	288	3
BRTAP	74	288	6
NMTAP	75	0	2
NMTAP	75	48	2
NMTAP	75	96	1
NMTAP	75	96	3
NMTAP	75	192	5
NMTAP	75	240	5
NMTAP	75	288	4
NMTAP	75	288	6
NMTAP	76	0	1
NMTAP	76	48	1
NMTAP	76	96	0
NMTAP	76	96	2
NMTAP	76	192	6
NMTAP	76	240	6
NMTAP	76	288	5
NMTAP	76	288	7
NMTAP	77	0	2
NMTAP	77	0	3
NMTAP	77	96	5
NMTAP	77	96	6
NMTAP	77	192	0
NMTAP	77	192	1
NMSTR	77	288	3
NMSI_	77	288	3	96	96	7
NMSTR	77	288	4
NMSI_	77	288	4	96	96	0
BRTAP	78	192	1
BRTAP	78	192	6
NMTAP	79	0	1
NMTAP	79	48	0
NMTAP	79	96	2
NMTAP	79	96	7
NMTAP	79	192	6
NMTAP	79	240	7
NMTAP	79	288	0
NMTAP	79	288	5
NMTAP	80	0	2
NMTAP	80	48	3
NMTAP	80	96	1
NMTAP	80	96	4
NMTAP	80	192	5
NMTAP	80	240	4
NMTAP	80	288	3
NMTAP	80	288	6
EXTAP	81	0	2
EXSTR	81	0	7
NMSI_	81	0	7	96	48	3
EXSTR	81	192	2
NMSI_	81	192	2	96	48	5
EXTAP	81	192	4
BRTAP	82	0	4
BRTAP	82	0	6
BRTAP	82	96	2
BRTAP	82	96	3
BRTAP	82	192	1
BRSTR	82	192	4
NMSI_	82	192	4	96	48	0
NMTAP	83	0	1
NMTAP	83	48	1
NMTAP	83	96	3
NMTAP	83	144	3
NMTAP	83	192	5
NMTAP	83	288	4
NMTAP	83	288	6
NMTAP	84	0	6
NMTAP	84	48	6
NMTAP	84	96	4
NMTAP	84	144	4
NMTAP	84	192	2
NMTAP	84	288	1
NMTAP	84	288	3
NMTAP	85	0	2
NMTAP	85	48	2
NMTAP	85	96	6
NMTAP	85	144	6
NMTAP	85	192	0
NMTAP	85	240	0
NMTAP	85	288	0
NMTAP	85	288	7
BRTAP	86	0	0
BRTAP	86	0	7
BRTAP	86	96	3
BRTAP	86	96	4
BRTAP	86	192	1
BRTAP	86	192	6
NMTAP	87	0	4
NMTAP	87	0	5
NMSTR	87	96	0
NMSI_	87	96	0	96	48	5
NMSTR	87	96	1
NMSI_	87	96	1	96	48	4
NMTAP	87	288	4
NMTAP	87	288	5
NMTAP	88	0	2
NMTAP	88	0	3
NMSTR	88	96	6
NMSI_	88	96	6	96	48	3
NMSTR	88	96	7
NMSI_	88	96	7	96	48	2
NMTAP	88	288	2
NMTAP	88	288	3
NMTAP	89	0	0
NMTAP	89	0	1
NMTAP	89	96	3
NMTAP	89	96	4
NMSTR	89	192	6
NMSI_	89	192	6	96	48	3
NMSTR	89	192	7
NMSI_	89	192	7	96	48	3
NMTAP	90	0	4
NMTAP	90	0	5
NMTAP	90	96	0
NMTAP	90	96	7
NMSTR	90	192	2
NMSI_	90	192	2	96	48	7
NMSTR	90	192	3
NMSI_	90	192	3	96	48	7
NMTAP	91	0	6
NMTAP	91	0	7
NMSTR	91	96	2
NMSI_	91	96	2	96	48	7
NMSTR	91	96	3
NMSI_	91	96	3	96	48	6
NMTAP	91	288	6
NMTAP	91	288	7
NMTAP	92	0	0
NMTAP	92	0	1
NMSTR	92	96	4
NMSI_	92	96	4	96	48	1
NMSTR	92	96	5
NMSI_	92	96	5	96	48	0
NMTAP	92	288	0
NMTAP	92	288	1
NMTAP	93	0	2
NMTAP	93	0	3
NMTAP	93	96	4
NMTAP	93	96	5
NMTAP	93	192	6
NMTAP	93	192	7
NMSTR	93	288	6
NMSI_	93	288	6	96	96	0
NMSTR	93	288	7
NMSI_	93	288	7	96	96	3
BRTAP	94	192	2
BRTAP	94	192	6
NMTAP	95	0	0
NMTAP	95	0	4
NMSTR	95	96	1
NMSI_	95	96	1	96	48	4
NMSTR	95	96	5
NMSI_	95	96	5	96	48	0
NMTAP	95	288	3
NMTAP	95	288	7
NMTAP	96	0	1
NMTAP	96	0	5
NMSTR	96	96	2
NMSI_	96	96	2	96	48	7
NMSTR	96	96	6
NMSI_	96	96	6	96	48	3
NMTAP	96	288	0
NMTAP	96	288	4
NMTAP	97	0	2
NMTAP	97	0	3
NMTAP	97	96	5
NMTAP	97	96	6
NMSTR	97	192	0
NMSI_	97	192	0	96	48	6
NMSTR	97	192	1
NMSI_	97	192	1	96	48	5
NMTAP	98	0	4
NMTAP	98	0	5
NMTAP	98	96	1
NMTAP	98	96	2
NMSTR	98	192	6
NMSI_	98	192	6	96	48	2
NMSTR	98	192	7
NMSI_	98	192	7	96	48	1
NMTAP	99	0	3
NMTAP	99	48	3
NMTAP	99	96	2
NMTAP	99	96	4
NMTAP	99	144	2
NMTAP	99	144	4
NMTAP	99	192	2
NMTAP	99	192	4
NMTAP	99	288	0
NMTAP	99	288	6
NMTAP	100	0	4
NMTAP	100	48	4
NMTAP	100	96	3
NMTAP	100	96	5
NMTAP	100	144	3
NMTAP	100	144	5
NMTAP	100	192	3
NMTAP	100	192	5
NMTAP	100	288	1
NMTAP	100	288	7
NMTAP	101	0	1
NMTAP	101	48	1
NMTAP	101	96	3
NMTAP	101	144	3
NMTAP	101	192	4
NMTAP	101	240	4
NMTAP	101	288	6
BRTAP	102	0	5
BRTAP	102	0	6
BRTAP	102	96	3
BRTAP	102	96	4
BRTAP	102	192	1
BRTAP	102	192	2
BRSTR	102	288	0
NMSI_	102	288	0	96	48	4
BRSTR	102	288	7
NMSI_	102	288	7	96	48	3

T_REC_TAP	343
T_REC_BRK	86
T_REC_XTP	5
T_REC_BXX	0
T_REC_HLD	21
T_REC_XHO	3
T_REC_BHO	0
T_REC_BXH	0
T_REC_STR	32
T_REC_BST	4
T_REC_XST	4
T_REC_XBS	0
T_REC_TTP	25
T_REC_THO	0
T_REC_SLD	40
T_REC_BSL	0
T_REC_ALL	563
T_NUM_TAP	409
T_NUM_BRK	90
T_NUM_HLD	24
T_NUM_SLD	40
T_NUM_ALL	563
T_JUDGE_TAP	499
T_JUDGE_HLD	182
T_JUDGE_SLD	40
T_JUDGE_ALL	721
TTM_EACHPAIRS	160
TTM_SCR_TAP	204500
TTM_SCR_BRK	234000
TTM_SCR_HLD	24000
TTM_SCR_SLD	60000
TTM_SCR_ALL	522500
TTM_SCR_S	498100
TTM_SCR_SS	513500
TTM_RAT_ACV	10175

