VERSION	0.00.00	1.04.00
FES_MODE	0
BPM_DEF	170.000	170.000	170.000	170.000
MET_DEF	4	4
RESOLUTION	384
CLK_DEF	384
COMPATIBLE_CODE	MA2

BPM	0	0	170.000
MET	0	0	4	4

NMHLD	1	0	3	192
NMHLD	1	0	4	192
EXTAP	2	0	3
EXTAP	2	96	3
EXTAP	2	192	3
EXTAP	2	192	4
NMHLD	3	0	2	192
NMHLD	3	192	3	192
NMHLD	4	0	4	192
NMTAP	4	192	5
NMHLD	5	0	5	192
NMHLD	5	192	4	192
NMHLD	6	0	3	192
NMTAP	6	192	2
NMHLD	7	0	1	192
NMHLD	7	192	0	192
NMHLD	8	0	7	192
NMTAP	8	192	6
NMHLD	9	0	6	192
NMHLD	9	192	7	192
NMHLD	10	0	0	192
NMTAP	10	192	1
NMTAP	11	0	1
NMTAP	11	96	1
NMTAP	11	192	0
NMTAP	11	192	1
NMTAP	12	0	2
NMTAP	12	96	2
NMTAP	12	192	2
NMTAP	12	192	3
NMTAP	13	0	4
NMTAP	13	96	4
NMTAP	13	192	4
NMTAP	13	192	5
NMTAP	14	0	6
NMTAP	14	0	7
NMTAP	14	96	6
NMTAP	14	96	7
NMTAP	14	192	6
NMTAP	14	192	7
NMTAP	15	0	6
NMTAP	15	96	6
NMTAP	15	192	6
NMTAP	15	192	7
NMTAP	16	0	5
NMTAP	16	96	5
NMTAP	16	192	4
NMTAP	16	192	5
NMTAP	17	0	3
NMTAP	17	96	3
NMTAP	17	192	2
NMTAP	17	192	3
NMTAP	18	0	0
NMTAP	18	0	1
NMTAP	18	96	0
NMTAP	18	96	1
NMTAP	18	192	0
NMTAP	18	192	1
NMSTR	19	0	7
NMSI_	19	0	7	96	288	3
NMTAP	20	192	2
NMSTR	21	0	1
NMSI_	21	0	1	96	288	4
NMTAP	22	192	5
NMSTR	23	0	6
NMSI_	23	0	6	96	288	2
NMTAP	24	192	1
NMTAP	25	0	2
NMTAP	25	192	3
EXTAP	26	0	3
EXTAP	26	0	4
EXTAP	26	96	3
EXTAP	26	96	4
BXTAP	26	192	3
BXTAP	26	192	4
NMHLD	27	0	2	192
NMTAP	27	192	3
NMTAP	28	0	2
NMTAP	28	96	2
NMTAP	28	192	2
NMTAP	28	192	3
NMHLD	29	0	1	192
NMTAP	29	192	0
NMTAP	30	0	1
NMTAP	30	96	1
NMTAP	30	192	0
NMTAP	30	192	1
NMHLD	31	0	6	192
NMTAP	31	192	7
NMTAP	32	0	6
NMTAP	32	96	6
NMTAP	32	192	6
NMTAP	32	192	7
NMHLD	33	0	5	192
NMTAP	33	192	4
NMTAP	34	0	5
NMTAP	34	96	5
NMTAP	34	192	4
NMTAP	34	192	5
NMTAP	35	0	3
NMTAP	35	96	3
NMTAP	35	192	2
NMTAP	35	288	2
NMTAP	36	0	1
NMTAP	36	96	1
NMTAP	36	192	0
NMTAP	36	192	7
EXTAP	37	0	0
EXTAP	37	0	1
EXTAP	37	192	6
EXTAP	37	192	7
EXTAP	38	0	0
EXTAP	38	0	7
EXTAP	38	96	0
EXTAP	38	96	7
EXTAP	38	192	0
EXTAP	38	192	7
NMTAP	39	0	6
NMTAP	39	96	6
NMTAP	39	192	6
NMTAP	39	192	7
NMTAP	40	0	5
NMTAP	40	96	5
NMTAP	40	192	4
NMTAP	40	192	5
NMTAP	41	0	3
NMTAP	41	96	3
NMTAP	41	192	2
NMTAP	41	192	3
NMTAP	42	0	0
NMTAP	42	0	1
NMTAP	42	96	0
NMTAP	42	96	1
NMTAP	42	192	0
NMTAP	42	192	1
NMTAP	43	0	2
NMTAP	43	96	2
NMTAP	43	192	1
NMTAP	43	288	1
NMTAP	44	0	0
NMTAP	44	96	0
NMTAP	44	192	6
NMTAP	44	192	7
NMTAP	45	0	5
NMTAP	45	96	5
NMTAP	45	192	6
NMTAP	45	288	6
NMTAP	46	0	7
NMTAP	46	96	7
NMTAP	46	192	0
NMTAP	46	192	1
NMTAP	47	0	1
NMTAP	47	96	1
NMTAP	47	192	2
NMTAP	47	288	2
NMTAP	48	0	3
NMTAP	48	96	3
NMTAP	48	192	4
NMTAP	48	192	5
NMTAP	49	0	6
NMTAP	49	96	6
NMTAP	49	192	5
NMTAP	49	288	5
NMTAP	50	0	4
NMTAP	50	96	4
NMTAP	50	192	2
NMTAP	50	192	3
NMTAP	51	0	2
NMTAP	51	96	2
NMTAP	51	192	0
NMTAP	51	192	1
NMTAP	51	288	0
NMTAP	51	288	1
NMTAP	52	0	7
NMTAP	52	96	7
NMTAP	52	192	6
NMTAP	52	192	7
NMTAP	53	0	5
NMTAP	53	96	5
NMTAP	53	192	6
NMTAP	53	192	7
NMTAP	53	288	6
NMTAP	53	288	7
NMTAP	54	0	0
NMTAP	54	96	0
NMTAP	54	192	0
NMTAP	54	192	1
NMTAP	55	0	1
NMTAP	55	96	1
NMTAP	55	192	2
NMTAP	55	192	3
NMTAP	55	288	2
NMTAP	55	288	3
NMTAP	56	0	4
NMTAP	56	96	4
NMTAP	56	192	4
NMTAP	56	192	5
NMTAP	57	0	6
NMTAP	57	96	6
NMTAP	57	192	4
NMTAP	57	192	5
NMTAP	57	288	4
NMTAP	57	288	5
NMTAP	58	0	3
NMTAP	58	96	3
NMTAP	58	192	3
NMTAP	58	192	4
NMSTR	59	0	2
NMSUL	59	0	2	96	480	7
NMSTR	61	0	6
NMSUL	61	0	6	96	480	3
NMTTP	63	0	1	B	0	L1
NMTTP	63	96	2	B	0	L1
NMTTP	63	192	3	E	0	L1
NMTTP	64	0	6	B	0	L1
NMTTP	64	96	5	B	0	L1
NMTTP	64	192	5	E	0	L1
NMTTP	65	0	3	B	0	L1
NMTTP	65	96	2	B	0	L1
NMTTP	65	192	1	B	0	L1
NMTTP	65	288	0	B	0	L1
NMTTP	66	0	7	B	0	L1
NMTTP	66	96	6	B	0	L1
NMTTP	66	192	5	B	0	L1
NMTTP	66	288	4	B	0	L1
NMTHO	67	0	0	768	C	0	L1
BRTAP	70	0	0
BRTAP	70	0	7
BRTAP	70	96	0
BRTAP	70	96	7
BRTAP	70	192	0
BRTAP	70	192	7
NMHLD	71	0	1	192
NMTAP	71	192	0
NMTAP	72	0	0
NMTAP	72	0	1
NMTAP	72	96	0
NMTAP	72	96	1
NMTAP	72	192	0
NMTAP	72	192	1
NMHLD	73	0	2	192
NMTAP	73	192	3
NMTAP	74	0	2
NMTAP	74	0	3
NMTAP	74	96	2
NMTAP	74	96	3
NMTAP	74	192	2
NMTAP	74	192	3
NMHLD	75	0	5	192
NMTAP	75	192	4
NMTAP	76	0	4
NMTAP	76	0	5
NMTAP	76	96	4
NMTAP	76	96	5
NMTAP	76	192	4
NMTAP	76	192	5
NMHLD	77	0	6	192
NMTAP	77	192	7
NMTAP	78	0	6
NMTAP	78	0	7
NMTAP	78	96	6
NMTAP	78	96	7
NMTAP	78	192	6
NMTAP	78	192	7
NMTAP	79	0	7
NMTAP	79	96	7
NMTAP	79	192	6
NMTAP	79	288	6
NMTAP	80	0	5
NMTAP	80	96	5
NMTAP	80	192	3
NMTAP	80	192	4
NMTAP	81	0	2
NMTAP	81	0	3
NMTAP	81	192	4
NMTAP	81	192	5
BRTAP	82	0	3
BRTAP	82	0	4
BRTAP	82	96	3
BRTAP	82	96	4
BRTAP	82	192	3
BRTAP	82	192	4
NMTAP	83	0	3
NMTAP	83	96	3
NMTAP	83	192	2
NMTAP	83	288	2
NMTAP	84	0	1
NMTAP	84	96	1
NMTAP	84	192	0
NMTAP	84	288	0
NMTAP	85	0	7
NMTAP	85	96	7
NMTAP	85	192	6
NMTAP	85	288	6
NMTAP	86	0	5
NMTAP	86	96	5
NMTAP	86	192	3
NMTAP	86	192	4
NMTAP	87	0	5
NMTAP	87	48	5
NMTAP	87	96	5
NMTAP	87	192	6
NMTAP	87	192	7
NMTAP	87	288	6
NMTAP	87	288	7
NMTAP	88	0	0
NMTAP	88	48	0
NMTAP	88	96	0
NMTAP	88	192	0
NMTAP	88	192	1
NMTAP	89	0	2
NMTAP	89	48	2
NMTAP	89	96	2
NMTAP	89	192	0
NMTAP	89	192	1
NMTAP	89	288	0
NMTAP	89	288	1
NMTAP	90	0	7
NMTAP	90	48	7
NMTAP	90	96	7
NMTAP	90	192	6
NMTAP	90	192	7
NMTAP	91	0	6
NMTAP	91	48	6
NMTAP	91	96	6
NMTAP	91	192	4
NMTAP	91	192	5
NMTAP	91	288	4
NMTAP	91	288	5
NMTAP	92	0	3
NMTAP	92	48	3
NMTAP	92	96	3
NMTAP	92	192	2
NMTAP	92	192	3
NMTAP	93	0	1
NMTAP	93	48	1
NMTAP	93	96	1
NMTAP	93	192	2
NMTAP	93	192	3
NMTAP	93	288	2
NMTAP	93	288	3
NMTAP	94	0	4
NMTAP	94	48	4
NMTAP	94	96	4
NMTAP	94	192	3
NMTAP	94	192	4
NMTAP	95	0	2
NMTAP	95	96	2
NMTAP	95	192	0
NMTAP	95	192	1
NMTAP	95	288	0
NMTAP	95	288	1
NMTAP	96	0	7
NMTAP	96	96	6
NMTAP	96	192	4
NMTAP	96	192	5
NMTAP	96	288	4
NMTAP	96	288	5
NMTAP	97	0	6
NMTAP	97	96	7
NMTAP	97	192	0
NMTAP	97	192	1
NMTAP	97	288	0
NMTAP	97	288	1
NMTAP	98	0	2
NMTAP	98	96	2
NMTAP	98	192	3
NMTAP	98	192	4
NMTAP	99	0	5
NMTAP	99	96	5
NMTAP	99	192	6
NMTAP	99	192	7
NMTAP	99	288	6
NMTAP	99	288	7
NMTAP	100	0	0
NMTAP	100	96	1
NMTAP	100	192	2
NMTAP	100	192	3
NMTAP	100	288	2
NMTAP	100	288	3
NMTAP	101	0	1
NMTAP	101	96	0
NMTAP	101	192	6
NMTAP	101	192	7
NMTAP	101	288	6
NMTAP	101	288	7
NMTAP	102	0	5
NMTAP	102	96	5
NMTAP	102	192	3
NMTAP	102	192	4
BRTAP	103	0	2
BRTAP	103	0	5

T_REC_TAP	311
T_REC_BRK	14
T_REC_XTP	18
T_REC_BXX	2
T_REC_HLD	22
T_REC_XHO	0
T_REC_BHO	0
T_REC_BXH	0
T_REC_STR	5
T_REC_BST	0
T_REC_XST	0
T_REC_XBS	0
T_REC_TTP	14
T_REC_THO	1
T_REC_SLD	5
T_REC_BSL	0
T_REC_ALL	392
T_NUM_TAP	348
T_NUM_BRK	16
T_NUM_HLD	23
T_NUM_SLD	5
T_NUM_ALL	392
T_JUDGE_TAP	364
T_JUDGE_HLD	104
T_JUDGE_SLD	5
T_JUDGE_ALL	473
TTM_EACHPAIRS	98
TTM_SCR_TAP	174000
TTM_SCR_BRK	41600
TTM_SCR_HLD	23000
TTM_SCR_SLD	7500
TTM_SCR_ALL	246100
TTM_SCR_S	237200
TTM_SCR_SS	244500
TTM_RAT_ACV	10065

