VERSION	0.00.00	1.04.00
FES_MODE	0
BPM_DEF	170.000	170.000	170.000	170.000
MET_DEF	4	4
RESOLUTION	384
CLK_DEF	384
COMPATIBLE_CODE	MA2

BPM	0	0	170.000
MET	0	0	4	4

NMTAP	1	0	5
NMTAP	1	24	4
NMTAP	1	48	5
NMTAP	1	96	3
NMTAP	1	96	4
NMTAP	1	144	3
NMTAP	1	144	4
NMTAP	1	192	2
NMTAP	1	216	3
NMTAP	1	240	2
NMTAP	1	288	3
NMTAP	1	288	4
NMTAP	1	336	3
NMTAP	1	336	4
NMSTR	2	0	5
NMSI_	2	0	5	96	48	1
NMSTR	2	96	2
NMSI_	2	96	2	96	48	6
NMSTR	2	192	4
NMSI_	2	192	4	96	48	1
NMSI_	2	192	4	96	48	7
NMTAP	2	288	4
NMTAP	3	0	2
NMTAP	3	0	6
NMTAP	3	96	2
NMTAP	3	96	5
NMTAP	3	144	5
NMTAP	3	192	2
NMTAP	3	192	4
NMTAP	3	240	4
NMTAP	3	288	2
NMSTR	3	288	3
NMSXL	3	288	3	96	96	4
NMTAP	4	0	2
NMTAP	4	96	2
NMTAP	4	192	2
NMSTR	4	192	3
NMSI_	4	192	3	96	48	7
NMTAP	4	288	2
NMTAP	5	0	1
NMTAP	5	0	5
NMTAP	5	96	2
NMTAP	5	96	5
NMTAP	5	144	2
NMTAP	5	192	3
NMTAP	5	192	5
NMTAP	5	240	3
NMTAP	5	288	4
NMTAP	5	288	5
NMTAP	5	336	4
NMTAP	6	0	5
NMTAP	6	48	4
NMTAP	6	96	4
NMTAP	6	96	5
NMSTR	6	192	2
NMSI_	6	192	2	96	48	4
NMSTR	6	192	6
NMSI_	6	192	6	96	48	4
NMTAP	7	0	3
NMTAP	7	0	5
NMTAP	7	48	5
NMTAP	7	96	1
NMTAP	7	96	5
NMTAP	7	144	5
NMTAP	7	192	5
NMSTR	7	192	7
NMSI_	7	192	7	96	48	3
NMTAP	7	240	5
NMTAP	7	288	5
NMTAP	8	0	2
NMTAP	8	0	4
NMTAP	8	48	2
NMTAP	8	96	2
NMTAP	8	96	6
NMTAP	8	144	2
NMSTR	8	192	0
NMSI_	8	192	0	96	48	4
NMTAP	8	192	2
NMTAP	8	240	2
NMTAP	8	288	2
NMTAP	9	0	1
NMTAP	9	0	3
NMTAP	9	48	0
NMTAP	9	96	4
NMTAP	9	96	6
NMTAP	9	144	7
NMTAP	9	192	1
NMTAP	9	192	3
NMTAP	9	240	0
NMTAP	9	288	6
NMTAP	9	288	7
NMTAP	9	336	4
NMTAP	9	336	5
NMTAP	10	0	1
NMTAP	10	32	3
NMTAP	10	64	2
NMTAP	10	96	6
NMTAP	10	128	4
NMTAP	10	160	5
NMSTR	10	192	0
NMSF_	10	192	0	96	48	4
BRTAP	10	288	0
EXHLD	11	0	3	768
NMTTP	11	96	3	B	0	M1
NMTTP	11	288	4	B	0	M1
NMTTP	12	96	5	B	0	M1
NMTTP	12	288	6	B	0	M1
NMHLD	13	0	7	768
NMTTP	13	96	4	B	0	M1
NMTTP	13	288	3	B	0	M1
NMTTP	14	96	2	B	0	M1
NMTTP	14	288	1	B	0	M1
NMHLD	15	0	0	384
NMTTP	15	96	6	B	0	M1
NMTTP	15	192	5	B	0	M1
NMTTP	15	288	4	B	0	M1
NMHLD	16	0	3	384
NMTTP	16	96	2	B	0	M1
NMTTP	16	192	3	B	0	M1
NMTTP	16	288	4	B	0	M1
NMHLD	17	0	5	96
NMHLD	17	96	7	96
NMHLD	17	192	1	96
NMHLD	17	288	3	96
NMTAP	18	0	4
NMTAP	18	96	6
NMTAP	18	96	7
NMTAP	18	192	4
NMTAP	18	192	5
NMTAP	18	288	0
NMTAP	18	288	1
NMTAP	19	0	2
NMTAP	19	0	3
NMTAP	19	48	2
NMTAP	19	96	2
NMTAP	19	96	3
NMHLD	19	192	3	72
NMHLD	19	264	4	72
NMTAP	19	336	5
NMTAP	20	0	0
NMTAP	20	0	5
NMTAP	20	48	5
NMTAP	20	96	0
NMTAP	20	96	5
NMTAP	20	192	6
NMTAP	20	216	7
NMTAP	20	264	7
NMTAP	20	288	6
NMTAP	20	336	5
NMTAP	21	0	4
NMTAP	21	0	5
NMTAP	21	48	5
NMTAP	21	96	4
NMTAP	21	96	5
NMHLD	21	192	4	72
NMHLD	21	264	3	72
NMTAP	21	336	2
NMTAP	22	0	2
NMTAP	22	0	7
NMTAP	22	48	2
NMTAP	22	96	2
NMTAP	22	96	7
NMTAP	22	192	1
NMTAP	22	216	0
NMTAP	22	264	0
NMTAP	22	288	1
NMTAP	22	336	2
NMTAP	23	0	2
NMTAP	23	0	3
NMTAP	23	48	3
NMTAP	23	96	2
NMTAP	23	144	2
NMTAP	23	192	2
NMTAP	23	192	4
NMTAP	23	240	4
NMTAP	23	288	1
NMTAP	23	336	1
NMTAP	24	0	1
NMTAP	24	0	5
NMTAP	24	48	5
NMTAP	24	96	0
NMTAP	24	144	0
NMTAP	24	192	0
NMTAP	24	192	6
NMTAP	24	240	6
NMTAP	24	288	7
NMTAP	24	336	7
NMTAP	25	0	6
NMTAP	25	0	7
NMTAP	25	48	6
NMTAP	25	96	4
NMTAP	25	96	5
NMTAP	25	144	5
NMTAP	25	192	2
NMTAP	25	192	3
NMTAP	25	240	2
NMSTR	25	288	0
NMSI_	25	288	0	96	48	4
NMTAP	25	288	1
NMSTR	26	0	0
NMSCL	26	0	0	96	48	5
NMSTR	26	96	0
NMSCR	26	96	0	96	48	3
NMSTR	26	192	0
NMSI_	26	192	0	96	48	4
NMTAP	26	288	0
NMTAP	27	0	3
NMHLD	27	0	5	96
NMHLD	27	96	6	96
NMTAP	27	192	7
NMTAP	27	240	7
NMTAP	27	288	0
NMTAP	27	288	6
NMHLD	28	0	4	96
NMTAP	28	0	5
NMTAP	28	96	3
NMHLD	28	144	3	96
NMTAP	28	240	2
NMTAP	28	288	0
NMTAP	28	288	1
NMHLD	29	0	2	96
NMTAP	29	0	3
NMHLD	29	96	1	96
NMTAP	29	192	0
NMTAP	29	240	0
NMTAP	29	288	1
NMTAP	29	288	7
NMTAP	30	0	2
NMHLD	30	0	3	96
NMTAP	30	96	4
NMTAP	30	144	4
NMTAP	30	192	3
NMTAP	30	192	5
NMTAP	30	288	0
NMTAP	30	288	6
NMHLD	31	0	2	96
NMTAP	31	0	3
NMHLD	31	96	1	96
NMTAP	31	192	0
NMTAP	31	240	0
NMTAP	31	288	1
NMTAP	31	288	7
NMTAP	32	0	2
NMHLD	32	0	3	96
NMTAP	32	96	4
NMHLD	32	144	4	96
NMTAP	32	240	5
NMTAP	32	288	6
NMTAP	32	288	7
NMHLD	33	0	4	96
NMTAP	33	0	5
NMHLD	33	96	3	96
NMTAP	33	192	2
NMTAP	33	240	2
NMTAP	33	288	1
NMTAP	33	288	3
NMHLD	34	0	0	48
NMHLD	34	0	6	48
NMHLD	34	72	4	48
NMHLD	34	72	5	48
NMTAP	34	144	1
NMSTR	34	144	7
NMSSR	34	144	7	96	72	3
NMHLD	35	0	2	288
NMTAP	35	0	4
NMTAP	35	96	1
NMTAP	35	144	1
NMSTR	35	192	0
NMSI_	35	192	0	96	48	4
NMTAP	35	240	0
NMTAP	36	0	2
NMHLD	36	0	3	288
NMTAP	36	96	1
NMTAP	36	144	1
NMSTR	36	192	0
NMSI_	36	192	0	96	48	4
NMTAP	36	240	0
NMTAP	37	0	3
NMHLD	37	0	5	288
NMTAP	37	96	6
NMTAP	37	144	6
NMSTR	37	192	7
NMSI_	37	192	7	96	48	3
NMTAP	37	240	7
NMHLD	38	0	4	288
NMTAP	38	0	5
NMTAP	38	96	6
NMTAP	38	144	6
NMSTR	38	192	7
NMSI_	38	192	7	96	48	3
NMTAP	38	240	7
NMTAP	39	0	2
NMTAP	39	0	4
NMSTR	39	48	2
NMSI_	39	48	2	96	48	6
NMSTR	39	48	4
NMSI_	39	48	4	96	48	7
NMTAP	39	240	0
NMTAP	39	240	5
NMTAP	39	288	0
NMTAP	39	288	5
NMTAP	40	0	1
NMTAP	40	0	4
NMTAP	40	48	1
NMSTR	40	48	4
NMSCR	40	48	4	96	144	3
NMTAP	40	144	2
NMTAP	40	144	4
NMTAP	41	0	1
NMTAP	41	0	7
NMTAP	41	32	1
NMTAP	41	32	7
NMTAP	41	64	1
NMTAP	41	64	7
NMTAP	41	192	4
NMTAP	41	192	5
NMTAP	41	224	4
NMTAP	41	224	5
NMTAP	41	256	4
NMTAP	41	256	5
NMTAP	42	0	0
NMTAP	42	0	7
NMTAP	42	32	0
NMTAP	42	32	7
NMTAP	42	64	0
NMTAP	42	64	7
NMTAP	42	96	0
NMTAP	42	96	7
NMTAP	42	128	0
NMTAP	42	128	7
NMTAP	42	160	0
NMTAP	42	160	7
NMSTR	42	192	0
NMSI_	42	192	0	96	48	3
NMSTR	42	192	7
NMSI_	42	192	7	96	48	4
BRTAP	42	288	0
BRTAP	42	288	7
NMHLD	43	0	0	96
NMHLD	43	192	1	96
NMTAP	44	0	0
NMTAP	44	96	1
NMTAP	44	192	2
NMTAP	44	192	3
NMTAP	44	240	4
NMTAP	44	240	5
NMTAP	44	288	6
NMSTR	44	288	7
NMSI_	44	288	7	96	48	1
NMSV_	44	288	7	96	48	2
NMSTR	45	0	7
NMSI_	45	0	7	96	48	5
NMSV_	45	0	7	96	48	4
NMSTR	45	96	7
NMSI_	45	96	7	96	48	1
NMSV_	45	96	7	96	48	2
NMTAP	45	192	7
NMTAP	45	288	3
NMTAP	45	288	4
NMTAP	45	336	3
NMTAP	45	336	4
NMTAP	46	0	5
NMTAP	46	48	6
NMTAP	46	48	7
NMTAP	46	96	0
NMTAP	46	144	1
NMSTR	46	192	2
NMSI_	46	192	2	96	48	6
NMSTR	46	192	3
NMSI_	46	192	3	96	48	6
NMTAP	46	288	2
NMTAP	46	288	3
NMTAP	47	0	4
NMSTR	47	0	5
NMSV_	47	0	5	96	48	0
NMSTR	47	96	2
NMSV_	47	96	2	96	48	7
NMTAP	47	96	5
NMTAP	47	192	2
NMTAP	47	192	3
NMTAP	47	288	4
NMTAP	47	288	5
NMTAP	47	336	4
NMSTR	47	336	5
NMSV_	47	336	5	96	48	0
NMSTR	48	48	3
NMSI_	48	48	3	96	48	0
NMTAP	48	48	5
NMTAP	48	144	3
NMTAP	48	144	4
NMTAP	48	240	6
NMTAP	48	240	7
NMTAP	48	288	6
NMSTR	48	288	7
NMSI_	48	288	7	96	48	1
NMSV_	48	288	7	96	48	2
NMSTR	49	0	7
NMSI_	49	0	7	96	48	5
NMSV_	49	0	7	96	48	4
NMSTR	49	96	7
NMSI_	49	96	7	96	48	1
NMSV_	49	96	7	96	48	2
NMTAP	49	192	7
NMTAP	49	288	3
NMTAP	49	288	4
NMTAP	49	336	3
NMTAP	49	336	4
NMTAP	50	0	5
NMTAP	50	48	6
NMTAP	50	48	7
NMTAP	50	96	0
NMTAP	50	144	1
NMSTR	50	192	2
NMSI_	50	192	2	96	48	7
NMSTR	50	192	3
NMSI_	50	192	3	96	48	7
NMTAP	50	288	2
NMTAP	50	288	3
NMSTR	51	0	0
NMSCR	51	0	0	96	96	3
NMTAP	51	0	6
NMSTR	51	96	3
NMSCR	51	96	3	96	96	6
NMSTR	51	192	6
NMSCR	51	192	6	96	96	1
NMSTR	51	288	1
NMSCR	51	288	1	96	96	4
BRSTR	52	0	4
NMSCR	52	0	4	96	96	0
BRSTR	52	96	0
NMSCR	52	96	0	96	96	4
BRTAP	52	192	4
BRSTR	52	288	0
NMSI_	52	288	0	96	48	6
NMSV_	52	288	0	96	48	5
NMSTR	53	0	0
NMSI_	53	0	0	96	48	2
NMSV_	53	0	0	96	48	3
NMSTR	53	96	0
NMSI_	53	96	0	96	48	6
NMSV_	53	96	0	96	48	5
NMTAP	53	192	0
NMTAP	53	288	2
NMTAP	53	288	4
NMTAP	53	336	1
NMTAP	53	336	3
NMTAP	54	0	0
NMTAP	54	48	6
NMTAP	54	48	7
NMTAP	54	96	4
NMTAP	54	96	5
NMTAP	54	144	2
NMTAP	54	144	3
NMSTR	54	192	0
NMSI_	54	192	0	96	48	5
NMSTR	54	192	1
NMSI_	54	192	1	96	48	5
NMTAP	54	288	0
NMTAP	54	288	1
NMSTR	55	0	3
NMSCL	55	0	3	96	48	0
NMTAP	55	0	4
NMTAP	55	96	3
NMSTR	55	96	4
NMSCR	55	96	4	96	48	7
NMTAP	55	192	1
NMTAP	55	192	4
NMTAP	55	288	2
NMTAP	55	288	3
NMSTR	55	336	2
NMSV_	55	336	2	96	48	7
NMTAP	55	336	3
NMTAP	56	48	2
NMSTR	56	48	4
NMSCR	56	48	4	96	48	7
NMTAP	56	144	3
NMTAP	56	144	4
NMTAP	56	240	0
NMTAP	56	240	1
NMSTR	56	288	0
NMSI_	56	288	0	96	48	6
NMSV_	56	288	0	96	48	5
NMTAP	56	288	1
NMSTR	57	0	0
NMSI_	57	0	0	96	48	2
NMSV_	57	0	0	96	48	3
NMSTR	57	96	0
NMSI_	57	96	0	96	48	6
NMSV_	57	96	0	96	48	5
NMTAP	57	192	0
NMTAP	57	288	2
NMTAP	57	288	4
NMTAP	57	336	1
NMTAP	57	336	3
NMTAP	58	0	0
NMTAP	58	48	6
NMTAP	58	48	7
NMTAP	58	96	4
NMTAP	58	96	5
NMTAP	58	144	2
NMTAP	58	144	3
NMSTR	58	192	0
NMSI_	58	192	0	96	48	4
NMSTR	58	192	1
NMSI_	58	192	1	96	48	4
NMTAP	58	288	0
NMTAP	58	288	1
NMTAP	59	0	3
NMTAP	59	0	5
NMTAP	59	48	3
NMTAP	59	48	5
NMTAP	59	96	2
NMTAP	59	96	4
NMTAP	59	144	2
NMTAP	59	144	4
NMTAP	59	192	1
NMTAP	59	192	3
NMTAP	59	240	1
NMTAP	59	240	3
NMTAP	59	288	0
NMTAP	59	288	2
NMTAP	59	336	0
NMTAP	59	336	2
NMTAP	60	0	3
NMTAP	60	24	1
NMTAP	60	48	4
NMTAP	60	72	2
NMTAP	60	96	5
NMTAP	60	120	3
NMTAP	60	144	6
NMTAP	60	168	4
NMSTR	60	192	7
NMSF_	60	192	7	96	48	3
NMTAP	60	240	0
NMTAP	60	240	6
NMTAP	60	288	7
BRTAP	61	0	1
BRTAP	61	0	5
NMSTR	61	48	2
NMSI_	61	48	2	96	48	7
NMTAP	61	72	3
NMTAP	61	144	2
NMTAP	61	144	7
NMTAP	61	192	5
NMSTR	61	240	6
NMSI_	61	240	6	96	48	3
NMTAP	61	264	7
NMTAP	61	336	3
NMTAP	61	336	6
NMTAP	62	0	1
NMSTR	62	48	2
NMSI_	62	48	2	96	48	7
NMTAP	62	72	3
NMTAP	62	144	2
NMTAP	62	144	7
NMSTR	62	192	6
NMSI_	62	192	6	96	48	2
NMSI_	62	192	6	96	48	4
NMTAP	62	240	6
NMTAP	62	288	6
NMTAP	63	0	0
NMTAP	63	0	1
NMTAP	63	48	1
NMHLD	63	72	3	48
NMTAP	63	120	2
NMHLD	63	144	4	48
NMTAP	63	192	3
NMHLD	63	216	5	48
NMTAP	63	264	4
NMHLD	63	288	6	48
NMTAP	63	336	7
NMTAP	64	0	6
NMTAP	64	0	7
NMTAP	64	48	6
NMHLD	64	72	4	48
NMTAP	64	120	5
NMHLD	64	144	3	48
NMTAP	64	192	4
NMHLD	64	216	2	48
NMTAP	64	264	3
NMHLD	64	288	1	48
NMTAP	64	336	0
NMTAP	65	0	0
NMTAP	65	0	1
NMSTR	65	48	6
NMSI_	65	48	6	96	48	3
NMTAP	65	72	7
NMTAP	65	144	3
NMTAP	65	144	6
NMTAP	65	192	1
NMSTR	65	240	2
NMSI_	65	240	2	96	48	7
NMTAP	65	264	3
NMTAP	65	336	2
NMTAP	65	336	7
NMTAP	66	0	5
NMSTR	66	48	6
NMSI_	66	48	6	96	48	3
NMTAP	66	72	7
NMTAP	66	144	3
NMTAP	66	144	6
NMTAP	66	192	2
NMTAP	66	240	2
NMSTR	66	288	0
NMSI_	66	288	0	96	48	4
NMSTR	66	288	1
NMSI_	66	288	1	96	48	3
NMTAP	66	336	7
NMSTR	67	0	0
NMSI_	67	0	0	96	48	6
NMSTR	67	0	1
NMSI_	67	0	1	96	48	5
NMTAP	67	96	0
NMTAP	67	96	1
NMTAP	67	192	2
NMTAP	67	192	4
NMTAP	67	240	2
NMTAP	67	240	4
NMTAP	67	288	1
NMSTR	67	336	0
NMSI_	67	336	0	96	48	4
NMSTR	67	336	7
NMSI_	67	336	7	96	48	5
NMSTR	68	48	0
NMSI_	68	48	0	96	48	2
NMSTR	68	48	7
NMSI_	68	48	7	96	48	3
NMTAP	68	144	0
NMTAP	68	144	7
NMTAP	68	240	1
NMTAP	68	240	4
BRTAP	68	288	6
BRTAP	68	288	7
NMSTR	69	0	2
NMSXL	69	0	2	96	144	0
NMSTR	69	0	6
NMSXR	69	0	6	96	144	0
NMHLD	70	0	0	48
NMHLD	70	0	1	48
NMHLD	70	72	2	48
NMHLD	70	72	3	48
NMTAP	70	144	4
NMTAP	70	144	5
NMSTR	70	192	6
NMSI_	70	192	6	96	48	1
NMSTR	70	192	7
NMSI_	70	192	7	96	48	4
NMTAP	70	240	0
NMTAP	70	240	5
BRTAP	70	288	6
BRTAP	70	288	7
NMTAP	71	0	2
NMTAP	71	0	3
NMTAP	71	48	2
NMHLD	71	72	0	48
NMTAP	71	120	1
NMHLD	71	144	7	48
NMTAP	71	192	0
NMHLD	71	216	6	48
NMTAP	71	264	7
NMHLD	71	288	5	48
NMTAP	71	336	4
NMTAP	72	0	2
NMTAP	72	0	3
NMTAP	72	48	5
NMHLD	72	72	7	48
NMTAP	72	120	6
NMHLD	72	144	0	48
NMTAP	72	192	7
NMHLD	72	216	1	48
NMTAP	72	264	0
NMHLD	72	288	2	48
NMTAP	72	336	3
NMSTR	73	0	4
NMSI_	73	0	4	96	48	1
NMTAP	73	0	5
NMTAP	73	48	5
NMTAP	73	96	4
NMTAP	73	96	5
NMTAP	73	144	5
NMSTR	73	192	2
NMSI_	73	192	2	96	48	6
NMTAP	73	192	5
NMTAP	73	240	5
NMTAP	73	288	2
NMTAP	73	288	5
NMTAP	73	336	5
NMTAP	74	0	5
NMSTR	74	0	7
NMSI_	74	0	7	96	48	3
NMTAP	74	48	5
NMTAP	74	96	5
NMTAP	74	96	7
NMTAP	74	144	5
NMTAP	74	192	2
NMTAP	74	192	4
NMTAP	74	240	0
NMTAP	74	240	1
NMSTR	74	288	6
NMSI_	74	288	6	96	48	2
NMSTR	74	288	7
NMSI_	74	288	7	96	48	1
NMTAP	74	336	4
NMTAP	74	336	5
NMSTR	75	0	6
NMSI_	75	0	6	96	48	4
NMSTR	75	0	7
NMSI_	75	0	7	96	48	3
NMTAP	75	96	6
NMTAP	75	96	7
NMTAP	75	192	2
NMTAP	75	192	5
NMTAP	75	240	2
NMTAP	75	240	5
NMTAP	75	288	1
NMTAP	75	288	6
NMSTR	75	336	0
NMSCR	75	336	0	96	144	7
NMSTR	75	336	7
NMSCL	75	336	7	96	144	0
BRTAP	76	288	2
BRTAP	76	288	5
NMTAP	77	0	3
NMHLD	77	0	4	768
NMTAP	77	96	3
NMTAP	77	192	3
NMSTR	77	288	3
NMSCL	77	288	3	96	192	5
NMTAP	77	336	3
NMHLD	79	0	3	672
NMTAP	79	96	4
NMTAP	79	192	4
NMSTR	79	288	4
NMSCR	79	288	4	96	192	2
NMTAP	79	336	4
NMTAP	80	288	4
NMTAP	81	0	4
NMTAP	81	0	6
NMTAP	81	48	5
NMTAP	81	96	5
NMTAP	81	144	5
NMTAP	81	192	6
NMTAP	81	240	6
NMTAP	81	288	6
NMTAP	81	336	1
NMTAP	81	336	7
NMTAP	82	0	0
NMTAP	82	48	0
NMTAP	82	96	0
NMTAP	82	144	0
NMTAP	82	192	1
NMTAP	82	240	1
NMTAP	82	288	1
NMTAP	82	336	1
NMTAP	83	0	2
NMTAP	83	0	4
NMTAP	83	48	3
NMTAP	83	96	3
NMTAP	83	144	4
NMTAP	83	144	6
NMTAP	83	192	5
NMTAP	83	240	5
NMTAP	83	288	5
NMTAP	83	336	0
NMTAP	83	336	6
NMTAP	84	0	0
NMTAP	84	24	1
NMTAP	84	48	2
NMTAP	84	72	3
NMTAP	84	96	4
NMTAP	84	120	5
NMTAP	84	144	6
NMTAP	84	168	7
NMTAP	84	192	0
NMTAP	84	204	1
NMTAP	84	216	2
NMTAP	84	228	3
NMTAP	84	240	4
NMTAP	84	252	5
NMTAP	84	264	6
NMTAP	84	276	7
NMTAP	84	288	0
NMTAP	84	300	1
NMTAP	84	312	2
NMTAP	84	324	3
NMTAP	84	336	4
NMTAP	84	348	5
NMTAP	84	360	6
NMTAP	84	372	7
BRTAP	85	0	0
BRTAP	85	0	4

T_REC_TAP	514
T_REC_BRK	14
T_REC_XTP	0
T_REC_BXX	0
T_REC_HLD	56
T_REC_XHO	1
T_REC_BHO	0
T_REC_BXH	0
T_REC_STR	86
T_REC_BST	3
T_REC_XST	0
T_REC_XBS	0
T_REC_TTP	14
T_REC_THO	0
T_REC_SLD	103
T_REC_BSL	0
T_REC_ALL	791
T_NUM_TAP	614
T_NUM_BRK	17
T_NUM_HLD	57
T_NUM_SLD	103
T_NUM_ALL	791
T_JUDGE_TAP	631
T_JUDGE_HLD	172
T_JUDGE_SLD	103
T_JUDGE_ALL	906
TTM_EACHPAIRS	196
TTM_SCR_TAP	307000
TTM_SCR_BRK	44200
TTM_SCR_HLD	57000
TTM_SCR_SLD	154500
TTM_SCR_ALL	562700
TTM_SCR_S	544200
TTM_SCR_SS	561000
TTM_RAT_ACV	10030

