VERSION	0.00.00	1.04.00
FES_MODE	0
BPM_DEF	170.000	170.000	170.000	170.000
MET_DEF	4	4
RESOLUTION	384
CLK_DEF	384
COMPATIBLE_CODE	MA2

BPM	0	0	170.000
MET	0	0	4	4

NMHLD	1	0	3	288
NMHLD	1	0	4	288
EXTAP	2	0	3
EXTAP	2	0	4
EXTAP	2	96	3
EXTAP	2	96	5
EXTAP	2	192	2
EXTAP	2	192	4
BXTAP	2	288	1
BXTAP	2	288	5
NMTAP	3	0	6
NMTAP	3	96	6
NMTAP	3	192	4
NMTAP	3	192	5
NMTAP	3	288	3
NMTAP	3	288	4
NMHLD	4	0	2	96
NMTAP	4	96	3
NMTAP	4	192	2
NMTAP	4	192	3
EXTAP	4	288	1
NMTAP	5	0	2
NMTAP	5	96	2
NMTAP	5	192	2
NMTAP	5	192	3
NMTAP	5	288	3
NMTAP	5	288	4
NMHLD	6	0	4	96
NMHLD	6	0	5	96
NMTAP	6	192	4
NMTAP	6	192	5
EXTAP	6	288	7
BXTAP	7	0	0
BXTAP	7	0	6
BXTAP	7	48	0
BXSTR	7	48	6
NMSI_	7	48	6	96	96	3
EXTAP	7	288	0
EXTAP	8	0	2
EXTAP	8	0	4
EXTAP	8	48	2
EXTAP	8	48	4
EXTAP	8	192	3
EXTAP	8	192	5
EXTAP	8	240	3
EXTAP	8	240	5
NMTAP	9	0	6
EXTAP	9	48	6
NMTAP	9	96	0
EXTAP	9	144	0
NMTAP	9	192	7
EXTAP	9	240	7
BXSTR	9	288	1
BRSCR	9	288	1	96	192	6
BXHLD	10	288	1	1248
BXSTR	10	288	7
BRSI_	10	288	7	96	48	3
NMTHO	13	0	0	768	C	0	M1
EXTAP	15	0	0
NMTTP	15	192	1	E	0	M1
NMTTP	15	288	2	E	0	M1
NMTTP	16	0	3	B	0	M1
NMTTP	16	0	3	E	0	M1
NMTTP	16	192	7	E	0	M1
NMTTP	16	288	6	E	0	M1
NMTTP	17	0	4	B	0	M1
NMTTP	17	0	5	E	0	M1
NMTTP	17	192	2	B	0	M1
NMTTP	17	192	2	E	0	M1
NMTTP	17	192	3	E	0	M1
NMTAP	18	0	4
NMTAP	18	96	4
NMTAP	18	192	3
NMTAP	18	288	3
EXSTR	19	0	2
NMSI_	19	0	2	96	192	7
EXTAP	19	0	4
NMSTR	20	0	5
NMSI_	20	0	5	96	192	0
NMSTR	21	0	3
NMSI_	21	0	3	96	192	0
NMSTR	22	0	4
NMSI_	22	0	4	96	192	7
NMHLD	23	0	1	192
NMHLD	23	192	2	192
NMHLD	24	0	3	192
NMHLD	24	192	4	192
NMHLD	25	0	5	192
NMHLD	25	192	6	192
EXTAP	26	0	7
EXTAP	26	96	7
EXTAP	26	192	0
EXTAP	26	192	6
EXTAP	26	288	0
EXTAP	26	288	6
NMTAP	27	0	1
NMTAP	27	0	7
NMHLD	27	96	1	144
NMTAP	27	96	7
NMTAP	27	240	0
NMTAP	27	288	0
NMTAP	28	0	1
NMTAP	28	0	7
NMTAP	28	96	0
NMHLD	28	96	6	144
NMTAP	28	240	7
NMTAP	28	288	7
NMTAP	29	0	0
NMTAP	29	0	6
NMHLD	29	96	1	144
NMTAP	29	96	7
NMTAP	29	240	0
NMTAP	29	288	0
NMTAP	30	0	1
NMTAP	30	0	7
NMTAP	30	96	1
NMTAP	30	192	2
NMTAP	30	192	3
BXTAP	30	288	0
BXTAP	30	288	6
NMTAP	31	0	1
NMSTR	31	96	1
NMSCL	31	96	1	96	96	6
NMTAP	32	0	5
NMSTR	32	96	6
NMSCR	32	96	6	96	96	1
NMSTR	33	0	2
NMSI_	33	0	2	96	96	7
NMSTR	33	192	5
NMSI_	33	192	5	96	96	0
NMTTP	34	0	0	C	1	M1
EXTAP	34	240	0
EXTAP	34	240	7
EXTAP	34	288	0
EXTAP	34	288	7
NMTAP	35	0	6
NMTAP	35	96	6
NMTAP	35	192	4
NMTAP	35	192	5
NMTAP	35	288	3
NMTAP	35	288	4
NMHLD	36	0	2	96
NMTAP	36	96	3
NMTAP	36	144	3
NMTAP	36	240	1
NMTAP	36	240	4
NMTAP	36	288	1
NMTAP	36	288	4
NMTAP	37	0	0
NMTAP	37	96	1
NMTAP	37	192	2
NMTAP	37	192	3
NMTAP	37	288	3
NMTAP	37	288	4
NMHLD	38	0	5	96
NMTAP	38	96	4
NMTAP	38	144	4
NMTAP	38	240	6
NMTAP	38	240	7
NMTAP	38	288	6
NMTAP	38	288	7
NMHLD	39	0	0	96
NMHLD	39	0	1	96
BXTAP	39	144	2
BXTAP	39	144	7
NMTAP	39	288	0
NMTAP	39	288	1
NMHLD	40	0	6	96
NMHLD	40	0	7	96
NMTAP	40	144	6
NMTAP	40	144	7
NMTAP	40	288	4
NMTAP	40	288	5
BXHLD	41	0	2	96
BXHLD	41	0	7	96
BXHLD	41	192	1	96
BXHLD	41	192	6	96
BXTAP	42	0	0
BXTAP	42	0	5
BXTAP	42	96	1
BXTAP	42	96	6
BXTAP	42	192	2
BXHLD	42	192	7	576
EXTAP	43	0	0
EXTAP	43	192	1
EXTAP	44	0	0
EXTAP	44	96	1
EXTAP	44	192	2
EXTAP	44	288	3
EXTAP	44	288	7
BRTAP	45	0	3
BRTAP	45	0	7
NMTAP	45	96	0
NMTAP	45	96	1
NMTAP	45	192	2
NMTAP	45	192	3
NMTAP	45	288	6
NMTAP	45	288	7
NMTAP	46	0	3
NMTAP	46	0	5
NMTAP	46	96	0
NMTAP	46	96	2
NMTAP	46	192	6
NMTAP	46	192	7
NMTAP	46	288	6
NMTAP	46	288	7
NMTAP	47	0	4
NMTAP	47	0	5
NMTAP	47	96	2
NMTAP	47	96	3
NMTAP	47	192	0
NMTAP	47	192	1
NMTAP	47	288	6
NMTAP	47	288	7
EXTAP	48	0	0
EXTAP	48	0	5
NMTAP	48	96	0
NMTAP	48	96	5
NMTAP	48	192	2
NMTAP	48	192	7
NMTAP	48	288	2
NMTAP	48	288	7
NMTAP	49	0	4
NMTAP	49	0	5
NMTAP	49	96	0
NMTAP	49	96	7
NMTAP	49	192	1
NMTAP	49	192	3
NMTAP	49	288	6
NMTAP	49	288	7
NMTAP	50	0	1
NMTAP	50	0	2
NMTAP	50	96	4
NMTAP	50	96	5
NMTAP	50	192	1
NMTAP	50	192	7
NMTAP	50	288	1
NMTAP	50	288	7
NMTAP	51	0	2
NMTAP	51	0	3
NMTAP	51	96	4
NMTAP	51	96	5
NMTAP	51	192	6
NMTAP	51	192	7
NMTAP	51	288	0
NMTAP	51	288	1
BRTAP	52	0	2
BRTAP	52	0	3
BRTAP	52	96	4
BRTAP	52	96	5
BRTAP	52	192	6
BRTAP	52	192	7
BRTAP	52	288	0
BRTAP	52	288	1
NMTAP	53	0	2
NMTAP	53	0	7
NMTAP	53	96	4
NMTAP	53	96	5
NMTAP	53	192	2
NMTAP	53	192	3
NMTAP	53	288	0
NMTAP	53	288	5
NMTAP	54	0	1
NMTAP	54	0	2
NMTAP	54	96	4
NMTAP	54	96	5
NMTAP	54	192	0
NMTAP	54	192	1
NMTAP	54	288	0
NMTAP	54	288	1
NMTAP	55	0	6
NMTAP	55	0	7
NMTAP	55	96	3
NMTAP	55	96	4
NMTAP	55	192	0
NMTAP	55	192	1
NMTAP	55	288	3
NMTAP	55	288	4
NMTAP	56	0	5
NMTAP	56	0	7
NMTAP	56	96	0
NMTAP	56	96	1
NMTAP	56	192	4
NMTAP	56	192	6
NMTAP	56	288	4
NMTAP	56	288	6
BRTAP	57	0	0
BRTAP	57	0	1
NMTAP	57	96	4
NMTAP	57	96	5
NMTAP	57	192	1
NMTAP	57	192	2
NMTAP	57	288	5
NMTAP	57	288	7
NMTAP	58	0	2
NMTAP	58	0	3
NMTAP	58	96	4
NMTAP	58	96	6
NMTAP	58	192	0
NMTAP	58	192	1
NMTAP	58	288	0
NMTAP	58	288	1
NMTAP	59	0	1
NMTAP	59	0	3
NMTAP	59	96	3
NMTAP	59	96	4
NMTAP	59	192	4
NMTAP	59	192	6
NMTAP	59	288	4
NMSTR	59	288	6
NMSUL	59	288	6	96	192	3
BRTAP	60	288	0
BRTAP	60	288	4
NMHLD	61	0	1	72
NMHLD	61	72	3	72
NMTAP	61	144	2
NMHLD	61	192	6	72
NMHLD	61	264	4	72
NMTAP	61	336	5
NMHLD	62	0	1	72
NMHLD	62	72	3	72
NMTAP	62	144	2
NMTAP	62	192	2
NMTAP	62	288	0
NMTAP	62	288	6
NMHLD	63	0	1	72
NMHLD	63	72	0	72
NMHLD	63	144	7	72
NMTAP	63	216	6
EXTAP	63	288	0
EXTAP	63	288	5
NMHLD	64	0	6	72
NMHLD	64	72	7	72
NMHLD	64	144	0	72
NMTAP	64	216	1
EXTAP	64	288	2
EXTAP	64	288	7
NMTAP	65	0	0
NMSTR	65	0	1
NMSI_	65	0	1	96	48	4
NMSTR	65	192	6
NMSI_	65	192	6	96	48	3
NMTAP	65	192	7
NMTAP	66	0	0
NMSTR	66	0	1
NMSI_	66	0	1	96	48	4
EXTAP	66	192	7
NMTAP	66	288	7
NMTAP	67	0	0
NMTAP	67	0	1
NMTAP	67	96	2
NMTAP	67	96	3
NMTAP	67	192	4
NMTAP	67	192	5
NMTAP	67	288	6
NMTAP	67	288	7
NMTAP	68	0	0
NMTAP	68	0	1
NMTAP	68	96	2
NMTAP	68	96	3
NMTAP	68	192	4
NMTAP	68	192	5
BRTAP	68	288	1
BRTAP	68	288	7
BRSTR	69	0	2
NMSCL	69	0	2	96	120	7
BRSTR	69	0	6
NMSCL	69	0	6	96	120	3
EXTAP	69	288	0
EXTAP	69	288	4
EXTAP	70	0	1
EXTAP	70	0	3
EXTAP	70	72	3
EXTAP	70	72	4
EXTAP	70	144	4
EXTAP	70	144	6
EXTAP	70	192	4
EXTAP	70	192	6
BRTAP	70	288	0
BRTAP	70	288	7
NMSTR	71	0	1
NMSI_	71	0	1	96	48	3
NMSTR	71	96	0
NMSI_	71	96	0	96	48	4
NMSTR	71	192	1
NMSI_	71	192	1	96	48	5
EXTAP	71	288	7
NMSTR	72	0	6
NMSI_	72	0	6	96	48	4
NMSTR	72	96	7
NMSI_	72	96	7	96	48	3
NMSTR	72	192	6
NMSI_	72	192	6	96	48	2
EXTAP	72	288	0
EXHLD	73	0	1	96
EXHLD	73	0	3	96
EXHLD	73	192	4	96
EXHLD	73	192	5	96
EXHLD	74	0	2	96
EXHLD	74	0	3	96
NMTAP	74	192	3
NMTAP	74	192	5
NMTAP	74	240	3
NMTAP	74	240	5
BRTAP	74	288	2
BRTAP	74	288	6
NMTAP	75	0	1
NMTAP	75	48	1
NMTAP	75	96	7
NMTAP	75	144	7
NMTAP	75	192	0
NMTAP	75	192	6
NMTAP	75	240	0
NMTAP	75	240	6
NMTAP	75	288	0
NMTAP	75	288	6
EXHLD	75	336	1	240
NMTAP	75	336	5
NMSTR	76	192	3
NMSI_	76	192	3	96	48	7
BRSTR	76	288	0
NMSCR	76	288	0	96	576	6
NMSTR	78	288	7
NMSCL	78	288	7	96	576	1
NMTTP	81	0	1	E	0	M1
NMTTP	81	96	0	C	0	M1
NMTTP	81	192	5	E	0	M1
NMTTP	81	288	4	E	0	M1
NMTTP	81	288	6	E	0	M1
NMTTP	82	0	7	E	0	M1
NMTTP	82	96	0	C	0	M1
NMTTP	82	192	2	E	0	M1
NMTTP	82	192	4	E	0	M1
NMHLD	83	0	6	96
NMHLD	83	0	7	96
NMHLD	83	144	0	96
NMHLD	83	144	7	96
NMTAP	83	288	0
NMTAP	83	288	1
EXTAP	83	336	0
EXTAP	83	336	1
NMTAP	84	48	2
NMTAP	84	48	3
NMHLD	84	144	4	144
NMTAP	84	144	5
NMSTR	84	288	6
NMSI_	84	288	6	96	48	2
BRTAP	85	0	0

T_REC_TAP	227
T_REC_BRK	21
T_REC_XTP	60
T_REC_BXX	14
T_REC_HLD	37
T_REC_XHO	7
T_REC_BHO	0
T_REC_BXH	6
T_REC_STR	20
T_REC_BST	3
T_REC_XST	1
T_REC_XBS	3
T_REC_TTP	21
T_REC_THO	1
T_REC_SLD	25
T_REC_BSL	2
T_REC_ALL	448
T_NUM_TAP	329
T_NUM_BRK	49
T_NUM_HLD	45
T_NUM_SLD	25
T_NUM_ALL	448
T_JUDGE_TAP	370
T_JUDGE_HLD	177
T_JUDGE_SLD	27
T_JUDGE_ALL	574
TTM_EACHPAIRS	151
TTM_SCR_TAP	164500
TTM_SCR_BRK	127400
TTM_SCR_HLD	45000
TTM_SCR_SLD	37500
TTM_SCR_ALL	374400
TTM_SCR_S	358450
TTM_SCR_SS	369500
TTM_RAT_ACV	10132

