VERSION	0.00.00	1.04.00
FES_MODE	0
BPM_DEF	180.000	180.000	180.000	180.000
MET_DEF	4	4
RESOLUTION	384
CLK_DEF	384
COMPATIBLE_CODE	MA2

BPM	0	0	180.000
MET	0	0	4	4

NMHLD	2	0	1	384
NMTTP	2	192	2	E	0	M1
NMHLD	3	0	4	384
NMTTP	3	192	4	E	0	M1
NMHLD	4	0	2	384
NMTTP	4	192	3	E	0	M1
NMHLD	5	0	5	384
NMTTP	5	192	5	E	0	M1
NMHLD	6	0	3	384
NMTTP	6	192	4	E	0	M1
NMHLD	7	0	6	384
NMTTP	7	192	6	E	0	M1
NMHLD	8	0	4	384
NMTTP	8	192	4	E	0	M1
NMHLD	9	0	3	192
NMTAP	9	192	2
NMTAP	10	0	2
NMTAP	10	0	3
NMTTP	10	192	2	E	0	M1
NMTTP	10	192	4	E	0	M1
NMTAP	10	336	4
NMTAP	10	336	5
NMTAP	11	96	4
NMTAP	11	96	5
NMTTP	11	192	4	E	0	M1
NMTTP	11	192	6	E	0	M1
NMTAP	12	0	2
NMTAP	12	0	3
NMTTP	12	192	2	E	0	M1
NMTTP	12	192	4	E	0	M1
NMTAP	12	336	4
NMTAP	12	336	5
NMTAP	13	96	4
NMTAP	13	96	5
NMTTP	13	192	3	E	0	M1
NMTTP	13	192	7	E	0	M1
NMTAP	14	0	0
NMTAP	14	0	1
NMTTP	14	192	4	B	0	M1
NMTTP	14	192	4	E	0	M1
NMTTP	14	192	5	B	0	M1
NMTTP	14	192	6	E	0	M1
NMTAP	14	336	6
NMTAP	14	336	7
NMTAP	15	96	6
NMTAP	15	96	7
NMTTP	15	192	2	B	0	M1
NMTTP	15	192	2	E	0	M1
NMTTP	15	192	3	B	0	M1
NMTTP	15	192	4	E	0	M1
NMTHO	16	0	0	384	C	0	M1
BXHLD	18	0	0	288
BXHLD	18	0	7	288
BXHLD	18	336	1	144
BXHLD	18	336	5	144
BXTAP	19	144	3
BXTAP	19	144	6
EXTAP	19	240	4
EXTAP	19	240	5
EXTAP	19	288	4
EXTAP	19	288	5
BXHLD	20	0	2	96
BXHLD	20	0	3	96
EXTAP	20	144	2
EXTAP	20	144	3
EXTAP	20	240	0
EXSTR	20	240	4
NMSXL	20	240	4	96	240	0
BXHLD	20	336	1	96
BXHLD	21	144	2	96
EXTAP	21	288	2
EXTAP	21	288	7
BXHLD	22	0	3	288
BXHLD	22	0	7	288
BXHLD	22	336	1	144
BXHLD	22	336	5	144
BXTAP	23	144	3
BXTAP	23	144	6
EXTAP	23	240	4
EXTAP	23	240	5
EXTAP	23	288	4
EXTAP	23	288	5
BXHLD	24	0	2	96
BXHLD	24	0	3	96
EXTAP	24	192	3
EXTAP	24	192	4
EXSTR	24	240	3
NMSXR	24	240	3	96	288	0
EXSTR	24	240	4
NMSXL	24	240	4	96	288	7
NMHLD	26	0	1	768
NMTAP	26	96	7
NMTAP	26	192	7
NMTAP	26	288	0
NMTAP	27	0	2
NMTAP	27	96	3
NMTAP	27	192	4
NMTAP	27	288	5
NMHLD	28	0	6	576
NMTAP	28	96	1
NMTAP	28	192	0
NMTAP	28	288	7
NMTAP	29	0	5
NMTAP	29	96	4
NMTAP	29	192	3
NMTAP	29	288	3
NMTAP	29	288	5
NMHLD	30	0	2	192
NMTAP	30	96	3
NMHLD	30	192	5	192
NMTAP	30	288	4
NMHLD	31	0	1	192
NMTAP	31	96	0
NMHLD	31	192	6	96
NMTAP	31	288	7
NMSTR	32	0	0
NMSCR	32	0	0	96	192	3
NMSTR	32	0	7
NMSCL	32	0	7	96	192	4
BRTAP	33	0	2
BRTAP	33	0	5
NMTAP	33	288	2
NMSTR	33	288	3
NMSF_	33	288	3	96	192	7
NMSTR	34	288	4
BRSF_	34	288	4	96	192	0
NMTAP	34	288	5
NMSTR	35	288	2
NMSF_	35	288	2	96	192	6
NMTAP	35	288	3
NMTAP	36	288	4
NMSTR	36	288	5
BRSF_	36	288	5	96	192	1
EXTAP	37	288	0
EXTAP	37	288	2
NMTTP	38	0	3	B	0	M1
NMTTP	38	0	3	E	0	M1
NMTTP	38	0	4	B	0	M1
NMTTP	38	0	4	E	0	M1
NMTTP	38	0	4	D	1	M1
NMTTP	38	0	5	E	0	M1
NMTTP	38	96	0	C	0	M1
NMTTP	38	96	5	A	0	M1
NMTTP	38	96	6	B	1	M1
NMTTP	38	96	6	A	0	M1
NMTTP	38	96	6	D	0	M1
NMTTP	38	96	7	B	0	M1
NMTTP	38	96	7	A	0	M1
NMTTP	38	192	1	B	1	M1
NMTTP	38	192	1	E	0	M1
NMTTP	38	192	1	D	0	M1
NMTTP	38	192	2	E	0	M1
NMTTP	38	192	2	D	0	M1
BXTAP	39	0	3
BXTAP	39	0	4
BXTAP	39	96	6
BXTAP	39	96	7
BXTAP	39	192	0
BXTAP	39	192	1
EXTAP	39	288	3
EXTAP	39	288	7
NMTAP	40	0	4
NMTAP	40	0	6
NMTAP	40	48	5
NMTAP	40	96	3
NMTAP	40	96	4
NMTAP	40	144	2
NMTAP	40	192	0
NMTAP	40	192	1
NMTAP	40	240	2
NMSTR	40	288	3
NMSI_	40	288	3	96	48	7
NMTAP	40	288	4
NMTAP	40	336	5
NMTAP	41	0	3
NMSTR	41	0	6
NMSI_	41	0	6	96	48	2
NMSTR	41	96	0
NMSI_	41	96	0	96	48	3
NMSI_	41	96	0	96	48	5
NMTAP	41	96	6
NMTAP	41	192	0
BRTAP	41	288	2
BRTAP	41	288	6
NMSTR	42	0	7
NMSI_	42	0	7	96	48	4
NMSTR	42	96	3
NMSI_	42	96	3	96	48	0
NMSTR	42	192	6
NMSI_	42	192	6	96	48	1
NMSTR	42	288	2
NMSI_	42	288	2	96	48	5
NMSTR	43	0	7
NMSI_	43	0	7	96	48	3
NMSTR	43	96	1
NMSI_	43	96	1	96	48	4
NMTAP	43	192	6
NMTAP	43	240	6
NMSTR	43	288	6
NMSI_	43	288	6	96	48	4
NMSTR	44	0	7
NMSI_	44	0	7	96	48	3
NMSTR	44	96	0
NMSI_	44	96	0	96	48	4
NMSTR	44	192	1
NMSI_	44	192	1	96	48	3
NMTAP	44	288	7
NMTAP	44	336	7
NMSTR	45	0	7
NMSI_	45	0	7	96	48	4
NMSI_	45	0	7	96	48	5
BXSTR	45	96	7
NMSI_	45	96	7	96	48	1
NMSI_	45	96	7	96	48	2
BXSTR	45	192	7
NMSF_	45	192	7	96	48	3
BXTAP	45	288	7
NMSTR	46	0	5
NMSI_	46	0	5	96	48	0
NMSTR	46	96	1
NMSI_	46	96	1	96	48	4
NMSTR	46	192	6
NMSI_	46	192	6	96	48	3
NMTAP	46	288	0
NMTAP	46	336	0
NMSTR	47	0	0
NMSCL	47	0	0	96	48	5
NMSCR	47	0	0	96	48	3
EXTAP	47	96	0
NMTAP	47	192	2
NMTAP	47	192	6
NMTAP	47	240	5
NMTAP	47	264	4
NMTAP	47	288	5
NMTAP	47	336	1
NMTAP	47	336	4
NMTAP	48	0	2
NMTAP	48	24	3
NMTAP	48	48	2
NMTAP	48	96	3
NMTAP	48	96	4
NMTAP	48	144	3
NMTAP	48	168	4
NMTAP	48	192	2
NMTAP	48	216	5
NMTAP	48	240	2
NMTAP	48	264	5
NMTAP	48	288	1
NMTAP	48	312	6
NMTAP	48	336	1
NMTAP	48	360	6
BRSTR	49	0	0
BRSI_	49	0	0	96	72	3
BRSI_	49	0	0	96	72	5
CNSI_	49	168	3	0	48	1
CNSI_	49	168	5	0	48	7
CNSV_	49	216	1	0	72	4
CNSV_	49	216	7	0	72	4
NMSTR	50	0	4
NMSI_	50	0	4	96	48	1
NMTAP	50	0	5
NMTAP	50	48	5
EXTAP	50	96	5
NMTAP	50	144	5
NMSTR	50	192	4
NMSI_	50	192	4	96	48	7
NMTAP	50	192	5
NMTAP	50	240	5
EXTAP	50	288	5
NMTAP	50	336	5
NMSTR	51	0	0
NMSXL	51	0	0	96	144	4
NMTAP	51	0	5
NMTAP	51	48	5
EXSTR	51	96	5
NMSI_	51	96	5	96	48	7
NMTAP	51	288	3
EXTAP	51	288	7
NMTAP	52	0	2
NMSTR	52	0	3
NMSI_	52	0	3	96	48	6
NMTAP	52	48	2
EXTAP	52	96	2
NMTAP	52	144	2
NMTAP	52	192	2
NMSTR	52	192	3
NMSI_	52	192	3	96	48	0
NMTAP	52	240	2
EXTAP	52	288	2
NMTAP	52	336	2
NMTAP	53	0	2
NMSTR	53	0	7
NMSXR	53	0	7	96	144	3
NMTAP	53	48	2
EXSTR	53	96	2
NMSI_	53	96	2	96	48	0
EXTAP	53	288	0
NMTAP	53	288	4
NMSTR	54	0	1
NMSV_	54	0	1	96	48	4
NMTAP	54	0	7
EXTAP	54	96	6
CNSLL	54	144	4	0	72	7
NMTAP	54	192	5
EXTAP	54	288	0
NMTAP	54	288	4
NMTAP	55	0	0
NMSTR	55	0	5
NMSI_	55	0	5	96	32	7
EXTAP	55	96	1
CNSI_	55	128	7	0	48	4
CNSI_	55	176	4	0	40	0
NMTAP	55	192	2
NMTAP	55	288	3
EXTAP	55	288	7
NMSTR	56	0	2
NMSXL	56	0	2	96	60	3
NMTAP	56	0	7
EXTAP	56	96	6
CNSI_	56	156	3	0	60	0
NMTAP	56	192	5
NMTAP	56	288	4
EXTAP	56	288	7
NMTAP	57	0	6
NMTAP	57	0	7
NMTAP	57	48	5
NMTAP	57	96	3
NMTAP	57	96	4
NMTAP	57	144	2
NMTAP	57	192	0
NMTAP	57	192	1
EXTAP	57	288	0
EXTAP	57	288	7
BRSTR	58	0	0
NMSI_	58	0	0	96	48	4
BRTAP	58	96	0
BRTAP	58	96	4
NMTAP	58	192	5
NMTAP	58	224	5
NMTAP	58	256	4
NMTAP	58	288	6
NMTAP	58	320	6
NMTAP	58	352	4
BRSTR	59	0	7
NMSI_	59	0	7	96	48	3
BRTAP	59	96	3
BRTAP	59	96	7
NMTAP	59	192	2
NMTAP	59	224	2
NMTAP	59	256	3
NMTAP	59	288	1
NMTAP	59	320	1
NMTAP	59	352	3
BRSTR	60	0	0
NMSUR	60	0	0	96	48	4
BRTAP	60	96	0
BRTAP	60	96	4
NMTAP	60	192	6
NMTAP	60	224	4
NMTAP	60	256	5
NMTAP	60	288	1
NMTAP	60	320	3
NMTAP	60	352	2
BRSTR	61	0	7
NMSUL	61	0	7	96	48	3
BRTAP	61	96	3
BRTAP	61	96	7
NMTAP	61	192	1
NMTAP	61	224	3
NMTAP	61	256	2
NMTAP	61	288	6
NMTAP	61	320	4
NMTAP	61	352	5
NMTAP	62	0	3
NMTAP	62	48	3
NMTAP	62	96	2
NMTAP	62	144	2
NMTAP	62	192	1
NMTAP	62	240	1
NMTAP	62	288	0
NMTAP	62	336	0
NMTAP	63	0	7
NMTAP	63	48	7
NMTAP	63	96	6
NMTAP	63	144	6
NMTAP	63	192	5
NMTAP	63	240	5
NMTAP	63	288	4
NMTAP	63	336	4
NMTAP	64	0	3
NMTAP	64	24	4
NMTAP	64	48	3
NMTAP	64	72	4
NMTAP	64	96	2
NMTAP	64	120	5
NMTAP	64	144	2
NMTAP	64	168	5
NMTAP	64	192	1
NMTAP	64	216	6
NMTAP	64	240	1
NMTAP	64	264	6
NMTAP	64	288	0
NMTAP	64	312	7
NMTAP	64	336	0
NMTAP	64	360	7
NMSTR	65	0	0
NMSCL	65	0	0	96	48	5
NMSCR	65	0	0	96	48	3
NMSTR	65	96	0
NMSF_	65	96	0	96	48	4
BRTAP	65	192	0
NMSTR	66	0	3
NMSCL	66	0	3	96	816	4
NMTAP	68	336	3
NMTAP	68	336	4
NMTAP	69	48	3
NMTAP	69	48	4
NMHLD	69	144	2	144
NMHLD	69	144	5	144
BXHLD	70	0	0	288
BXHLD	70	0	7	288
BXHLD	70	336	2	144
BXHLD	70	336	6	144
BXTAP	71	144	1
BXTAP	71	144	4
EXTAP	71	240	2
EXTAP	71	240	3
EXTAP	71	288	2
EXTAP	71	288	3
BXHLD	72	0	4	96
BXHLD	72	0	5	96
NMTAP	72	192	3
NMTAP	72	192	7
NMSTR	72	240	3
NMSXR	72	240	3	96	264	0
NMSTR	72	240	7
NMSXR	72	240	7	96	264	4
NMHLD	74	0	0	96
NMTTP	74	0	4	B	0	M1
NMHLD	74	192	1	96
NMTTP	74	192	5	B	0	M1
NMHLD	75	0	2	96
NMTTP	75	0	6	B	0	M1
NMHLD	75	192	3	96
NMTTP	75	192	7	B	0	M1
NMTTP	76	0	0	B	0	M1
NMHLD	76	0	4	96
NMTTP	76	192	1	B	0	M1
NMHLD	76	192	5	96
NMTTP	77	0	2	B	0	M1
NMHLD	77	0	6	96
NMTTP	77	192	3	B	0	M1
NMHLD	77	192	7	96
NMTTP	78	0	4	E	0	M1
NMTAP	78	0	7
NMTTP	78	96	5	E	0	M1
NMTAP	78	96	7
NMTTP	78	192	6	E	0	M1
NMTAP	78	192	7
NMTAP	78	288	7
NMTTP	78	288	7	E	0	M1
NMTTP	79	0	0	E	0	M1
NMTAP	79	0	7
NMTTP	79	96	1	E	0	M1
NMTAP	79	96	7
NMTTP	79	192	2	E	0	M1
NMTAP	79	192	7
NMTTP	79	288	3	E	0	M1
NMTAP	79	288	7
NMTAP	80	0	3
NMTAP	80	0	7
NMTAP	80	48	3
NMTAP	80	48	7
NMTAP	80	96	2
NMTAP	80	96	6
NMTAP	80	144	2
NMTAP	80	144	6
NMTAP	80	192	1
NMTAP	80	192	5
NMTAP	80	240	1
NMTAP	80	240	5
NMSTR	80	288	0
NMSI_	80	288	0	96	48	4
NMTAP	80	312	4
NMTAP	80	336	0
NMTAP	80	360	4
BRTAP	81	0	0
NMSTR	81	288	3
NMSI_	81	288	3	96	48	0
NMSTR	81	288	4
NMSI_	81	288	4	96	48	7
BRTAP	82	0	3
BRTAP	82	0	4
NMTAP	82	96	6
NMSTR	82	144	6
NMSUL	82	144	6	96	48	2
NMSTR	82	240	1
NMSUL	82	240	1	96	48	5
NMSTR	82	336	4
NMSUL	82	336	4	96	48	0
NMSTR	83	48	2
NMSCR	83	48	2	96	72	6
NMTAP	83	144	7
NMSTR	83	192	7
NMSI_	83	192	7	96	48	3
NMTAP	83	288	0
NMTAP	83	288	7
NMTAP	84	0	2
NMSTR	84	0	4
NMSUR	84	0	4	96	48	0
NMTAP	84	96	1
NMSTR	84	144	1
NMSUR	84	144	1	96	48	5
NMSTR	84	240	6
NMSCR	84	240	6	96	144	3
NMTTP	84	336	0	C	1	M1
NMTAP	85	96	0
NMTAP	85	144	1
NMTAP	85	192	2
NMTAP	85	240	3
NMTAP	85	288	4
NMTAP	85	288	5
NMTAP	86	0	3
NMSTR	86	0	5
NMSI_	86	0	5	96	48	7
NMTAP	86	144	1
NMTAP	86	192	0
NMSTR	86	192	1
NMSI_	86	192	1	96	48	4
NMTAP	86	336	6
NMTAP	87	0	5
NMTAP	87	48	4
NMTAP	87	96	3
NMTAP	87	144	2
NMTAP	87	192	2
NMTAP	87	192	3
NMTAP	87	288	0
NMTAP	87	288	4
NMTAP	88	0	1
NMTAP	88	0	3
NMTAP	88	48	2
NMTAP	88	96	3
NMTAP	88	96	4
NMTAP	88	144	5
NMTAP	88	192	6
NMTAP	88	192	7
NMTAP	88	240	5
NMTAP	88	288	3
NMSTR	88	288	4
NMSI_	88	288	4	96	48	0
NMTAP	88	336	2
NMSTR	89	0	1
NMSI_	89	0	1	96	48	5
NMTAP	89	0	4
NMTAP	89	96	1
NMSTR	89	96	7
NMSI_	89	96	7	96	48	2
NMSI_	89	96	7	96	48	4
NMTAP	89	192	7
BRSTR	89	288	3
NMSI_	89	288	3	96	48	0
BRSTR	89	288	5
NMSV_	89	288	5	96	48	0
NMTAP	90	96	1
NMSTR	90	144	1
NMSUR	90	144	1	96	48	5
NMSTR	90	240	6
NMSUR	90	240	6	96	48	2
NMSTR	90	336	3
NMSUR	90	336	3	96	48	7
NMSTR	91	48	5
NMSCL	91	48	5	96	72	1
NMTAP	91	144	0
NMSTR	91	192	0
NMSI_	91	192	0	96	48	4
NMTAP	91	288	0
NMTAP	91	288	7
NMSTR	92	0	3
NMSUL	92	0	3	96	48	7
NMTAP	92	0	5
NMTAP	92	96	6
NMSTR	92	144	6
NMSUL	92	144	6	96	48	2
NMSTR	92	240	1
NMSCL	92	240	1	96	144	4
NMTTP	92	336	0	C	1	M1
NMTAP	93	96	7
NMTAP	93	144	6
NMTAP	93	192	5
NMTAP	93	240	4
NMTAP	93	288	2
NMTAP	93	288	3
NMSTR	94	0	2
NMSI_	94	0	2	96	48	0
NMTAP	94	48	3
NMTAP	94	96	2
NMTAP	94	96	4
NMSTR	94	192	5
NMSI_	94	192	5	96	48	7
NMTAP	94	240	4
NMTAP	94	288	3
NMTAP	94	288	5
NMSTR	95	0	1
NMSI_	95	0	1	96	48	3
NMTAP	95	48	0
NMTAP	95	96	1
NMTAP	95	96	7
NMSTR	95	192	6
NMSI_	95	192	6	96	48	4
NMTAP	95	240	7
NMTAP	95	288	0
NMTAP	95	288	6
NMHLD	96	0	1	96
EXHLD	96	0	3	96
EXHLD	96	144	4	96
NMHLD	96	144	6	96
EXTAP	96	288	2
NMTAP	96	288	5
NMSTR	96	336	2
NMSCL	96	336	2	96	144	4
EXSTR	96	336	5
NMSCR	96	336	5	96	144	3
BRTAP	97	288	2
BRTAP	97	288	5
NMTAP	98	0	1
NMHLD	98	0	3	48
NMTAP	98	48	2
NMHLD	98	96	4	48
NMTAP	98	96	6
NMTAP	98	144	5
NMTAP	98	192	1
NMHLD	98	192	3	48
NMTAP	98	240	2
NMHLD	98	288	4	48
NMTAP	98	288	6
NMTAP	98	336	5
NMTAP	99	0	3
NMTAP	99	0	4
NMSTR	99	48	2
NMSI_	99	48	2	96	48	6
NMTAP	99	96	1
NMSTR	99	144	0
NMSI_	99	144	0	96	48	4
NMTAP	99	144	2
NMTAP	99	240	0
NMSTR	99	240	5
NMSI_	99	240	5	96	48	0
NMTAP	99	336	2
NMSTR	100	0	2
NMSUL	100	0	2	96	96	6
NMSTR	100	96	6
NMSUL	100	96	6	96	96	2
NMSTR	100	192	2
NMSLL	100	192	2	96	96	6
NMSTR	100	288	6
NMSLL	100	288	6	96	96	2
NMSTR	101	0	2
NMSCL	101	0	2	96	96	6
NMSTR	101	96	6
NMSCL	101	96	6	96	96	2
NMTAP	101	192	2
BRTAP	101	288	7
NMHLD	102	0	4	48
NMTAP	102	0	6
NMTAP	102	48	5
NMTAP	102	96	1
NMHLD	102	96	3	48
NMTAP	102	144	2
NMHLD	102	192	4	48
NMTAP	102	192	6
NMTAP	102	240	5
NMTAP	102	288	1
NMHLD	102	288	3	48
NMTAP	102	336	2
NMTAP	103	0	3
NMTAP	103	0	4
NMSTR	103	48	5
NMSI_	103	48	5	96	48	1
NMTAP	103	96	6
NMTAP	103	144	5
NMSTR	103	144	7
NMSI_	103	144	7	96	48	3
NMSTR	103	240	2
NMSI_	103	240	2	96	48	7
NMTAP	103	240	7
NMTAP	103	336	5
NMSTR	104	0	5
NMSCR	104	0	5	96	96	1
NMTAP	104	96	2
CNSCL	104	192	1	0	96	5
NMTAP	104	192	4
NMTAP	104	288	2
EXTAP	104	336	2
EXTAP	105	48	1
EXTAP	105	48	3
EXTAP	105	144	4
EXTAP	105	144	6
EXTAP	105	240	0
EXTAP	105	240	7
EXSTR	105	288	0
NMSCR	105	288	0	96	48	3
EXSTR	105	288	7
NMSCL	105	288	7	96	48	4
BRTAP	106	96	1
BRTAP	106	96	6
NMHLD	106	192	0	48
NMTAP	106	192	5
NMTAP	106	240	6
NMTAP	106	288	2
NMHLD	106	288	7	48
NMTAP	106	336	1
NMTAP	107	0	0
NMTAP	107	0	7
NMSTR	107	48	6
NMSI_	107	48	6	96	48	3
NMTAP	107	96	5
NMSTR	107	144	4
NMSI_	107	144	4	96	48	1
NMTAP	107	144	6
NMSTR	107	240	2
NMSI_	107	240	2	96	48	7
NMTAP	107	240	4
NMTAP	107	336	5
NMSTR	108	0	5
NMSUR	108	0	5	96	96	1
NMSTR	108	96	1
NMSUR	108	96	1	96	96	5
NMSTR	108	192	5
NMSLR	108	192	5	96	96	1
NMSTR	108	288	1
NMSLR	108	288	1	96	96	5
NMSTR	109	0	5
NMSCR	109	0	5	96	96	1
NMSTR	109	96	1
NMSCR	109	96	1	96	96	5
NMTAP	109	192	5
BRTAP	109	288	0
NMTAP	110	0	6
NMTAP	110	0	7
NMTAP	110	48	5
NMTAP	110	96	6
NMTAP	110	96	7
NMTAP	110	144	0
NMTAP	110	192	6
NMTAP	110	192	7
NMTAP	110	240	5
NMTAP	110	288	3
NMTAP	110	288	4
NMTAP	110	336	2
NMTAP	111	0	0
NMTAP	111	0	1
NMTAP	111	48	2
NMTAP	111	96	0
NMTAP	111	96	1
NMTAP	111	144	7
NMTAP	111	192	0
NMTAP	111	192	1
NMTAP	111	240	2
NMTAP	111	288	3
NMTAP	111	288	4
NMTAP	111	336	5
NMTAP	112	0	0
NMTAP	112	0	6
NMTAP	112	48	0
NMTAP	112	48	6
NMTAP	112	96	1
NMTAP	112	96	5
NMTAP	112	144	1
NMTAP	112	144	5
NMTAP	112	192	2
NMTAP	112	216	4
NMTAP	112	240	2
NMTAP	112	264	4
NMTAP	112	288	2
NMTAP	112	312	4
BRSTR	112	336	0
NMSLR	112	336	0	96	48	4
NMTAP	113	48	3
NMTAP	113	96	5
BRSTR	113	144	7
NMSLL	113	144	7	96	48	3
NMTAP	113	240	3
BRSTR	113	288	1
BRSI_	113	288	1	96	48	5

T_REC_TAP	351
T_REC_BRK	22
T_REC_XTP	46
T_REC_BXX	13
T_REC_HLD	36
T_REC_XHO	2
T_REC_BHO	0
T_REC_BXH	20
T_REC_STR	89
T_REC_BST	10
T_REC_XST	8
T_REC_XBS	2
T_REC_TTP	59
T_REC_THO	1
T_REC_SLD	111
T_REC_BSL	5
T_REC_ALL	775
T_NUM_TAP	553
T_NUM_BRK	72
T_NUM_HLD	39
T_NUM_SLD	111
T_NUM_ALL	775
T_JUDGE_TAP	600
T_JUDGE_HLD	220
T_JUDGE_SLD	116
T_JUDGE_ALL	936
TTM_EACHPAIRS	151
TTM_SCR_TAP	276500
TTM_SCR_BRK	187200
TTM_SCR_HLD	39000
TTM_SCR_SLD	166500
TTM_SCR_ALL	669200
TTM_SCR_S	642150
TTM_SCR_SS	662000
TTM_RAT_ACV	10108

