VERSION	0.00.00	1.04.00
FES_MODE	0
BPM_DEF	180.000	180.000	180.000	180.000
MET_DEF	4	4
RESOLUTION	384
CLK_DEF	384
COMPATIBLE_CODE	MA2

BPM	0	0	180.000
MET	0	0	4	4

NMHLD	2	0	2	768
NMTTP	2	192	3	B	0	M1
NMTTP	3	192	3	B	0	M1
NMHLD	4	0	5	768
NMTTP	4	192	4	B	0	M1
NMTTP	5	192	4	B	0	M1
NMHLD	6	0	2	768
NMTTP	6	192	3	E	0	M1
NMTTP	7	192	4	E	0	M1
NMHLD	8	0	5	768
NMTTP	8	192	5	E	0	M1
NMTTP	9	192	4	E	0	M1
NMHLD	10	0	1	576
EXTAP	10	192	4
EXTAP	10	336	3
EXHLD	11	96	3	96
NMHLD	12	0	6	576
EXTAP	12	192	3
EXTAP	12	336	4
EXHLD	13	96	4	96
NMHLD	14	0	1	768
NMTAP	14	192	2
NMTAP	14	336	3
NMHLD	15	96	3	96
NMHLD	16	0	5	192
NMTHO	16	192	0	192	C	1	M1
NMTAP	17	288	0
NMTAP	17	288	7
NMSTR	18	0	1
NMSCR	18	0	1	96	192	4
EXSTR	18	336	6
NMSLL	18	336	6	96	192	2
NMSTR	20	0	0
NMSI_	20	0	0	96	144	4
EXTAP	20	336	5
NMTAP	21	48	6
BRTAP	21	144	0
BRTAP	21	144	7
NMSTR	22	0	6
NMSCL	22	0	6	96	192	3
EXSTR	22	336	1
NMSLR	22	336	1	96	192	5
NMSTR	24	0	7
NMSI_	24	0	7	96	144	3
NMTAP	24	336	2
NMTAP	25	48	1
BRTAP	25	144	0
BRTAP	25	144	7
NMTAP	26	0	2
NMHLD	26	96	2	480
NMTAP	26	192	3
NMTAP	26	288	3
NMTAP	27	0	4
NMTAP	27	96	4
NMTAP	27	192	3
NMTAP	27	288	3
NMTAP	27	288	4
NMTAP	28	0	5
NMHLD	28	96	5	480
NMTAP	28	192	4
NMTAP	28	288	4
NMTAP	29	0	3
NMTAP	29	96	3
NMTAP	29	192	4
NMTAP	29	288	3
NMTAP	29	288	4
NMTAP	30	0	1
NMHLD	30	96	1	480
NMTAP	30	192	3
NMTAP	30	288	3
NMTAP	31	0	2
NMTAP	31	96	2
NMTAP	31	192	3
NMTAP	31	288	2
NMTAP	31	288	4
NMTAP	32	0	5
NMTAP	32	96	5
NMTAP	32	192	4
NMTAP	32	192	6
NMTAP	32	288	4
NMTAP	32	288	6
NMHLD	33	0	3	96
NMHLD	33	0	5	96
NMHLD	33	192	2	96
NMHLD	33	192	4	96
BRTAP	34	0	3
BXSTR	34	0	5
NMSI_	34	0	5	96	96	0
NMSTR	35	0	2
NMSI_	35	0	2	96	96	7
NMTAP	35	0	4
NMHLD	36	0	4	192
NMSTR	36	0	5
BRSI_	36	0	5	96	96	0
NMSTR	37	0	2
BRSI_	37	0	2	96	96	7
NMHLD	37	0	3	192
NMTAP	38	0	6
NMTAP	38	0	7
NMTAP	38	96	0
NMTAP	38	96	5
NMHLD	38	192	1	96
NMHLD	38	192	4	96
NMTAP	39	0	0
NMTAP	39	0	1
NMTAP	39	96	2
NMTAP	39	96	7
BRHLD	39	192	3	96
BRHLD	39	192	6	96
NMTAP	40	0	0
NMTAP	40	48	0
NMTAP	40	96	6
NMTAP	40	144	6
NMTAP	40	192	1
NMTAP	40	240	1
NMTAP	40	288	7
NMTAP	40	336	7
NMTAP	41	0	1
NMTAP	41	0	7
NMTAP	41	96	3
NMTAP	41	96	4
NMTAP	41	192	0
NMTAP	41	192	6
BRTAP	42	0	1
BRTAP	42	0	7
NMTAP	42	96	2
NMTAP	42	96	3
NMTAP	42	192	4
NMTAP	42	192	5
NMTAP	42	288	6
NMTAP	42	288	7
NMTAP	43	0	0
NMTAP	43	0	1
NMTAP	43	96	2
NMTAP	43	96	3
NMTAP	43	192	5
NMTAP	43	240	5
NMTAP	43	288	4
NMTAP	44	0	2
NMTAP	44	0	3
NMTAP	44	96	0
NMTAP	44	96	1
NMTAP	44	192	6
NMTAP	44	192	7
NMTAP	44	288	5
NMTAP	44	336	5
NMTAP	45	0	4
NMTAP	45	0	6
EXTAP	45	96	1
EXTAP	45	96	3
EXTAP	45	192	4
EXTAP	45	192	6
EXTAP	45	288	0
EXTAP	45	288	7
NMTAP	46	0	0
NMTAP	46	0	1
NMTAP	46	96	2
NMTAP	46	96	3
NMTAP	46	192	4
NMTAP	46	192	5
NMTAP	46	288	6
NMTAP	46	288	7
NMTAP	46	336	6
NMTAP	46	336	7
NMTAP	47	0	0
NMTAP	47	0	5
NMTAP	47	96	2
NMTAP	47	96	3
NMTAP	47	192	4
NMTAP	47	192	5
NMTAP	47	240	4
NMTAP	47	240	5
NMTAP	47	288	3
NMTAP	47	288	6
NMTAP	48	0	6
NMTAP	48	48	6
NMTAP	48	96	4
NMTAP	48	144	4
NMTAP	48	192	3
NMTAP	48	240	3
NMSTR	48	288	1
NMSCR	48	288	1	96	96	4
NMTAP	49	192	3
NMTAP	49	192	4
NMTAP	49	288	0
NMTAP	49	288	7
NMTAP	50	0	1
NMTAP	50	48	1
NMTAP	50	96	0
NMTAP	50	144	0
NMHLD	50	192	2	144
NMTAP	50	288	0
NMTAP	50	336	0
NMTAP	51	48	0
NMTAP	51	48	1
NMTAP	51	96	0
NMSTR	51	96	1
NMSI_	51	96	1	96	96	5
NMTAP	52	0	6
NMTAP	52	48	6
NMTAP	52	96	7
NMTAP	52	144	7
NMHLD	52	192	5	144
NMTAP	52	288	7
NMTAP	52	336	7
NMTAP	53	48	6
NMTAP	53	48	7
NMSTR	53	96	6
NMSV_	53	96	6	96	96	1
NMTAP	53	96	7
NMTAP	54	0	2
NMTAP	54	96	2
NMTAP	54	96	3
NMTAP	54	192	1
NMTAP	54	288	0
NMTAP	54	288	1
NMHLD	55	0	0	48
NMHLD	55	0	1	48
NMHLD	55	96	6	48
NMHLD	55	96	7	48
NMHLD	55	192	4	48
NMHLD	55	192	5	48
NMHLD	55	288	2	48
NMHLD	55	288	3	48
NMTAP	56	0	5
NMTAP	56	96	4
NMTAP	56	96	5
NMTAP	56	192	6
NMTAP	56	288	6
NMTAP	56	288	7
NMHLD	57	0	4	48
NMHLD	57	0	6	48
NMHLD	57	96	1	48
NMHLD	57	96	3	48
NMHLD	57	192	0	48
NMHLD	57	192	7	48
NMTTP	57	288	0	E	0	M1
EXTAP	58	0	2
EXTAP	58	0	3
EXTAP	58	96	2
EXTAP	58	96	3
NMTAP	58	192	1
NMTAP	58	240	1
NMTAP	58	288	3
BRTAP	59	0	0
BRTAP	59	0	3
BRTAP	59	96	0
BRTAP	59	96	3
NMTAP	59	192	2
NMTAP	59	192	3
NMTAP	59	288	3
NMTAP	59	288	4
EXTAP	60	0	4
EXTAP	60	0	5
EXTAP	60	96	4
EXTAP	60	96	5
NMTAP	60	192	6
NMTAP	60	240	6
NMTAP	60	288	4
BRTAP	61	0	4
BRTAP	61	0	7
BRTAP	61	96	4
BRTAP	61	96	7
NMTAP	61	192	4
NMTAP	61	192	5
NMTAP	61	288	3
NMTAP	61	288	4
NMHLD	62	0	3	96
NMHLD	62	96	2	96
NMHLD	62	192	1	96
NMHLD	62	288	0	96
NMHLD	63	0	7	96
NMHLD	63	96	6	96
NMHLD	63	192	5	96
NMTAP	63	288	4
NMTAP	64	0	3
NMTAP	64	48	3
NMTAP	64	96	2
NMTAP	64	144	2
NMTAP	64	192	1
NMTAP	64	240	1
NMTAP	64	288	0
NMTAP	65	0	1
NMTAP	65	0	7
NMTAP	65	96	3
NMTAP	65	96	5
BRTAP	65	192	2
BRTAP	65	192	6
NMSTR	66	0	5
NMSCL	66	0	5	96	192	2
NMSTR	67	0	1
NMSCR	67	0	1	96	192	4
NMSTR	68	0	6
NMSCL	68	0	6	96	192	3
EXTAP	68	336	2
EXTAP	69	48	1
EXTAP	69	48	3
EXHLD	69	144	2	144
EXHLD	69	144	4	144
NMTAP	70	0	3
NMSTR	70	0	5
NMSI_	70	0	5	96	144	2
NMSTR	70	336	1
NMSLR	70	336	1	96	192	5
NMTAP	72	0	4
NMSTR	72	0	5
NMSV_	72	0	5	96	144	3
NMTAP	73	48	2
NMTAP	73	48	3
NMHLD	73	144	3	144
NMHLD	73	144	4	144
NMTAP	74	0	1
NMTAP	74	0	3
NMTAP	74	96	2
NMTAP	74	192	4
NMTAP	74	192	6
NMTAP	74	288	5
NMTAP	75	0	3
NMTAP	75	0	4
NMTAP	75	96	2
NMTAP	75	192	1
NMTAP	75	192	3
NMTAP	75	288	2
NMTAP	76	0	3
NMTAP	76	0	4
NMTAP	76	96	5
NMTAP	76	192	3
NMTAP	76	192	6
NMTAP	76	288	2
NMTAP	77	0	1
NMTAP	77	0	4
NMTAP	77	96	2
NMTAP	77	192	3
NMTAP	77	192	4
NMTAP	77	288	5
NMTAP	78	0	4
NMTAP	78	0	6
NMTAP	78	96	4
NMTAP	78	96	6
NMTAP	78	192	3
NMTAP	78	192	5
NMTAP	78	288	3
NMTAP	78	288	5
NMTAP	79	0	2
NMTAP	79	0	4
NMTAP	79	96	2
NMTAP	79	96	4
NMTAP	79	192	1
NMTAP	79	192	3
NMTAP	79	288	1
NMTAP	79	288	3
NMTAP	80	0	1
NMTAP	80	48	1
NMTAP	80	96	3
NMTAP	80	144	3
NMTAP	80	192	4
NMTAP	80	240	4
NMTAP	80	288	6
NMTAP	80	336	6
NMTTP	81	0	0	C	0	M1
EXTAP	81	288	0
EXTAP	81	288	7
BRHLD	82	0	1	144
NMTAP	82	96	0
NMTAP	82	144	0
NMTAP	82	240	1
NMTAP	82	288	0
NMTAP	82	336	2
NMTAP	82	336	7
NMTAP	83	48	0
NMTAP	83	48	5
NMTAP	83	144	6
NMTAP	83	144	7
NMTAP	83	192	6
NMTAP	83	192	7
NMTAP	83	288	0
NMTAP	83	288	5
NMHLD	84	0	6	144
NMTAP	84	96	7
NMTAP	84	144	7
NMTAP	84	240	1
NMTAP	84	288	1
NMTAP	84	336	0
NMTAP	84	336	1
NMTAP	85	48	6
NMTAP	85	48	7
NMTAP	85	144	4
NMTAP	85	144	6
NMTAP	85	192	4
NMTAP	85	192	6
NMTAP	85	288	3
NMTAP	85	288	4
NMTAP	86	0	2
NMTAP	86	0	3
NMTAP	86	96	1
NMTAP	86	144	1
NMTAP	86	192	0
NMTAP	86	192	1
NMTAP	86	288	6
NMTAP	86	288	7
NMTAP	87	0	4
NMTAP	87	0	5
NMTAP	87	96	2
NMTAP	87	96	3
NMTAP	87	192	0
NMTAP	87	192	1
BRTAP	87	288	4
BRTAP	87	288	6
NMTAP	88	0	6
NMTAP	88	48	6
NMTAP	88	96	4
NMTAP	88	144	4
NMTAP	88	192	3
NMTAP	88	240	3
NMTAP	88	288	1
NMTAP	89	0	3
NMTAP	89	0	7
NMTAP	89	96	1
NMTAP	89	96	5
BRTAP	89	192	2
BRTAP	89	192	6
NMTAP	90	0	0
NMTAP	90	0	1
NMTAP	90	96	3
NMTAP	90	192	6
NMTAP	90	192	7
NMTAP	90	288	4
NMTAP	91	0	0
NMTAP	91	0	1
NMTAP	91	96	2
NMTAP	91	96	4
NMTAP	91	192	3
NMTAP	91	192	5
NMTAP	91	240	6
NMTAP	91	288	0
NMTAP	91	288	7
NMTAP	92	0	4
NMTAP	92	0	5
NMTAP	92	96	7
NMTAP	92	192	2
NMTAP	92	192	3
NMTAP	92	288	0
NMTAP	93	0	6
NMTAP	93	0	7
NMTAP	93	96	3
NMTAP	93	96	5
NMTAP	93	192	2
NMTAP	93	192	4
NMTAP	93	240	1
NMTAP	93	288	0
NMTAP	93	288	7
NMTAP	94	0	2
NMTAP	94	0	3
NMTAP	94	96	0
NMTAP	94	96	6
NMTAP	94	192	4
NMTAP	94	192	5
NMTAP	94	288	1
NMTAP	94	288	7
NMTAP	95	0	2
NMTAP	95	0	3
NMTAP	95	96	4
NMTAP	95	96	5
NMTAP	95	192	6
NMTAP	95	192	7
BRTAP	95	288	0
BRTAP	95	288	1
NMHLD	96	0	1	96
NMHLD	96	0	3	96
NMHLD	96	144	4	96
NMHLD	96	144	6	96
NMTAP	96	288	0
NMTAP	96	288	7
NMSTR	96	336	0
NMSCR	96	336	0	96	96	3
NMSTR	96	336	7
NMSCL	96	336	7	96	96	4
NMTAP	97	288	2
NMTAP	97	288	5
NMTAP	98	0	3
NMTAP	98	0	4
NMTAP	98	96	0
NMTAP	98	96	1
NMSTR	98	144	0
NMSI_	98	144	0	96	48	4
NMSTR	98	144	1
NMSI_	98	144	1	96	48	4
NMTAP	98	336	5
NMTAP	99	0	5
NMTAP	99	48	4
NMTAP	99	96	4
NMTAP	99	144	7
NMTAP	99	240	0
NMTAP	99	240	6
NMHLD	99	336	1	240
NMTAP	99	336	5
NMTAP	100	48	3
NMTAP	100	96	3
NMTAP	100	144	4
NMTAP	100	192	4
NMTAP	100	288	6
NMTAP	100	288	7
NMTAP	100	336	6
NMTAP	100	336	7
NMTAP	101	48	2
NMTAP	101	48	3
NMTAP	101	144	0
NMTAP	101	144	1
NMTAP	101	240	2
NMTAP	101	240	7
NMTAP	101	288	2
NMTAP	101	288	7
NMTAP	102	0	3
NMTAP	102	0	4
NMTAP	102	96	6
NMTAP	102	96	7
NMSTR	102	144	6
NMSI_	102	144	6	96	48	3
NMSTR	102	144	7
NMSI_	102	144	7	96	48	3
NMTAP	102	336	2
NMTAP	102	336	4
NMTAP	103	48	1
NMTAP	103	96	1
NMTAP	103	144	3
NMTAP	103	240	2
NMTAP	103	240	4
NMTAP	103	336	0
NMTAP	103	336	6
NMTAP	104	48	7
NMTAP	104	96	7
NMTAP	104	144	5
NMTAP	104	192	5
NMTAP	104	240	3
NMTAP	104	288	3
EXTAP	104	336	2
EXTAP	104	336	4
NMTAP	105	48	0
NMTAP	105	48	1
NMTAP	105	96	0
NMTAP	105	96	1
NMTAP	105	192	3
NMTAP	105	192	6
NMTAP	105	240	3
NMTAP	105	240	6
NMTAP	105	288	3
NMSTR	105	288	6
NMSI_	105	288	6	96	48	3
EXTAP	106	96	2
EXTAP	106	96	4
EXSTR	106	144	2
NMSI_	106	144	2	96	48	7
EXSTR	106	144	4
NMSI_	106	144	4	96	48	7
NMTAP	106	336	6
NMTAP	107	0	6
NMTAP	107	48	7
NMTAP	107	96	7
NMTAP	107	144	4
NMTAP	107	240	3
NMTAP	107	240	5
NMHLD	107	336	2	240
NMTAP	107	336	6
NMTAP	108	48	0
NMTAP	108	96	0
NMTAP	108	144	7
NMTAP	108	192	7
NMTAP	108	288	4
NMTAP	108	288	5
NMTAP	108	336	4
NMTAP	108	336	5
NMTAP	109	48	6
NMTAP	109	48	7
NMSTR	109	144	0
NMSI_	109	144	0	96	48	4
NMSTR	109	144	5
NMSI_	109	144	5	96	48	7
NMTAP	110	0	3
NMTAP	110	0	6
NMTAP	110	96	4
NMTAP	110	96	5
NMTAP	110	144	4
NMTAP	110	144	5
NMTAP	110	240	0
NMTAP	110	240	1
NMTAP	110	336	2
NMTAP	110	336	3
NMTAP	111	48	6
NMTAP	111	48	7
NMTAP	111	96	6
NMTAP	111	96	7
NMTAP	111	144	6
NMTAP	111	144	7
NMTAP	111	240	5
NMTAP	111	288	4
NMSTR	111	336	3
NMSXL	111	336	3	96	288	7
NMSXR	111	336	3	96	288	7
NMTAP	113	48	0
NMTAP	113	48	6
NMTAP	113	96	0
NMTAP	113	96	6
NMTAP	113	192	3
NMTAP	113	192	4
NMTAP	113	288	1
NMSTR	113	288	7
BRSI_	113	288	7	96	48	3

T_REC_TAP	421
T_REC_BRK	23
T_REC_XTP	28
T_REC_BXX	0
T_REC_HLD	52
T_REC_XHO	4
T_REC_BHO	3
T_REC_BXH	0
T_REC_STR	27
T_REC_BST	0
T_REC_XST	4
T_REC_XBS	1
T_REC_TTP	10
T_REC_THO	1
T_REC_SLD	30
T_REC_BSL	3
T_REC_ALL	607
T_NUM_TAP	490
T_NUM_BRK	30
T_NUM_HLD	57
T_NUM_SLD	30
T_NUM_ALL	607
T_JUDGE_TAP	514
T_JUDGE_HLD	242
T_JUDGE_SLD	33
T_JUDGE_ALL	789
TTM_EACHPAIRS	189
TTM_SCR_TAP	245000
TTM_SCR_BRK	78000
TTM_SCR_HLD	57000
TTM_SCR_SLD	45000
TTM_SCR_ALL	425000
TTM_SCR_S	409350
TTM_SCR_SS	422000
TTM_RAT_ACV	10071

