VERSION	0.00.00	1.04.00
FES_MODE	0
BPM_DEF	180.000	180.000	180.000	180.000
MET_DEF	4	4
RESOLUTION	384
CLK_DEF	384
COMPATIBLE_CODE	MA2

BPM	0	0	180.000
MET	0	0	4	4

NMSTR	2	0	2
NMSUR	2	0	2	96	672	4
NMTAP	4	192	5
NMTAP	5	0	5
NMTAP	5	192	4
NMTAP	5	192	5
NMSTR	6	0	5
NMSUL	6	0	5	96	672	3
NMTAP	8	192	2
NMTAP	9	0	2
NMTAP	9	192	2
NMTAP	9	192	3
EXHLD	10	0	2	192
EXTAP	10	192	3
EXTAP	11	0	2
EXTAP	11	0	3
EXTAP	11	192	2
EXTAP	11	192	3
NMHLD	12	0	1	192
NMTAP	12	192	0
NMTAP	13	0	0
NMTAP	13	0	1
NMTAP	13	192	0
NMTAP	13	192	1
NMHLD	14	0	6	192
NMTAP	14	192	7
NMTAP	15	0	6
NMTAP	15	0	7
NMTAP	15	192	6
NMTAP	15	192	7
NMHLD	16	0	5	192
NMTAP	16	192	4
NMTAP	17	0	4
NMTAP	17	0	5
NMTAP	18	0	5
NMTAP	18	96	5
NMTAP	18	192	4
NMTAP	18	192	5
NMTAP	19	0	6
NMTAP	19	96	6
NMTAP	19	192	6
NMTAP	19	192	7
NMTAP	20	0	0
NMTAP	20	96	0
NMTAP	20	192	0
NMTAP	20	192	1
NMTAP	21	0	2
NMTAP	21	0	3
NMTAP	21	192	2
NMTAP	21	192	3
NMTAP	22	0	2
NMTAP	22	96	2
NMTAP	22	192	2
NMTAP	22	192	3
NMTAP	23	0	1
NMTAP	23	96	1
NMTAP	23	192	0
NMTAP	23	192	1
NMTAP	24	0	7
NMTAP	24	96	7
NMTAP	24	192	6
NMTAP	24	192	7
NMTAP	25	0	4
NMTAP	25	0	5
NMTAP	25	192	4
NMTAP	25	192	5
NMTTP	26	0	3	B	0	L1
NMTTP	26	96	2	B	0	L1
NMTTP	26	192	2	E	0	L1
NMTTP	27	0	4	B	0	L1
NMTTP	27	96	5	B	0	L1
NMTTP	27	192	6	E	0	L1
NMTTP	28	0	1	B	0	L1
NMTTP	28	96	2	B	0	L1
NMTTP	28	192	3	B	0	L1
NMTTP	28	288	4	B	0	L1
NMTTP	29	0	5	B	0	L1
NMTTP	29	96	6	B	0	L1
NMTTP	29	192	0	C	0	L1
NMTTP	30	0	0	B	0	L1
NMTTP	30	96	1	B	0	L1
NMTTP	30	192	2	E	0	L1
NMTTP	31	0	7	B	0	L1
NMTTP	31	96	6	B	0	L1
NMTTP	31	192	6	E	0	L1
NMTTP	32	0	2	B	0	L1
NMTTP	32	96	1	B	0	L1
NMTTP	32	192	0	B	0	L1
NMTTP	32	288	7	B	0	L1
NMTTP	33	0	6	B	0	L1
NMTTP	33	96	5	B	0	L1
NMTTP	33	192	0	C	0	L1
NMHLD	34	0	6	192
NMHLD	34	0	7	192
NMHLD	35	0	4	192
NMHLD	35	0	5	192
NMHLD	36	0	2	192
NMHLD	36	0	3	192
NMHLD	37	0	0	192
NMHLD	37	0	1	192
NMTAP	38	0	2
NMTAP	38	96	2
NMTAP	38	192	2
NMTAP	38	192	3
NMTAP	39	0	4
NMTAP	39	96	4
NMTAP	39	192	4
NMTAP	39	192	5
NMTAP	40	0	5
NMTAP	40	96	5
NMTAP	40	192	4
NMTAP	40	288	4
NMTAP	41	0	3
NMTAP	41	96	3
NMTAP	41	192	2
NMTAP	41	192	4
NMTAP	42	0	2
NMTAP	42	96	2
NMTAP	42	192	1
NMTAP	42	288	1
NMTAP	43	0	0
NMTAP	43	96	0
NMTAP	43	192	6
NMTAP	43	192	7
NMTAP	44	0	5
NMTAP	44	96	5
NMTAP	44	192	6
NMTAP	44	288	6
NMTAP	45	0	7
NMTAP	45	96	7
NMTAP	45	192	0
NMTAP	45	192	1
NMTAP	46	0	1
NMTAP	46	96	1
NMTAP	46	192	2
NMTAP	46	288	2
NMTAP	47	0	3
NMTAP	47	96	3
NMTAP	47	192	4
NMTAP	47	192	5
NMTAP	48	0	6
NMTAP	48	96	6
NMTAP	48	192	5
NMTAP	48	288	5
NMTAP	49	0	3
NMTAP	49	0	4
NMTAP	50	0	2
NMTAP	50	96	2
NMTAP	50	192	0
NMTAP	50	192	1
NMTAP	50	288	0
NMTAP	50	288	1
NMTAP	51	0	7
NMTAP	51	96	7
NMTAP	51	192	6
NMTAP	51	192	7
NMTAP	52	0	5
NMTAP	52	96	5
NMTAP	52	192	6
NMTAP	52	192	7
NMTAP	52	288	6
NMTAP	52	288	7
NMTAP	53	0	0
NMTAP	53	96	0
NMTAP	53	192	0
NMTAP	53	192	1
NMTAP	54	0	0
NMTAP	54	96	0
NMTAP	54	192	1
NMTAP	54	288	1
NMTAP	55	0	2
NMTAP	55	96	2
NMTAP	55	192	3
NMTAP	55	288	3
NMTAP	56	0	4
NMTAP	56	96	4
NMTAP	56	192	5
NMTAP	56	288	5
NMTAP	57	0	6
NMTAP	57	96	6
NMTAP	57	192	0
NMTAP	57	192	7
NMTAP	58	0	0
NMTAP	58	0	1
NMTAP	58	96	0
NMTAP	58	96	1
NMTAP	58	192	2
NMTAP	58	288	2
NMTAP	59	0	3
NMTAP	59	0	4
NMTAP	59	96	3
NMTAP	59	96	4
NMTAP	59	192	5
NMTAP	59	288	5
NMTAP	60	0	6
NMTAP	60	0	7
NMTAP	60	96	6
NMTAP	60	96	7
NMTAP	60	192	5
NMTAP	60	288	5
NMTAP	61	0	3
NMTAP	61	0	4
NMTAP	61	96	3
NMTAP	61	96	4
NMTAP	61	192	2
NMTAP	61	192	5
NMTAP	62	0	3
NMTAP	62	96	3
NMTAP	62	192	2
NMTAP	62	288	2
NMTAP	63	0	1
NMTAP	63	96	1
NMTAP	63	192	0
NMTAP	63	288	0
NMTAP	64	0	7
NMTAP	64	96	7
NMTAP	64	192	6
NMTAP	64	288	6
NMTAP	65	0	5
NMTAP	65	96	5
NMTAP	65	192	3
NMTAP	65	192	4
NMSTR	66	0	2
NMSI_	66	0	2	96	288	7
NMTAP	67	192	6
NMSTR	68	0	6
NMSI_	68	0	6	96	288	3
NMTAP	69	192	2
NMSTR	70	0	1
NMSI_	70	0	1	96	288	4
NMTAP	71	192	5
NMSTR	72	0	6
NMSI_	72	0	6	96	288	3
EXTAP	73	192	2
EXTAP	73	192	3
NMTTP	74	0	2	B	0	L1
NMTTP	74	0	3	B	0	L1
NMTTP	75	0	0	B	0	L1
NMTTP	75	0	1	B	0	L1
NMTTP	76	0	6	B	0	L1
NMTTP	76	0	7	B	0	L1
NMTTP	77	0	4	B	0	L1
NMTTP	77	0	5	B	0	L1
NMTTP	78	0	3	B	0	L1
NMTTP	78	96	2	B	0	L1
NMTTP	78	192	2	E	0	L1
NMTTP	79	0	4	B	0	L1
NMTTP	79	96	5	B	0	L1
NMTTP	79	192	6	E	0	L1
NMTTP	80	0	2	B	0	L1
NMTTP	80	96	3	B	0	L1
NMTTP	80	192	4	B	0	L1
NMTTP	80	288	5	B	0	L1
NMTTP	81	0	0	C	0	L1
NMTAP	82	0	1
NMTAP	82	96	1
NMTAP	82	192	0
NMTAP	82	192	1
NMTAP	82	288	0
NMTAP	82	288	1
NMTAP	83	0	7
NMTAP	83	96	7
NMTAP	83	192	6
NMTAP	83	192	7
NMTAP	84	0	5
NMTAP	84	96	5
NMTAP	84	192	6
NMTAP	84	192	7
NMTAP	84	288	6
NMTAP	84	288	7
NMTAP	85	0	0
NMTAP	85	96	0
NMTAP	85	192	0
NMTAP	85	192	1
NMTAP	86	0	1
NMTAP	86	96	1
NMTAP	86	192	2
NMTAP	86	192	3
NMTAP	86	288	2
NMTAP	86	288	3
NMTAP	87	0	4
NMTAP	87	96	4
NMTAP	87	192	4
NMTAP	87	192	5
NMTAP	88	0	6
NMTAP	88	96	6
NMTAP	88	192	4
NMTAP	88	192	5
NMTAP	88	288	4
NMTAP	88	288	5
NMTAP	89	0	3
NMTAP	89	96	3
NMTAP	89	192	3
NMTAP	89	192	4
NMTAP	90	0	2
NMTAP	90	96	2
NMTAP	90	192	1
NMTAP	90	288	1
NMTAP	91	0	0
NMTAP	91	96	0
NMTAP	91	192	6
NMTAP	91	192	7
NMTAP	91	288	6
NMTAP	91	288	7
NMTAP	92	0	5
NMTAP	92	96	5
NMTAP	92	192	4
NMTAP	92	288	4
NMTAP	93	0	2
NMTAP	93	0	3
NMTAP	93	96	2
NMTAP	93	96	3
NMTAP	93	192	2
NMTAP	93	192	3
NMTAP	94	0	1
NMTAP	94	96	1
NMTAP	94	192	2
NMTAP	94	288	2
NMTAP	95	0	3
NMTAP	95	96	3
NMTAP	95	192	4
NMTAP	95	192	5
NMHLD	96	0	6	192
NMHLD	96	0	7	192
NMHLD	97	0	0	192
NMHLD	97	0	1	192
NMTAP	98	0	2
NMTAP	98	96	2
NMTAP	98	192	0
NMTAP	98	192	1
NMTAP	98	288	0
NMTAP	98	288	1
NMTAP	99	0	7
NMTAP	99	96	6
NMTAP	99	192	4
NMTAP	99	192	5
NMTAP	100	0	5
NMTAP	100	96	5
NMTAP	100	192	6
NMTAP	100	192	7
NMTAP	100	288	6
NMTAP	100	288	7
NMTAP	101	0	0
NMTAP	101	96	1
NMTAP	101	192	2
NMTAP	101	192	3
NMTAP	102	0	1
NMTAP	102	96	1
NMTAP	102	192	2
NMTAP	102	192	3
NMTAP	102	288	2
NMTAP	102	288	3
NMTAP	103	0	4
NMTAP	103	96	5
NMTAP	103	192	6
NMTAP	103	192	7
NMTAP	104	0	6
NMTAP	104	96	6
NMTAP	104	192	4
NMTAP	104	192	5
NMTAP	104	288	4
NMTAP	104	288	5
NMTAP	105	0	3
NMTAP	105	96	2
NMTAP	105	192	0
NMTAP	105	192	1
NMTAP	106	0	0
NMTAP	106	96	0
NMTAP	106	192	1
NMTAP	106	288	1
NMTAP	107	0	2
NMTAP	107	96	2
NMTAP	107	192	2
NMTAP	107	192	3
NMTAP	107	288	2
NMTAP	107	288	3
NMTAP	108	0	4
NMTAP	108	96	4
NMTAP	108	192	5
NMTAP	108	288	5
NMTAP	109	0	6
NMTAP	109	96	6
NMTAP	109	192	6
NMTAP	109	192	7
NMTAP	110	0	7
NMTAP	110	96	7
NMTAP	110	192	6
NMTAP	110	288	6
NMTAP	111	0	5
NMTAP	111	96	5
NMTAP	111	192	4
NMTAP	111	192	5
NMTAP	111	288	4
NMTAP	111	288	5
NMTAP	112	0	3
NMTAP	112	96	3
NMTAP	112	192	2
NMTAP	112	288	2
NMTAP	113	0	1
NMTAP	113	96	1
NMTAP	113	192	0
NMTAP	113	192	7
BRTAP	114	0	1
BRTAP	114	0	6

T_REC_TAP	322
T_REC_BRK	2
T_REC_XTP	7
T_REC_BXX	0
T_REC_HLD	15
T_REC_XHO	1
T_REC_BHO	0
T_REC_BXH	0
T_REC_STR	6
T_REC_BST	0
T_REC_XST	0
T_REC_XBS	0
T_REC_TTP	45
T_REC_THO	0
T_REC_SLD	6
T_REC_BSL	0
T_REC_ALL	404
T_NUM_TAP	380
T_NUM_BRK	2
T_NUM_HLD	16
T_NUM_SLD	6
T_NUM_ALL	404
T_JUDGE_TAP	382
T_JUDGE_HLD	64
T_JUDGE_SLD	6
T_JUDGE_ALL	452
TTM_EACHPAIRS	87
TTM_SCR_TAP	190000
TTM_SCR_BRK	5200
TTM_SCR_HLD	16000
TTM_SCR_SLD	9000
TTM_SCR_ALL	220200
TTM_SCR_S	213400
TTM_SCR_SS	220000
TTM_RAT_ACV	10009

