VERSION	0.00.00	1.04.00
FES_MODE	0
BPM_DEF	180.000	180.000	180.000	180.000
MET_DEF	4	4
RESOLUTION	384
CLK_DEF	384
COMPATIBLE_CODE	MA2

BPM	0	0	180.000
MET	0	0	4	4

BXTAP	2	0	3
NMSTR	2	48	2
NMSI_	2	48	2	96	48	5
NMTAP	2	48	4
BXHLD	2	144	6	144
EXTAP	2	288	4
NMTAP	3	0	5
NMTAP	3	48	5
NMTAP	3	96	4
NMTAP	3	144	4
NMHLD	3	192	3	48
NMHLD	3	192	5	48
NMTAP	3	288	2
NMTAP	3	312	4
NMTAP	3	336	2
NMTAP	3	360	4
NMHLD	4	0	2	48
NMHLD	4	96	1	48
NMHLD	4	96	3	48
NMHLD	4	192	2	48
NMHLD	4	192	4	48
NMSTR	4	288	5
NMSI_	4	288	5	96	48	2
NMTAP	4	312	3
NMTAP	4	336	5
NMTAP	4	360	3
EXTAP	5	0	5
CNSCR	5	48	2	0	72	4
CNSI_	5	120	4	0	72	7
EXTAP	5	240	0
BXTAP	5	288	1
BXTAP	5	288	7
NMSTR	6	0	2
NMSI_	6	0	2	96	48	7
NMSTR	6	0	6
NMSI_	6	0	6	96	48	4
NMTAP	6	48	2
NMTAP	6	48	6
NMTAP	6	192	0
NMTAP	6	240	1
NMTAP	6	288	4
NMTAP	6	336	5
NMSTR	7	0	6
NMSI_	7	0	6	96	48	0
NMTAP	7	48	6
NMTAP	7	96	4
NMTAP	7	144	3
NMTAP	7	192	7
NMTAP	7	240	6
NMHLD	7	288	0	48
NMHLD	7	288	5	48
NMTAP	8	0	2
NMTAP	8	24	3
NMTAP	8	48	2
NMHLD	8	96	1	48
NMTAP	8	144	0
NMTAP	8	192	6
NMTAP	8	216	7
NMTAP	8	240	6
NMHLD	8	288	5	48
NMTAP	8	336	4
NMTAP	9	0	3
NMTAP	9	48	2
NMTAP	9	96	4
NMTAP	9	144	5
NMSTR	9	192	2
NMSI_	9	192	2	96	48	4
NMSTR	9	192	6
NMSI_	9	192	6	96	48	2
NMTAP	9	240	2
NMTAP	9	240	6
BRHLD	10	0	7	96
NMTAP	10	96	4
NMTAP	10	144	3
NMTAP	10	192	2
NMTAP	10	192	4
NMTAP	10	240	5
NMTAP	10	288	3
NMTAP	10	288	6
NMTAP	10	336	2
NMSTR	11	0	4
NMSXL	11	0	4	96	120	3
NMTAP	11	48	4
NMTAP	11	96	3
NMHLD	11	192	2	96
EXTAP	11	288	3
EXTAP	11	312	1
EXTAP	11	336	3
EXTAP	11	360	1
NMSTR	12	0	4
NMSI_	12	0	4	96	48	6
NMTAP	12	48	4
NMTAP	12	96	0
NMTAP	12	144	1
NMSTR	12	192	7
NMSI_	12	192	7	96	48	1
NMTAP	12	240	7
NMHLD	12	288	3	96
NMTHO	13	0	0	192	C	0	M1
BRTAP	13	288	0
BRTAP	13	288	7
NMSTR	14	0	6
NMSCL	14	0	6	96	48	3
NMTAP	14	48	6
NMTAP	14	96	0
NMTAP	14	144	0
NMTAP	14	192	2
NMTAP	14	216	3
NMTAP	14	240	2
NMTAP	14	288	6
NMTAP	14	336	4
NMTAP	14	336	5
NMTAP	15	0	2
NMTAP	15	24	3
NMTAP	15	48	2
NMTAP	15	96	5
NMTAP	15	144	4
NMTAP	15	144	6
NMTAP	15	192	1
NMTAP	15	216	7
NMTAP	15	240	1
NMTAP	15	264	7
BRTAP	15	288	0
NMTAP	16	0	5
NMTAP	16	24	4
NMTAP	16	48	5
NMTAP	16	96	1
NMTAP	16	144	2
NMTAP	16	144	3
NMTAP	16	192	5
NMTAP	16	216	4
NMTAP	16	240	5
NMTAP	16	288	0
NMTAP	16	336	1
NMTAP	16	336	7
NMSTR	17	0	5
NMSI_	17	0	5	96	48	0
NMTAP	17	48	5
NMSTR	17	96	1
NMSI_	17	96	1	96	48	4
NMTAP	17	144	1
NMTAP	17	192	7
NMTAP	17	240	7
EXTAP	17	288	0
EXTAP	17	288	6
NMTAP	18	0	2
NMTAP	18	0	3
NMTAP	18	48	1
NMTAP	18	96	6
NMTAP	18	120	7
NMTAP	18	144	6
NMSTR	18	192	0
NMSI_	18	192	0	96	48	4
NMTAP	18	240	0
NMSTR	18	288	6
NMSCL	18	288	6	96	48	3
NMTAP	18	336	6
NMTAP	19	0	2
NMTAP	19	48	1
NMTAP	19	96	6
NMTAP	19	120	7
NMTAP	19	144	6
NMTAP	19	192	0
NMTAP	19	240	2
NMTAP	19	288	6
NMTAP	19	312	4
NMTAP	19	336	6
NMTAP	19	360	4
NMSTR	20	0	5
NMSI_	20	0	5	96	48	3
NMTAP	20	48	5
NMSTR	20	96	1
NMSI_	20	96	1	96	48	5
NMTAP	20	144	1
NMSTR	20	192	7
NMSCL	20	192	7	96	48	4
NMTAP	20	240	7
NMTAP	20	288	2
NMTAP	20	336	2
NMTAP	21	0	1
NMTAP	21	0	3
NMTAP	21	48	2
NMTAP	21	48	4
NMTAP	21	96	5
NMTAP	21	120	4
NMTAP	21	168	4
NMTAP	21	216	6
NMTAP	21	240	7
BRTAP	21	288	1
BRSTR	21	288	5
NMSCR	21	288	5	96	768	4
NMTTP	22	0	0	C	1	M1
NMSTR	26	0	3
NMSI_	26	0	3	96	96	1
NMSTR	26	192	5
NMSI_	26	192	5	96	96	3
NMSTR	27	0	7
NMSI_	27	0	7	96	96	5
NMSTR	27	192	1
NMSI_	27	192	1	96	96	7
NMHLD	28	0	5	96
NMHLD	28	96	4	96
NMHLD	28	192	3	96
NMHLD	28	288	2	96
NMTAP	29	0	3
NMTAP	29	48	2
NMTAP	29	48	4
NMTAP	29	96	5
NMTAP	29	120	4
EXSTR	29	168	2
NMSUR	29	168	2	96	120	4
EXTAP	29	168	6
EXSTR	30	0	5
NMSI_	30	0	5	96	96	1
NMTAP	30	96	4
CNSI_	30	192	1	0	96	7
NMTAP	30	192	3
NMTAP	30	288	2
CNSI_	30	288	7	0	96	3
EXHLD	31	0	1	96
NMTAP	31	96	0
NMTAP	31	192	6
NMTAP	31	192	7
BRTAP	31	240	0
BRTAP	31	240	5
NMTAP	31	336	2
EXTAP	31	336	3
NMSTR	32	0	2
NMSI_	32	0	2	96	96	6
EXTAP	32	0	3
NMTAP	32	96	3
NMTAP	32	192	4
CNSI_	32	192	6	0	96	0
CNSI_	32	288	0	0	96	4
NMTAP	32	288	5
EXHLD	33	0	6	96
NMTAP	33	96	7
EXSTR	33	192	0
NMSI_	33	192	0	96	48	4
EXTAP	33	240	0
BRTAP	33	288	7
NMTAP	34	0	3
EXTAP	34	0	5
NMTAP	34	48	5
NMTAP	34	96	5
NMTAP	34	144	5
EXTAP	34	192	2
NMTAP	34	192	4
NMTAP	34	240	2
NMTAP	34	288	2
NMTAP	34	336	2
NMTAP	35	0	1
EXTAP	35	0	7
NMTAP	35	48	7
EXTAP	35	96	3
NMTAP	35	96	7
NMTAP	35	144	7
EXTAP	35	192	0
NMTAP	35	192	6
NMTAP	35	240	0
NMTAP	35	288	0
EXTAP	35	288	4
NMTAP	35	336	0
NMTAP	36	0	1
NMTAP	36	24	3
NMTAP	36	48	1
NMTAP	36	72	3
NMTAP	36	96	2
NMTAP	36	120	4
NMTAP	36	144	2
NMTAP	36	168	4
NMTAP	36	192	3
NMTAP	36	216	5
NMTAP	36	240	3
NMTAP	36	264	5
NMSTR	36	288	4
NMSUL	36	288	4	96	192	3
NMTAP	36	312	6
NMTAP	36	336	4
NMTAP	36	360	6
EXTAP	37	0	4
NMTAP	37	240	7
BRTAP	37	288	1
BRTAP	37	288	5
NMTAP	38	0	2
NMTAP	38	0	3
NMTAP	38	48	1
NMTAP	38	96	0
NMHLD	38	96	6	72
NMTAP	38	168	4
NMTAP	38	216	4
NMTAP	38	240	5
NMTAP	38	288	2
NMTAP	38	312	3
NMTAP	38	336	1
NMTAP	39	0	4
NMTAP	39	0	5
NMTAP	39	48	6
NMHLD	39	96	1	72
NMTAP	39	96	7
NMTAP	39	168	3
NMTAP	39	216	3
NMTAP	39	240	2
NMTAP	39	288	1
NMTAP	39	288	4
NMTAP	39	336	0
NMTAP	40	0	6
NMTAP	40	0	7
NMTAP	40	48	5
NMHLD	40	96	2	72
NMTAP	40	96	4
NMTAP	40	168	3
NMTAP	40	216	1
NMTAP	40	240	0
NMTAP	40	288	6
NMTAP	40	312	7
NMTAP	40	336	6
NMTAP	41	0	0
NMTAP	41	0	1
NMTAP	41	48	2
NMTAP	41	96	3
NMHLD	41	96	5	72
NMTAP	41	168	4
NMTAP	41	216	6
NMTAP	41	240	7
EXTAP	41	288	0
EXTAP	41	288	5
BRHLD	42	0	3	48
BRHLD	42	0	6	48
NMTAP	42	96	5
NMTAP	42	120	4
NMTAP	42	168	3
NMTAP	42	168	6
NMTAP	42	216	1
NMTAP	42	240	0
NMTAP	42	288	6
NMTAP	42	312	7
NMTAP	42	336	6
BRHLD	43	0	1	48
BRHLD	43	0	4	48
NMTAP	43	96	2
NMTAP	43	120	3
NMTAP	43	168	1
NMTAP	43	168	4
NMTAP	43	216	6
NMTAP	43	240	7
NMTAP	43	288	1
NMTAP	43	312	0
NMTAP	43	336	1
BRTAP	44	0	3
BRTAP	44	0	7
NMTAP	44	48	3
NMSTR	44	96	5
NMSI_	44	96	5	96	48	0
NMTAP	44	144	5
BRSTR	44	192	1
NMSI_	44	192	1	96	48	4
NMTAP	44	240	1
NMTAP	44	288	6
NMTAP	44	336	6
BRSTR	45	0	7
NMSI_	45	0	7	96	48	3
NMTAP	45	48	0
NMTAP	45	48	6
NMTAP	45	96	7
EXTAP	45	168	2
EXTAP	45	168	4
NMTAP	45	216	1
NMTAP	45	240	0
BRTAP	45	288	2
BRTAP	45	288	7
BRTAP	45	336	2
BRTAP	45	336	7
EXTAP	46	0	1
EXTAP	46	0	5
NMHLD	46	48	6	48
NMTAP	46	96	0
NMTAP	46	120	7
NMTAP	46	168	1
NMTAP	46	168	5
NMTAP	46	216	2
NMTAP	46	240	3
NMTAP	46	288	5
NMTAP	46	312	4
NMTAP	46	336	6
NMTAP	47	0	2
NMTAP	47	0	3
NMHLD	47	48	1	48
NMTAP	47	96	7
NMTAP	47	120	0
NMTAP	47	168	2
NMTAP	47	168	6
NMTAP	47	216	5
NMTAP	47	240	3
NMTAP	47	288	2
NMTAP	47	288	7
NMTAP	47	336	2
NMTAP	47	336	7
NMTAP	48	0	0
NMTAP	48	0	1
NMHLD	48	48	2	48
NMTAP	48	96	4
NMTAP	48	120	3
NMTAP	48	168	1
NMTAP	48	168	4
NMTAP	48	216	6
NMTAP	48	240	7
NMTAP	48	288	1
NMTAP	48	312	0
NMTAP	48	336	2
NMTAP	49	0	6
NMTAP	49	0	7
NMHLD	49	48	5	48
NMTAP	49	96	3
NMTAP	49	120	4
NMTAP	49	168	3
NMTAP	49	168	6
NMTAP	49	216	1
NMTAP	49	240	0
EXTAP	49	288	2
EXTAP	49	288	7
BRTAP	50	0	1
BRTAP	50	0	4
NMTAP	50	48	1
NMTAP	50	48	4
NMTAP	50	96	2
NMTAP	50	120	3
NMTAP	50	168	1
NMTAP	50	168	4
NMTAP	50	216	6
NMTAP	50	240	7
NMTAP	50	288	1
NMTAP	50	312	0
NMTAP	50	336	2
BRTAP	51	0	3
BRTAP	51	0	6
NMTAP	51	48	3
NMTAP	51	48	6
NMTAP	51	96	5
NMTAP	51	120	4
NMTAP	51	168	3
NMTAP	51	168	6
NMTAP	51	216	1
NMTAP	51	240	0
NMTAP	51	288	6
NMTAP	51	312	7
NMTAP	51	336	5
BRTAP	52	0	0
BRTAP	52	0	4
NMTAP	52	48	0
NMTAP	52	48	4
NMTAP	52	96	1
NMTAP	52	96	5
NMTAP	52	144	2
NMTAP	52	144	6
NMTAP	52	192	3
NMTAP	52	192	7
NMTAP	52	240	0
NMTAP	52	256	7
NMTAP	52	272	6
EXTAP	52	288	5
NMTAP	52	336	7
NMTAP	52	352	0
NMTAP	52	368	1
EXSTR	53	0	2
NMSCL	53	0	2	96	144	3
NMTAP	53	240	7
EXTAP	53	288	1
EXTAP	53	288	5
BRTAP	54	0	2
BRTAP	54	0	3
EXSTR	54	48	1
NMSCR	54	48	1	96	48	4
EXTAP	54	48	4
BRTAP	54	144	1
BRSTR	54	144	7
BRSI_	54	144	7	96	48	3
EXTAP	54	240	2
BRTAP	54	288	2
CNSI_	54	288	3	0	48	7
NMTAP	55	0	0
NMTAP	55	48	0
NMTAP	55	96	1
NMTAP	55	96	7
NMTAP	55	144	1
NMTAP	55	144	7
NMSTR	55	192	2
BRSV_	55	192	2	96	48	7
NMSTR	55	192	6
BRSI_	55	192	6	96	48	3
NMTAP	55	240	3
NMTAP	55	240	7
NMTTP	55	288	3	E	0	M1
NMTTP	55	288	7	E	1	M1
EXTAP	56	0	0
NMTAP	56	48	0
NMTAP	56	96	2
NMTAP	56	120	3
NMTAP	56	168	4
NMTAP	56	168	5
NMTAP	56	216	6
NMTAP	56	240	7
NMTAP	56	264	5
NMTAP	56	288	0
NMTAP	56	312	4
NMTAP	56	336	1
NMTAP	56	360	3
NMTAP	57	0	2
NMTAP	57	48	0
NMTAP	57	48	1
NMTAP	57	96	6
NMTAP	57	120	7
NMTAP	57	168	4
NMTAP	57	168	5
NMTAP	57	216	2
NMTAP	57	240	3
NMTAP	57	264	1
NMTAP	57	288	4
NMTAP	57	312	0
NMTAP	57	336	5
NMTAP	57	360	7
NMTAP	58	0	6
NMTAP	58	48	0
NMTAP	58	48	5
NMTAP	58	96	2
NMTAP	58	120	3
NMTAP	58	168	1
NMTAP	58	168	7
NMTAP	58	216	5
NMTAP	58	240	4
NMTAP	58	264	6
NMTAP	58	288	3
NMTAP	58	312	5
NMTAP	58	336	2
NMTAP	58	360	4
NMTAP	59	0	1
NMTAP	59	48	2
NMTAP	59	48	7
NMTAP	59	96	5
NMTAP	59	120	4
NMTAP	59	168	0
NMTAP	59	168	6
NMTAP	59	216	2
NMTAP	59	240	3
NMTAP	59	264	1
NMTAP	59	288	4
NMTAP	59	312	2
NMTAP	59	336	5
NMTAP	59	360	3
NMTAP	60	0	6
NMTAP	60	48	6
NMTAP	60	96	1
NMHLD	60	120	0	48
NMTAP	60	168	2
NMSTR	60	192	7
NMSI_	60	192	7	96	48	3
NMTAP	60	216	2
NMTAP	60	240	7
NMTAP	60	264	2
BRTAP	60	288	7
NMTAP	61	0	2
NMTAP	61	48	1
NMTAP	61	48	4
NMTAP	61	96	6
NMHLD	61	120	7	48
NMTAP	61	168	5
NMTAP	61	192	0
NMTAP	61	216	5
NMTAP	61	240	0
NMTAP	61	264	5
BRTAP	61	288	1
BRTAP	61	288	4
NMSTR	62	0	2
NMSI_	62	0	2	96	48	4
NMTAP	62	48	4
NMTAP	62	96	2
NMTAP	62	144	5
NMSTR	62	192	6
NMSI_	62	192	6	96	48	0
NMTAP	62	240	3
NMTAP	62	288	6
NMTAP	62	336	1
NMSTR	63	0	2
NMSI_	63	0	2	96	48	7
NMTAP	63	48	3
NMTAP	63	96	2
NMTAP	63	144	5
NMTAP	63	192	6
NMTAP	63	240	6
NMTAP	63	288	0
NMTAP	63	312	7
NMTAP	63	336	0
NMTAP	63	360	7
NMSTR	64	0	1
NMSLR	64	0	1	96	96	7
NMTAP	64	48	1
NMTAP	64	96	6
NMTAP	64	144	5
NMSTR	64	192	4
NMSLR	64	192	4	96	96	2
NMTAP	64	240	4
NMTAP	64	288	2
NMTAP	64	336	1
NMSTR	65	0	0
NMSCL	65	0	0	96	48	6
NMTAP	65	48	3
NMSTR	65	96	0
NMSCR	65	96	0	96	48	2
NMTAP	65	144	4
NMTAP	65	192	0
NMTAP	65	240	5
BRTAP	65	288	3
BRTAP	65	288	7
NMTAP	66	0	4
NMTAP	66	0	6
NMTAP	66	48	3
NMTAP	66	96	4
NMTAP	66	96	6
NMTAP	66	144	2
NMTAP	66	192	4
NMTAP	66	192	5
NMTAP	66	240	1
NMTAP	66	288	4
NMTAP	66	288	5
NMTAP	66	336	0
NMTAP	67	0	2
NMTAP	67	0	3
NMTAP	67	48	7
NMTAP	67	96	2
NMTAP	67	96	3
NMTAP	67	144	6
NMTAP	67	192	1
NMTAP	67	192	3
NMTAP	67	240	5
NMTAP	67	288	1
NMTAP	67	288	3
NMTAP	67	336	4
NMTAP	68	0	2
NMTAP	68	24	4
NMTAP	68	48	2
NMTAP	68	72	4
NMTAP	68	96	1
NMTAP	68	120	5
NMTAP	68	144	1
NMTAP	68	168	5
NMTAP	68	192	0
NMTAP	68	216	6
NMTAP	68	240	0
NMTAP	68	264	6
EXTAP	68	288	7
EXTAP	68	312	7
EXTAP	68	336	7
EXTAP	68	360	7
NMSTR	69	0	7
BRSI_	69	0	7	96	72	4
BRSSR	69	0	7	96	72	3
EXTAP	69	240	3
EXTAP	69	240	4
NMTAP	69	288	1
NMTAP	69	288	6
NMSTR	70	0	1
NMSI_	70	0	1	96	48	4
NMSTR	70	0	6
NMSI_	70	0	6	96	48	3
EXTAP	70	48	0
EXTAP	70	48	7
EXTAP	70	72	0
EXTAP	70	72	7
BXTAP	70	96	1
BXTAP	70	96	6
NMHLD	70	192	1	72
NMTAP	70	192	6
NMTAP	70	264	3
NMTAP	70	288	2
NMTAP	70	336	5
NMTAP	71	0	4
NMTAP	71	0	6
NMTAP	71	48	3
NMTAP	71	96	0
NMTAP	71	96	1
NMTAP	71	144	7
NMTAP	71	192	6
NMTAP	71	216	4
NMTAP	71	240	6
NMTAP	71	264	4
NMTAP	71	288	5
NMTAP	71	336	2
NMTAP	72	0	1
NMTAP	72	0	3
NMTAP	72	48	0
NMTAP	72	96	6
NMTAP	72	96	7
NMTAP	72	144	4
NMHLD	72	192	2	72
NMTAP	72	264	3
NMTAP	72	288	1
NMTAP	72	336	1
NMTAP	73	0	0
NMTAP	73	0	4
NMTAP	73	48	5
NMTAP	73	96	6
NMTAP	73	120	7
NMTAP	73	144	6
NMTAP	73	192	3
NMTAP	73	192	5
NMTAP	73	240	1
NMTAP	73	264	0
NMTAP	73	288	1
NMTAP	73	336	2
NMTAP	73	336	4
NMSTR	74	0	1
NMSI_	74	0	1	96	48	5
NMTAP	74	0	5
NMTAP	74	48	1
NMTAP	74	48	5
BRTAP	74	96	7
NMTAP	74	192	0
NMHLD	74	192	6	72
NMTAP	74	264	4
NMTAP	74	288	5
NMTAP	74	336	2
NMTAP	75	0	1
NMTAP	75	0	3
NMTAP	75	48	4
NMTAP	75	96	6
NMTAP	75	96	7
NMTAP	75	144	0
NMTAP	75	192	5
NMTAP	75	240	4
NMTAP	75	240	6
NMTAP	75	288	1
NMTAP	75	312	3
NMTAP	75	336	1
NMTAP	75	360	3
NMTAP	76	0	2
NMTAP	76	48	7
NMTAP	76	96	0
NMTAP	76	96	1
NMTAP	76	144	3
NMHLD	76	192	5	72
NMTAP	76	264	4
NMTAP	76	288	6
NMTAP	76	336	6
NMTAP	77	0	1
NMTAP	77	24	0
NMTAP	77	48	1
NMTAP	77	96	6
NMTAP	77	120	7
NMTAP	77	144	6
BRHLD	77	192	2	48
BRHLD	77	192	3	48
BRHLD	77	264	5	48
BRHLD	77	264	6	48
BRTAP	77	336	0
BRTAP	77	336	1
NMTAP	78	0	2
NMSTR	78	0	7
NMSI_	78	0	7	96	48	3
NMTAP	78	48	2
NMTAP	78	48	7
NMSTR	78	96	1
NMSI_	78	96	1	96	48	4
NMTAP	78	144	1
NMTAP	78	192	6
NMTAP	78	240	6
NMTAP	78	264	5
NMTAP	78	312	2
NMTAP	78	336	3
NMSTR	79	0	0
NMSI_	79	0	0	96	48	4
NMTAP	79	0	5
NMTAP	79	48	0
NMTAP	79	48	5
NMTAP	79	96	7
NMTAP	79	144	7
NMTAP	79	192	6
NMTAP	79	216	4
NMTAP	79	240	6
NMTAP	79	264	4
NMTAP	79	288	5
NMTAP	79	336	1
NMTAP	80	0	2
NMTAP	80	0	3
NMTAP	80	48	0
NMTAP	80	48	4
NMTAP	80	96	5
NMHLD	80	120	7	48
NMTAP	80	168	6
NMHLD	80	192	0	48
NMTAP	80	240	7
NMHLD	80	264	1	48
NMTAP	80	312	0
NMTAP	80	336	2
NMTAP	81	0	4
NMTAP	81	0	5
NMTAP	81	48	3
NMTAP	81	48	7
NMTAP	81	96	2
NMHLD	81	120	0	48
NMTAP	81	168	1
NMHLD	81	192	7	48
NMTAP	81	240	0
NMHLD	81	264	6	48
NMTAP	81	312	7
NMTAP	81	336	5
NMTAP	82	0	0
NMTAP	82	0	1
NMTAP	82	48	2
NMTAP	82	48	6
NMTAP	82	96	5
NMTAP	82	120	4
NMTAP	82	144	6
NMSTR	82	192	1
NMSI_	82	192	1	96	48	5
NMTAP	82	216	0
NMTAP	82	240	1
NMTAP	82	264	0
NMTAP	82	288	1
NMTAP	82	336	6
NMTAP	83	0	6
NMTAP	83	0	7
NMTAP	83	48	1
NMTAP	83	48	5
NMTAP	83	96	2
NMTAP	83	120	3
NMTAP	83	144	1
NMTAP	83	192	6
NMTAP	83	192	7
NMTAP	83	240	0
NMTAP	83	240	1
NMSTR	83	288	6
NMSI_	83	288	6	96	48	2
NMTAP	83	312	7
NMTAP	83	336	6
NMTAP	83	360	7
NMTAP	84	0	6
NMTAP	84	48	1
NMTAP	84	96	0
NMTAP	84	96	7
NMTAP	84	144	6
EXTAP	84	192	3
EXTAP	84	192	4
BRTAP	84	240	0
BRTAP	84	240	1
NMTAP	84	256	2
NMTAP	84	272	3
EXTAP	84	288	4
BRTAP	84	336	6
BRTAP	84	336	7
NMTAP	84	352	5
NMTAP	84	368	4
EXSTR	85	0	3
NMSCL	85	0	3	96	192	4
BRSTR	85	288	7
NMSI_	85	288	7	96	48	3
NMTTP	86	0	0	C	1	M1

T_REC_TAP	595
T_REC_BRK	37
T_REC_XTP	47
T_REC_BXX	5
T_REC_HLD	37
T_REC_XHO	2
T_REC_BHO	9
T_REC_BXH	1
T_REC_STR	44
T_REC_BST	5
T_REC_XST	6
T_REC_XBS	0
T_REC_TTP	4
T_REC_THO	1
T_REC_SLD	51
T_REC_BSL	5
T_REC_ALL	849
T_NUM_TAP	696
T_NUM_BRK	62
T_NUM_HLD	40
T_NUM_SLD	51
T_NUM_ALL	849
T_JUDGE_TAP	743
T_JUDGE_HLD	72
T_JUDGE_SLD	56
T_JUDGE_ALL	871
TTM_EACHPAIRS	144
TTM_SCR_TAP	348000
TTM_SCR_BRK	161200
TTM_SCR_HLD	40000
TTM_SCR_SLD	76500
TTM_SCR_ALL	625700
TTM_SCR_S	600950
TTM_SCR_SS	619500
TTM_RAT_ACV	10100

