VERSION	0.00.00	1.04.00
FES_MODE	0
BPM_DEF	180.000	180.000	180.000	180.000
MET_DEF	4	4
RESOLUTION	384
CLK_DEF	384
COMPATIBLE_CODE	MA2

BPM	0	0	180.000
MET	0	0	4	4

NMTAP	2	0	4
NMTAP	2	0	6
NMTAP	2	144	1
NMTAP	2	144	3
NMTAP	2	288	0
NMTAP	2	288	7
NMTAP	3	0	0
NMTAP	3	48	1
NMTAP	3	96	2
NMTAP	3	144	3
NMTAP	3	192	4
NMTAP	3	240	5
NMHLD	3	288	6	96
NMTAP	4	0	4
NMTAP	4	96	2
NMTAP	4	96	3
NMTAP	4	192	4
NMTAP	4	192	5
NMTAP	4	288	1
NMSTR	4	288	3
NMSCR	4	288	3	96	240	2
NMTTP	5	0	0	C	1	M1
BXTAP	5	288	0
NMSTR	6	0	1
NMSI_	6	0	1	96	48	4
NMTAP	6	96	5
NMHLD	6	192	7	96
NMTAP	6	288	4
NMTAP	6	336	4
NMSTR	7	0	6
NMSI_	7	0	6	96	48	3
NMTAP	7	96	2
NMHLD	7	192	0	96
NMTAP	7	288	3
NMTAP	7	336	3
NMSTR	8	0	1
NMSI_	8	0	1	96	48	4
NMTAP	8	96	5
NMHLD	8	192	6	96
NMTAP	8	288	7
NMTAP	8	336	7
NMSTR	9	0	5
NMSI_	9	0	5	96	48	2
NMTAP	9	96	1
NMSTR	9	192	0
NMSI_	9	192	0	96	48	3
NMSI_	9	192	0	96	48	5
BXSTR	10	0	6
NMSI_	10	0	6	96	48	3
NMTAP	10	96	2
NMHLD	10	192	0	96
NMTAP	10	288	3
NMTAP	10	336	3
NMSTR	11	0	1
NMSI_	11	0	1	96	48	4
NMTAP	11	96	5
NMHLD	11	192	7	96
NMTAP	11	288	4
NMTAP	11	336	4
NMSTR	12	0	6
NMSI_	12	0	6	96	48	3
NMTAP	12	96	2
NMTAP	12	192	1
NMTAP	12	288	0
NMTAP	12	288	4
NMSTR	13	0	0
NMSCR	13	0	0	96	96	3
NMSTR	13	0	4
NMSCR	13	0	4	96	96	7
BRTAP	13	288	3
BRTAP	13	288	7
NMTAP	14	0	4
NMTAP	14	0	6
NMTTP	14	96	0	E	1	M1
NMTAP	14	192	2
NMTAP	14	192	3
NMTTP	14	288	1	E	0	M1
NMTAP	15	0	1
NMTAP	15	0	3
NMTTP	15	96	0	E	0	M1
NMTAP	15	192	4
NMTAP	15	192	5
NMTTP	15	288	7	E	0	M1
NMTAP	16	0	0
NMTAP	16	0	2
NMTTP	16	96	4	E	1	M1
NMTAP	16	192	6
NMTAP	16	192	7
NMTTP	16	288	5	E	0	M1
NMTAP	17	0	5
NMTAP	17	0	7
NMTTP	17	96	4	E	0	M1
NMTAP	17	192	0
NMTAP	17	192	1
NMTTP	17	288	3	E	0	M1
NMTAP	18	0	6
NMTAP	18	48	4
NMTTP	18	96	0	E	1	M1
NMTAP	18	192	2
NMTAP	18	240	3
NMTTP	18	288	1	E	0	M1
NMTAP	19	0	1
NMTAP	19	48	3
NMTTP	19	96	0	E	0	M1
NMTAP	19	192	5
NMTAP	19	240	4
NMTTP	19	288	7	E	0	M1
NMTAP	20	0	1
NMTAP	20	48	7
NMTTP	20	96	4	E	1	M1
NMTAP	20	192	6
NMTAP	20	240	7
NMTTP	20	288	5	E	0	M1
NMTAP	21	0	6
NMTAP	21	48	6
NMTAP	21	96	3
NMTAP	21	144	3
NMTAP	21	192	4
NMTAP	21	240	4
NMSTR	21	288	1
NMSCR	21	288	1	96	576	0
BRHLD	22	0	7	2688
NMTTP	24	0	4	E	0	M1
NMTTP	25	0	2	E	0	M1
NMTTP	26	0	0	E	0	M1
NMTTP	27	0	6	E	0	M1
NMTHO	28	0	0	384	C	1	M1
NMTTP	28	0	3	B	0	M1
NMTTP	28	0	4	B	0	M1
BRTAP	30	0	6
BRTAP	30	0	7
NMTAP	30	96	4
NMTAP	30	96	6
NMTAP	30	192	4
NMTAP	30	192	5
NMTAP	30	288	2
NMTAP	30	288	3
BRTAP	31	0	0
BRTAP	31	0	1
NMTAP	31	96	1
NMTAP	31	96	3
NMTAP	31	192	2
NMTAP	31	192	4
BRTAP	31	240	2
BRTAP	31	240	4
EXTAP	31	336	5
BRTAP	32	0	6
BRTAP	32	0	7
NMTAP	32	96	4
NMTAP	32	96	6
NMTAP	32	192	4
NMTAP	32	192	5
NMTAP	32	288	2
NMTAP	32	288	3
BRTAP	33	0	0
BRTAP	33	0	1
NMTAP	33	96	2
NMTAP	33	96	4
BRSTR	33	192	6
NMSI_	33	192	6	96	48	4
BRSTR	33	192	7
NMSI_	33	192	7	96	48	3
BRTAP	33	240	6
BRTAP	33	240	7
BRTAP	34	0	2
NMTAP	34	48	2
NMTAP	34	96	2
NMTAP	34	144	2
BRTAP	34	192	3
BRTAP	34	192	5
NMTAP	34	240	5
NMTAP	34	288	5
NMTAP	34	336	5
BRTAP	35	0	1
BRTAP	35	0	4
NMTAP	35	48	1
NMTAP	35	96	1
NMTAP	35	144	1
BRTAP	35	192	2
BRTAP	35	192	7
NMTAP	35	240	7
NMTAP	35	288	7
NMTAP	35	336	7
BRTAP	36	0	0
NMTAP	36	48	0
BRTAP	36	96	6
NMTAP	36	144	6
BRTAP	36	192	1
NMTAP	36	240	1
BRTAP	36	288	7
NMTAP	36	336	7
NMSTR	37	0	0
BRSI_	37	0	0	96	48	4
NMSTR	37	0	7
BRSI_	37	0	7	96	48	3
NMTAP	37	192	2
NMTAP	37	192	5
NMTAP	37	240	1
NMTAP	37	240	6
BRTAP	37	288	0
BRTAP	37	288	7
NMSTR	38	0	6
NMSI_	38	0	6	96	48	2
NMTAP	38	48	6
NMSTR	38	96	1
NMSI_	38	96	1	96	48	7
NMTAP	38	144	1
NMTAP	38	192	4
NMTAP	38	288	5
NMTAP	38	336	5
NMSTR	39	0	1
NMSI_	39	0	1	96	48	5
NMTAP	39	48	1
NMSTR	39	96	6
NMSI_	39	96	6	96	48	0
NMTAP	39	144	6
NMTAP	39	192	3
NMTAP	39	288	2
NMTAP	39	336	2
NMSTR	40	0	6
NMSI_	40	0	6	96	48	2
NMTAP	40	48	6
NMSTR	40	96	1
NMSI_	40	96	1	96	48	4
NMTAP	40	144	1
NMTAP	40	192	0
NMTAP	40	288	7
NMTAP	40	336	7
NMSTR	41	0	6
NMSI_	41	0	6	96	48	2
NMTAP	41	48	6
NMSTR	41	96	1
NMSI_	41	96	1	96	48	7
NMTAP	41	144	1
NMTAP	41	192	4
NMTAP	41	288	5
NMTAP	41	336	5
NMSTR	42	0	1
NMSI_	42	0	1	96	48	5
NMTAP	42	48	1
NMSTR	42	96	6
NMSI_	42	96	6	96	48	3
NMTAP	42	144	6
NMTAP	42	192	7
NMTAP	42	288	0
NMTAP	42	336	0
NMSTR	43	0	6
NMSI_	43	0	6	96	48	2
NMTAP	43	48	6
NMSTR	43	96	1
NMSI_	43	96	1	96	48	4
NMTAP	43	144	1
NMTAP	43	192	0
NMTAP	43	288	7
NMTAP	43	336	7
NMSTR	44	0	1
NMSI_	44	0	1	96	48	5
NMTAP	44	48	1
NMSTR	44	96	6
NMSI_	44	96	6	96	48	3
NMTAP	44	144	6
NMTAP	44	192	7
NMTAP	44	288	0
NMTAP	44	336	0
NMSTR	45	0	6
NMSI_	45	0	6	96	48	2
NMTAP	45	48	6
NMSTR	45	96	1
NMSI_	45	96	1	96	48	4
NMTAP	45	144	1
NMTAP	45	192	0
BRTAP	45	288	5
NMTAP	46	0	0
NMTAP	46	0	4
NMTAP	46	48	1
NMTAP	46	96	1
NMTAP	46	120	3
NMTAP	46	168	3
NMTAP	46	192	2
NMTAP	46	288	4
NMTAP	46	288	5
NMTAP	47	0	3
NMTAP	47	0	7
NMTAP	47	48	6
NMTAP	47	96	6
NMTAP	47	120	4
NMTAP	47	168	4
NMTAP	47	192	5
NMTAP	47	288	2
NMTAP	47	288	3
NMTAP	48	0	0
NMTAP	48	0	4
NMTAP	48	48	1
NMTAP	48	96	1
NMTAP	48	120	3
NMTAP	48	168	3
NMTAP	48	192	2
NMTAP	48	288	4
NMTAP	48	288	5
NMTAP	49	0	3
NMTAP	49	0	7
NMTAP	49	48	6
NMTAP	49	96	6
NMTAP	49	120	4
NMTAP	49	168	4
NMTAP	49	192	5
NMTAP	49	288	2
NMTAP	49	288	4
NMTAP	50	0	1
NMTAP	50	0	5
NMTAP	50	48	6
NMTAP	50	96	6
NMTAP	50	120	0
NMTAP	50	168	0
NMTAP	50	192	7
NMTAP	50	288	0
NMTAP	50	288	1
NMTAP	51	0	2
NMTAP	51	0	6
NMTAP	51	48	1
NMTAP	51	96	1
NMTAP	51	120	7
NMTAP	51	168	7
NMTAP	51	192	0
NMTAP	51	288	6
NMTAP	51	288	7
NMTAP	52	0	1
NMTAP	52	0	5
NMTAP	52	48	6
NMTAP	52	96	6
NMTAP	52	120	0
NMTAP	52	168	0
NMTAP	52	192	7
NMTAP	52	288	0
NMTAP	52	288	1
NMTAP	53	0	2
NMTAP	53	0	6
NMTAP	53	48	1
NMTAP	53	96	1
NMTAP	53	120	7
NMTAP	53	168	7
NMSTR	53	192	0
NMSI_	53	192	0	96	48	4
BRTAP	53	288	6
BRHLD	54	0	5	96
BRHLD	54	0	7	96
BRTAP	54	144	0
BRTAP	54	144	2
NMTAP	54	240	3
NMTAP	54	240	4
BRTAP	54	288	2
BRTAP	54	288	5
NMTAP	55	0	0
NMTAP	55	0	7
NMTAP	55	48	0
NMTAP	55	48	7
NMTAP	55	96	1
NMTAP	55	96	6
NMTAP	55	144	1
NMTAP	55	144	6
NMTAP	55	192	2
NMTAP	55	192	5
BRTAP	55	288	1
BRTAP	55	288	6
NMTAP	56	0	0
NMTAP	56	0	7
NMTAP	56	48	1
NMTAP	56	96	1
NMTAP	56	120	3
NMTAP	56	168	3
NMTAP	56	192	4
NMTAP	56	240	4
NMTAP	56	264	6
NMTAP	56	312	6
NMTAP	56	336	7
NMTAP	57	0	0
NMTAP	57	0	7
NMTAP	57	48	6
NMTAP	57	96	6
NMTAP	57	120	4
NMTAP	57	168	4
NMTAP	57	192	3
NMTAP	57	240	3
NMTAP	57	264	1
NMTAP	57	312	1
NMTAP	57	336	0
NMTAP	58	0	0
NMTAP	58	0	7
NMTAP	58	48	1
NMTAP	58	96	1
NMTAP	58	120	3
NMTAP	58	168	3
NMTAP	58	192	4
NMTAP	58	240	4
NMTAP	58	264	6
NMTAP	58	312	6
NMTAP	58	336	7
NMTAP	59	0	0
NMTAP	59	0	7
NMTAP	59	48	6
NMTAP	59	96	6
NMTAP	59	120	4
NMTAP	59	168	4
NMTAP	59	192	3
NMTAP	59	240	3
NMTAP	59	264	1
NMTAP	59	312	1
NMTAP	59	336	3
NMTAP	60	0	2
NMTAP	60	0	4
NMTAP	60	48	5
NMTAP	60	96	5
NMTAP	60	120	7
NMTAP	60	168	7
NMTAP	60	192	0
NMTAP	60	240	0
NMTAP	60	264	2
NMTAP	60	312	2
NMTAP	60	336	4
NMTAP	61	0	3
NMTAP	61	0	5
NMTAP	61	48	2
NMTAP	61	96	2
NMTAP	61	120	0
NMTAP	61	168	0
NMTAP	61	192	7
NMTAP	61	240	7
NMTAP	61	264	5
NMTAP	61	312	5
NMTAP	61	336	3
NMTAP	62	0	2
NMTAP	62	0	4
NMTAP	62	48	5
NMTAP	62	96	5
NMTAP	62	120	7
NMTAP	62	168	7
NMTAP	62	192	0
NMTAP	62	240	0
NMTAP	62	264	2
NMTAP	62	312	2
NMTAP	62	336	4
NMTAP	63	0	3
NMTAP	63	0	5
NMTAP	63	48	2
NMTAP	63	96	2
NMTAP	63	120	0
NMTAP	63	168	0
NMTAP	63	192	7
NMTAP	63	240	7
NMTAP	63	264	5
NMTAP	63	312	5
NMTAP	63	336	3
NMTAP	64	0	2
NMTAP	64	0	4
NMTAP	64	48	1
NMTAP	64	96	1
NMTAP	64	120	3
NMTAP	64	168	3
NMTAP	64	192	4
NMTAP	64	240	4
NMTAP	64	264	6
NMTAP	64	312	6
NMTAP	64	336	7
NMTAP	65	0	0
NMTAP	65	0	7
NMTAP	65	48	6
NMTAP	65	96	6
NMTAP	65	120	4
NMTAP	65	168	4
NMTAP	65	192	3
NMTAP	65	240	3
NMTAP	65	264	1
NMTAP	65	312	1
NMTAP	65	336	3
NMTAP	66	0	2
NMTAP	66	0	4
NMTAP	66	48	5
NMTAP	66	96	5
NMTAP	66	120	7
NMTAP	66	168	7
NMTAP	66	192	0
NMTAP	66	240	0
NMTAP	66	264	2
NMTAP	66	312	2
NMTAP	66	336	4
NMTAP	67	0	3
NMTAP	67	0	5
NMTAP	67	48	2
NMTAP	67	96	2
NMTAP	67	120	0
NMTAP	67	168	0
NMTAP	67	192	7
NMTAP	67	240	7
NMTAP	67	264	5
NMTAP	67	312	5
NMTAP	67	336	3
NMTAP	68	0	2
NMTAP	68	0	4
NMTAP	68	48	5
NMTAP	68	96	6
NMTAP	68	144	7
NMTAP	68	192	0
NMTAP	68	240	1
NMSTR	68	288	2
NMSCL	68	288	2	96	240	4
NMTTP	69	0	0	C	1	M1
BRHLD	69	288	7	96
NMSTR	70	0	5
NMSI_	70	0	5	96	48	0
NMSTR	70	96	3
NMSI_	70	96	3	96	48	6
NMSTR	70	192	1
NMSI_	70	192	1	96	48	4
NMSTR	70	288	7
NMSI_	70	288	7	96	48	2
NMSTR	71	0	5
NMSI_	71	0	5	96	48	0
NMSTR	71	96	3
NMSI_	71	96	3	96	48	6
NMSTR	71	192	1
NMSI_	71	192	1	96	48	4
NMSTR	71	288	7
NMSI_	71	288	7	96	48	2
NMSTR	72	0	5
NMSI_	72	0	5	96	48	0
NMSTR	72	96	3
NMSI_	72	96	3	96	48	6
NMSTR	72	192	1
NMSI_	72	192	1	96	48	4
NMSTR	72	288	7
NMSI_	72	288	7	96	48	2
NMSTR	73	0	5
NMSI_	73	0	5	96	48	0
NMSTR	73	96	3
NMSI_	73	96	3	96	48	6
NMTAP	73	192	1
NMHLD	73	288	0	96
NMSTR	74	0	2
NMSI_	74	0	2	96	48	7
NMSTR	74	96	4
NMSI_	74	96	4	96	48	1
NMSTR	74	192	6
NMSI_	74	192	6	96	48	3
NMSTR	74	288	0
NMSI_	74	288	0	96	48	5
NMSTR	75	0	2
NMSI_	75	0	2	96	48	7
NMSTR	75	96	4
NMSI_	75	96	4	96	48	1
NMSTR	75	192	6
NMSI_	75	192	6	96	48	3
NMSTR	75	288	0
NMSI_	75	288	0	96	48	5
NMSTR	76	0	2
NMSI_	76	0	2	96	48	7
NMSTR	76	96	4
NMSI_	76	96	4	96	48	1
NMSTR	76	192	6
NMSI_	76	192	6	96	48	3
NMSTR	76	288	0
NMSI_	76	288	0	96	48	5
NMSTR	77	0	2
NMSI_	77	0	2	96	48	7
NMSTR	77	96	4
NMSI_	77	96	4	96	48	1
NMTAP	77	192	6
NMTAP	77	288	5
BRTAP	78	0	1
BRTAP	78	0	3
NMTAP	78	48	0
NMTAP	78	96	0
NMTAP	78	120	2
NMTAP	78	168	2
NMTAP	78	192	0
NMTAP	78	240	0
NMTAP	78	264	7
NMTAP	78	312	7
NMTAP	78	336	5
NMTAP	79	0	4
NMTAP	79	0	6
NMTAP	79	48	7
NMTAP	79	96	7
NMTAP	79	120	5
NMTAP	79	168	5
NMTAP	79	192	7
NMTAP	79	240	7
NMTAP	79	264	0
NMTAP	79	312	0
NMTAP	79	336	2
NMTAP	80	0	1
NMTAP	80	0	3
NMTAP	80	48	0
NMTAP	80	96	0
NMTAP	80	120	2
NMTAP	80	168	2
NMTAP	80	192	0
NMTAP	80	240	0
NMTAP	80	264	7
NMTAP	80	312	7
NMTAP	80	336	5
NMTAP	81	0	4
NMTAP	81	0	6
NMTAP	81	48	7
NMTAP	81	96	7
NMTAP	81	120	5
NMTAP	81	168	5
NMTAP	81	192	7
NMTAP	81	240	7
NMTAP	81	264	0
NMTAP	81	312	0
NMTAP	81	336	2
NMTAP	82	0	1
NMTAP	82	0	3
NMTAP	82	48	4
NMTAP	82	96	4
NMTAP	82	120	6
NMTAP	82	168	6
NMTAP	82	192	4
NMTAP	82	240	4
NMTAP	82	264	3
NMTAP	82	312	3
NMTAP	82	336	1
NMTAP	83	0	0
NMTAP	83	0	4
NMTAP	83	48	3
NMTAP	83	96	3
NMTAP	83	120	1
NMTAP	83	168	1
NMTAP	83	192	3
NMTAP	83	240	3
NMTAP	83	264	4
NMTAP	83	312	4
NMTAP	83	336	6
NMTAP	84	0	3
NMTAP	84	0	7
NMTAP	84	48	3
NMTAP	84	48	7
NMTAP	84	96	4
NMTAP	84	96	6
NMTAP	84	144	4
NMTAP	84	144	6
NMTAP	84	192	1
NMTAP	84	192	3
NMTAP	84	240	1
NMTAP	84	240	3
NMSTR	84	288	0
NMSI_	84	288	0	96	48	4
NMTAP	84	336	0
NMSTR	85	0	7
NMSI_	85	0	7	96	48	5
NMTAP	85	48	7
NMSTR	85	96	1
NMSI_	85	96	1	96	48	3
NMTAP	85	144	1
EXTAP	85	192	7
BRSTR	85	288	0
NMSI_	85	288	0	96	48	3
BRSTR	85	288	7
NMSI_	85	288	7	96	48	4

T_REC_TAP	450
T_REC_BRK	37
T_REC_XTP	2
T_REC_BXX	1
T_REC_HLD	7
T_REC_XHO	0
T_REC_BHO	4
T_REC_BXH	0
T_REC_STR	62
T_REC_BST	4
T_REC_XST	0
T_REC_XBS	1
T_REC_TTP	22
T_REC_THO	1
T_REC_SLD	66
T_REC_BSL	2
T_REC_ALL	659
T_NUM_TAP	536
T_NUM_BRK	49
T_NUM_HLD	8
T_NUM_SLD	66
T_NUM_ALL	659
T_JUDGE_TAP	579
T_JUDGE_HLD	84
T_JUDGE_SLD	68
T_JUDGE_ALL	731
TTM_EACHPAIRS	91
TTM_SCR_TAP	268000
TTM_SCR_BRK	127400
TTM_SCR_HLD	8000
TTM_SCR_SLD	99000
TTM_SCR_ALL	502400
TTM_SCR_S	482600
TTM_SCR_SS	497500
TTM_RAT_ACV	10098

