VERSION	0.00.00	1.04.00
FES_MODE	0
BPM_DEF	190.000	190.000	190.000	190.000
MET_DEF	4	4
RESOLUTION	384
CLK_DEF	384
COMPATIBLE_CODE	MA2

BPM	0	0	190.000
MET	0	0	4	4

NMTAP	1	336	4
NMTAP	1	352	3
NMTAP	1	368	2
EXSTR	2	0	1
NMSCL	2	0	1	96	576	4
NMTAP	3	328	2
NMTAP	3	352	3
NMHLD	4	0	2	384
NMHLD	5	0	6	336
EXHLD	6	0	3	1152
EXHLD	6	0	5	96
NMHLD	6	144	5	96
NMHLD	6	288	5	96
NMHLD	7	48	5	96
NMTAP	7	192	5
NMTAP	7	288	6
NMHLD	8	0	5	96
NMHLD	8	144	5	96
NMHLD	8	288	5	96
NMHLD	9	48	5	96
NMHLD	9	96	3	96
NMHLD	9	192	4	96
NMTAP	9	288	2
EXHLD	10	0	3	96
EXHLD	10	0	5	96
EXHLD	10	192	3	96
EXHLD	10	192	5	96
EXHLD	11	0	3	96
EXHLD	11	0	5	96
EXHLD	11	144	3	96
EXHLD	11	144	5	96
EXTAP	11	288	3
NMTAP	11	312	4
NMTAP	11	336	3
NMTAP	11	360	4
EXHLD	12	0	3	96
EXHLD	12	192	2	96
EXHLD	12	192	4	96
EXTAP	13	0	2
EXTAP	13	0	4
EXTAP	13	96	2
EXTAP	13	96	4
NMTTP	13	192	1	A	0	M1
NMTTP	13	198	2	D	0	M1
NMTTP	13	204	2	A	0	M1
NMTTP	13	210	3	D	0	M1
NMTTP	13	216	3	A	0	M1
NMTTP	13	222	4	D	0	M1
NMTTP	13	228	4	A	0	M1
NMTTP	13	234	5	D	0	M1
NMTTP	13	240	5	A	0	M1
NMTTP	13	246	6	D	0	M1
NMTTP	13	252	6	A	0	M1
NMTTP	13	258	7	D	0	M1
NMTTP	13	264	7	A	0	M1
NMTTP	13	270	0	D	0	M1
NMTTP	13	276	0	A	0	M1
NMTTP	13	282	1	D	0	M1
NMTTP	13	288	0	C	1	M1
EXSTR	14	0	1
NMSI_	14	0	1	96	48	4
NMTAP	14	96	1
NMTAP	14	96	6
NMHLD	14	192	5	96
NMTAP	14	240	7
NMTAP	14	256	0
NMTAP	14	272	1
NMTAP	14	288	2
NMHLD	14	336	6	96
NMTAP	15	0	0
NMTAP	15	16	1
NMTAP	15	32	2
NMTAP	15	48	3
NMHLD	15	96	7	96
NMTAP	15	144	1
NMTAP	15	160	2
NMTAP	15	176	3
NMTAP	15	192	4
NMTAP	15	240	0
NMTAP	15	288	0
NMTAP	15	288	1
NMSTR	16	0	1
NMSI_	16	0	1	96	48	5
NMTAP	16	96	1
NMTAP	16	96	7
NMTAP	16	192	4
NMTAP	16	192	6
NMTAP	16	240	3
NMTAP	16	240	5
NMTAP	16	336	5
NMTAP	17	0	5
NMTAP	17	48	4
NMTAP	17	96	3
NMTAP	17	144	2
NMTAP	17	192	1
NMTAP	17	216	0
NMTAP	17	240	1
NMTAP	17	264	0
NMTAP	17	288	1
EXSTR	18	0	6
NMSI_	18	0	6	96	48	3
NMTAP	18	96	1
NMTAP	18	96	6
NMHLD	18	192	2	96
NMTAP	18	240	0
NMTAP	18	256	7
NMTAP	18	272	6
NMTAP	18	288	5
NMHLD	18	336	1	96
NMTAP	19	0	7
NMTAP	19	16	6
NMTAP	19	32	5
NMTAP	19	48	4
NMHLD	19	96	0	96
NMTAP	19	144	6
NMTAP	19	160	5
NMTAP	19	176	4
NMTAP	19	192	3
NMTAP	19	240	7
NMTAP	19	288	6
NMTAP	19	288	7
EXSTR	20	0	6
NMSI_	20	0	6	96	48	2
NMTAP	20	96	0
NMTAP	20	96	6
NMTAP	20	192	1
NMTAP	20	192	3
NMTAP	20	240	2
NMTAP	20	240	4
NMTAP	20	336	2
NMTAP	21	0	2
NMTAP	21	48	3
NMTAP	21	96	4
NMTAP	21	144	5
NMHLD	21	192	6	96
NMTAP	21	240	7
NMTAP	21	252	0
NMTAP	21	264	1
NMTAP	21	276	2
NMTAP	21	288	3
EXSTR	22	0	0
NMSI_	22	0	0	96	48	4
NMTAP	22	96	0
NMTAP	22	96	6
NMHLD	22	192	5	96
NMTAP	22	240	7
NMTAP	22	256	0
NMTAP	22	272	1
NMTAP	22	288	2
NMHLD	22	336	6	96
NMTAP	23	0	0
NMTAP	23	16	1
NMTAP	23	32	2
NMTAP	23	48	3
NMHLD	23	96	7	96
NMTAP	23	144	1
NMTAP	23	160	2
NMTAP	23	176	3
NMTAP	23	192	4
NMTAP	23	240	0
NMTAP	23	288	0
NMTAP	23	288	1
NMSTR	24	0	1
NMSI_	24	0	1	96	48	5
NMTAP	24	96	1
NMTAP	24	96	7
NMHLD	24	192	7	96
NMTAP	24	240	0
NMTAP	24	256	1
NMTAP	24	272	2
NMTAP	24	288	3
NMTAP	24	336	5
NMTAP	25	0	5
NMTAP	25	48	4
NMTAP	25	96	3
NMTAP	25	144	2
NMTAP	25	192	1
NMTAP	25	216	0
NMTAP	25	240	1
NMTAP	25	264	0
NMTAP	25	288	1
EXSTR	26	0	7
NMSI_	26	0	7	96	48	3
NMTAP	26	96	0
NMTAP	26	96	7
NMHLD	26	192	2	96
NMTAP	26	240	0
NMTAP	26	256	7
NMTAP	26	272	6
NMTAP	26	288	5
NMHLD	26	336	1	96
NMTAP	27	0	7
NMTAP	27	16	6
NMTAP	27	32	5
NMTAP	27	48	4
NMHLD	27	96	0	96
NMTAP	27	144	6
NMTAP	27	160	5
NMTAP	27	176	4
NMTAP	27	192	3
NMTAP	27	240	7
NMTAP	27	288	6
NMTAP	27	288	7
EXSTR	28	0	6
NMSI_	28	0	6	96	48	2
NMTAP	28	96	0
NMTAP	28	96	6
NMHLD	28	192	0	96
NMTAP	28	240	7
NMTAP	28	256	6
NMTAP	28	272	5
NMTAP	28	288	4
NMTAP	28	336	2
NMTAP	29	0	2
NMTAP	29	48	3
NMTAP	29	96	4
NMTAP	29	144	5
NMHLD	29	192	6	96
NMTAP	29	240	7
NMTAP	29	252	0
NMTAP	29	264	1
NMTAP	29	276	2
NMTAP	29	288	3
BXTAP	30	0	4
BXTAP	30	0	5
NMTAP	30	48	3
NMTAP	30	96	6
NMTAP	30	144	2
NMTAP	30	192	0
NMTAP	30	192	6
NMTAP	30	240	5
NMTAP	30	288	0
NMTAP	30	336	1
NMTAP	31	0	2
NMTAP	31	0	3
NMTAP	31	48	4
NMTAP	31	96	2
NMTAP	31	144	1
NMTAP	31	144	3
NMSTR	31	240	0
NMSI_	31	240	0	96	48	5
NMSTR	31	240	2
NMSI_	31	240	2	96	48	5
NMTAP	31	336	0
NMTAP	31	336	2
NMTAP	32	48	3
NMTAP	32	96	5
NMTAP	32	144	3
NMTAP	32	192	2
NMTAP	32	192	4
NMTAP	32	240	1
NMTAP	32	288	6
NMTAP	32	336	7
EXTAP	33	0	0
EXTAP	33	0	6
EXTAP	33	72	1
NMSTR	33	96	0
NMSI_	33	96	0	96	48	5
EXTAP	33	144	2
EXTAP	33	192	0
EXTAP	33	192	3
NMTAP	33	288	2
NMTAP	33	336	3
NMTAP	34	0	1
NMTAP	34	0	4
NMTAP	34	48	2
NMTAP	34	96	3
NMTAP	34	144	2
NMTAP	34	192	0
NMTAP	34	192	1
NMTAP	34	240	7
NMTAP	34	288	2
NMTAP	34	336	6
NMTAP	35	0	4
NMTAP	35	0	5
NMTAP	35	48	3
NMTAP	35	96	5
NMTAP	35	144	4
NMTAP	35	144	6
NMSTR	35	240	5
NMSI_	35	240	5	96	48	2
NMSTR	35	240	7
NMSI_	35	240	7	96	48	2
NMTAP	35	336	5
NMTAP	35	336	7
NMTAP	36	48	1
NMTAP	36	96	2
NMTAP	36	144	3
NMTAP	36	192	1
NMTAP	36	192	4
NMTAP	36	240	2
NMTAP	36	288	4
NMTAP	36	312	3
NMTAP	36	336	4
NMTAP	36	360	3
EXHLD	37	0	2	48
EXHLD	37	0	5	48
EXHLD	37	72	1	48
EXHLD	37	72	6	48
EXTAP	37	144	0
EXTAP	37	144	7
EXTAP	37	192	1
EXTAP	37	192	6
NMTAP	37	240	5
NMTAP	37	288	4
NMTAP	37	336	3
NMSTR	38	0	2
NMSCL	38	0	2	96	48	7
NMTTP	38	96	0	C	0	M1
NMSTR	38	192	5
NMSCR	38	192	5	96	48	0
NMTTP	38	288	0	C	0	M1
NMSTR	39	0	1
NMSCR	39	0	1	96	48	4
NMTTP	39	96	0	C	0	M1
NMSTR	39	192	6
NMSCL	39	192	6	96	48	3
NMTTP	39	288	0	C	0	M1
NMSTR	40	0	0
NMSCR	40	0	0	96	48	3
NMTTP	40	96	0	C	0	M1
NMSTR	40	192	4
NMSCR	40	192	4	96	48	0
NMTTP	40	288	0	C	0	M1
NMSTR	41	0	2
NMSCL	41	0	2	96	144	3
NMTAP	41	288	5
NMTAP	41	336	4
NMTAP	42	0	2
NMTAP	42	0	3
NMTAP	42	48	1
NMTAP	42	96	4
NMTAP	42	144	5
NMTAP	42	192	2
NMTAP	42	192	4
NMTAP	42	240	1
NMTAP	42	288	4
NMTAP	42	336	5
NMTAP	43	0	6
NMTAP	43	0	7
NMTAP	43	48	5
NMTAP	43	96	4
NMTAP	43	144	2
NMTAP	43	144	3
NMSTR	43	240	0
NMSI_	43	240	0	96	48	5
NMSTR	43	240	1
NMSI_	43	240	1	96	48	4
NMTAP	43	336	0
NMTAP	43	336	1
NMTAP	44	48	6
NMTAP	44	96	3
NMTAP	44	144	5
NMTAP	44	192	2
NMTAP	44	192	4
NMTAP	44	240	5
NMTAP	44	288	3
NMTAP	44	312	4
NMTAP	44	336	3
NMTAP	44	360	4
EXHLD	45	0	3	48
EXHLD	45	72	2	48
EXHLD	45	72	4	48
EXTAP	45	144	1
EXTAP	45	144	5
EXTAP	45	192	0
EXTAP	45	192	6
BRTAP	45	288	1
BRTAP	45	288	5
EXTAP	46	0	6
EXSTR	46	0	7
NMSI_	46	0	7	96	48	3
NMTAP	46	96	5
NMTAP	46	96	7
NMTAP	46	192	2
NMTAP	46	240	0
NMTAP	46	240	2
NMTAP	46	256	7
NMTAP	46	272	6
NMTAP	46	288	5
NMTAP	46	336	1
NMTAP	47	0	1
NMTAP	47	0	7
NMTAP	47	16	6
NMTAP	47	32	5
NMTAP	47	48	4
NMTAP	47	96	0
NMTAP	47	144	0
NMTAP	47	144	6
NMTAP	47	160	5
NMTAP	47	176	4
NMTAP	47	192	3
NMTAP	47	240	7
NMTAP	47	288	6
NMTAP	47	288	7
NMSTR	48	0	0
NMSI_	48	0	0	96	48	4
NMTAP	48	0	1
NMTAP	48	96	0
NMTAP	48	96	2
NMTAP	48	192	5
NMTAP	48	240	0
NMTAP	48	240	5
NMTAP	48	256	1
NMTAP	48	272	2
NMTAP	48	288	3
NMTAP	48	336	6
NMTAP	49	0	3
NMTAP	49	48	3
NMTAP	49	96	4
NMTAP	49	144	5
NMTAP	49	192	6
NMTAP	49	208	7
NMTAP	49	224	6
NMTAP	49	240	7
NMTAP	49	256	6
NMTAP	49	272	7
NMTAP	49	288	6
NMSTR	50	0	0
NMSI_	50	0	0	96	48	4
NMTAP	50	0	1
NMTAP	50	96	0
NMTAP	50	96	2
NMTAP	50	192	5
NMTAP	50	240	5
NMTAP	50	240	7
NMTAP	50	256	0
NMTAP	50	272	1
NMTAP	50	288	2
NMTAP	50	336	6
NMTAP	51	0	0
NMTAP	51	0	6
NMTAP	51	16	1
NMTAP	51	32	2
NMTAP	51	48	3
NMTAP	51	96	7
NMTAP	51	144	1
NMTAP	51	144	7
NMTAP	51	160	2
NMTAP	51	176	3
NMTAP	51	192	4
NMTAP	51	240	0
NMTAP	51	288	0
NMTAP	51	288	1
NMTAP	52	0	6
NMSTR	52	0	7
NMSI_	52	0	7	96	48	3
NMTAP	52	96	5
NMTAP	52	96	7
NMTAP	52	192	2
NMTAP	52	240	2
NMTAP	52	240	7
NMTAP	52	256	6
NMTAP	52	272	5
NMTAP	52	288	4
NMTAP	52	336	1
NMTAP	53	0	4
NMTAP	53	48	4
NMTAP	53	96	3
NMTAP	53	144	2
NMHLD	53	192	1	96
NMTAP	53	240	3
NMTAP	53	252	4
NMTAP	53	264	5
NMTAP	53	276	6
NMTAP	53	288	7
BXTAP	54	0	0
BXTAP	54	0	1
NMTAP	54	48	7
NMTAP	54	96	2
NMTAP	54	144	3
NMTAP	54	192	4
NMTAP	54	192	5
NMTAP	54	240	3
NMTAP	54	288	5
NMTAP	54	336	4
NMTAP	55	0	2
NMTAP	55	0	3
NMTAP	55	48	1
NMTAP	55	96	3
NMTAP	55	144	4
NMTAP	55	144	5
NMSTR	55	240	6
NMSI_	55	240	6	96	48	2
NMSTR	55	240	7
NMSI_	55	240	7	96	48	3
NMTAP	55	336	6
NMTAP	55	336	7
NMTAP	56	48	4
NMTAP	56	96	3
NMTAP	56	144	4
NMTAP	56	192	2
NMTAP	56	192	5
NMTAP	56	240	3
NMTAP	56	288	5
NMTAP	56	336	4
EXTAP	57	0	2
EXTAP	57	0	3
EXTAP	57	72	1
NMSTR	57	96	0
NMSI_	57	96	0	96	48	4
EXTAP	57	144	2
EXTAP	57	192	0
EXTAP	57	192	3
NMTAP	57	288	6
NMTAP	57	336	5
NMTAP	58	0	2
NMTAP	58	0	4
NMTAP	58	48	1
NMTAP	58	96	3
NMTAP	58	144	2
NMTAP	58	192	0
NMTAP	58	192	1
NMTAP	58	240	7
NMTAP	58	288	0
NMTAP	58	336	1
NMTAP	59	0	3
NMTAP	59	0	4
NMTAP	59	48	2
NMTAP	59	96	4
NMTAP	59	144	2
NMTAP	59	144	3
NMSTR	59	240	0
NMSI_	59	240	0	96	48	4
NMSTR	59	240	1
NMSI_	59	240	1	96	48	5
NMTAP	59	336	0
NMTAP	59	336	1
NMTAP	60	48	3
NMTAP	60	96	5
NMTAP	60	144	3
NMTAP	60	192	2
NMTAP	60	192	4
NMTAP	60	240	5
NMTAP	60	288	3
NMTAP	60	312	4
NMTAP	60	336	3
NMTAP	60	360	4
EXHLD	61	0	3	48
EXHLD	61	72	2	48
EXHLD	61	72	4	48
EXTAP	61	144	1
EXTAP	61	144	5
EXHLD	61	192	0	96
EXTAP	61	192	6
NMTTP	61	240	7	D	0	M1
NMTTP	61	246	6	A	0	M1
NMTTP	61	252	6	D	0	M1
NMTTP	61	258	5	A	0	M1
NMTTP	61	264	5	D	0	M1
NMTTP	61	270	4	A	0	M1
NMTTP	61	276	4	D	0	M1
NMTTP	61	282	3	A	0	M1
NMTTP	61	288	3	D	0	M1
EXHLD	62	0	2	96
EXSTR	62	0	4
NMSV_	62	0	4	96	48	6
NMHLD	62	192	0	96
NMSTR	62	192	7
NMSV_	62	192	7	96	48	1
NMHLD	63	0	2	96
NMSTR	63	0	4
NMSV_	63	0	4	96	48	7
NMSTR	63	192	0
NMSV_	63	192	0	96	48	2
NMHLD	63	192	6	96
NMHLD	64	0	0	96
NMSTR	64	0	4
NMSLR	64	0	4	96	48	0
NMSTR	64	192	1
NMSLR	64	192	1	96	48	5
NMHLD	64	192	7	96
NMHLD	65	0	4	96
NMSTR	65	0	6
NMSCR	65	0	6	96	144	4
NMTAP	65	288	5
NMTAP	65	336	4
NMTAP	66	0	2
NMTAP	66	0	3
NMTAP	66	48	4
NMTAP	66	96	2
NMTAP	66	144	4
NMTAP	66	192	1
NMTAP	66	192	3
NMTAP	66	240	5
NMTAP	66	288	2
NMTAP	66	336	3
NMTAP	67	0	4
NMTAP	67	0	5
NMTAP	67	48	6
NMTAP	67	96	5
NMTAP	67	144	3
NMTAP	67	144	4
NMSTR	67	240	1
NMSI_	67	240	1	96	48	3
NMSTR	67	240	6
NMSI_	67	240	6	96	48	4
NMTAP	67	336	1
NMTAP	67	336	6
NMTAP	68	48	5
NMTAP	68	96	2
NMTAP	68	144	4
NMTAP	68	192	3
NMTAP	68	192	5
NMTAP	68	240	2
NMTAP	68	288	4
NMTAP	68	312	3
NMTAP	68	336	4
NMTAP	68	360	3
EXHLD	69	0	4	48
EXHLD	69	0	6	48
EXHLD	69	72	1	48
EXHLD	69	72	3	48
EXTAP	69	144	2
EXTAP	69	144	5
EXTAP	69	192	3
EXTAP	69	192	4
NMTAP	69	240	2
NMTAP	69	264	5
NMTAP	69	288	1
NMTAP	69	312	6
NMTAP	69	336	0
NMTAP	69	360	7
NMTAP	70	192	0
NMTAP	70	288	7
NMTTP	70	360	1	E	0	M1
NMTTP	70	372	1	B	0	M1
NMTTP	71	0	2	B	0	M1
NMHLD	71	0	6	2688
NMTTP	71	360	2	E	0	M1
NMTTP	71	372	2	B	0	M1
NMTTP	72	0	3	B	0	M1
NMTTP	72	360	5	B	0	M1
NMTTP	72	372	4	B	0	M1
NMTTP	73	0	4	E	0	M1
NMTTP	73	360	5	B	0	M1
NMTTP	73	372	6	B	0	M1
NMTTP	74	0	7	E	0	M1
NMTTP	75	0	1	B	0	M1
NMTTP	75	0	2	B	0	M1
NMTTP	75	360	3	B	0	M1
NMTTP	75	372	2	B	0	M1
NMTTP	76	0	2	E	0	M1
NMTTP	77	0	4	E	0	M1
NMTAP	78	0	5
NMTAP	78	48	4
NMTAP	78	96	3
NMTAP	78	144	2
NMTAP	78	192	1
NMTAP	78	240	2
NMTAP	78	288	3
NMTAP	78	336	4
NMHLD	79	0	3	192
NMTAP	79	96	4
NMHLD	79	192	5	192
NMTAP	79	288	4
NMTAP	79	360	3
NMTAP	79	372	2
NMHLD	80	0	1	192
NMTAP	80	96	6
NMHLD	80	192	7	192
NMTAP	80	288	0
NMTAP	80	360	1
NMTAP	80	372	2
NMHLD	81	0	3	192
NMTAP	81	96	6
NMHLD	81	192	5	192
NMTAP	81	288	1
NMTAP	81	360	2
NMTAP	81	372	3
NMHLD	82	0	4	288
NMTAP	82	96	5
NMTAP	82	192	6
NMTAP	82	288	7
EXHLD	82	336	0	240
EXTAP	82	336	2
NMTAP	83	96	3
NMHLD	83	192	2	192
NMTAP	83	288	1
NMTAP	84	0	3
NMTAP	84	96	2
NMTAP	84	96	4
NMTAP	84	192	1
NMTAP	84	192	5
NMTAP	84	288	0
NMTAP	84	288	6
BRTAP	85	0	7
BRTAP	85	48	1
BRTAP	85	48	5
BRTAP	85	96	2
BRTAP	85	96	4
NMTAP	85	192	1
NMTAP	85	192	6
NMSTR	85	240	0
NMSI_	85	240	0	96	48	4
NMTAP	85	240	7
NMTAP	85	336	0
EXTAP	86	0	7
NMTAP	86	24	6
NMTAP	86	48	5
EXTAP	86	72	1
NMTAP	86	96	2
NMTAP	86	120	3
EXTAP	86	144	7
NMTAP	86	168	6
NMTAP	86	192	5
EXTAP	86	216	1
NMTAP	86	240	2
NMTAP	86	264	3
BXTAP	86	288	4
BXTAP	86	288	6
EXTAP	87	0	5
NMTAP	87	24	3
NMTAP	87	48	5
NMTAP	87	72	3
NMTAP	87	96	4
NMTAP	87	120	1
NMTAP	87	144	4
NMTAP	87	168	1
EXTAP	87	192	7
NMTAP	87	216	6
NMTAP	87	240	5
NMTAP	87	264	4
NMTAP	87	288	7
NMTAP	87	312	0
NMTAP	87	336	1
NMTAP	87	360	2
EXTAP	88	0	6
NMTAP	88	24	4
NMTAP	88	48	6
NMTAP	88	72	4
NMTAP	88	96	5
NMTAP	88	120	2
NMTAP	88	144	5
NMTAP	88	168	2
EXTAP	88	192	6
NMTAP	88	216	5
NMTAP	88	240	4
NMTAP	88	264	3
NMTAP	88	288	0
NMTAP	88	312	1
NMTAP	88	336	2
NMTAP	88	360	3
EXTAP	89	0	5
NMTAP	89	24	4
NMTAP	89	48	6
NMTAP	89	72	3
NMTAP	89	96	7
NMTAP	89	120	2
NMTAP	89	144	0
NMTAP	89	168	1
EXTAP	89	192	7
NMTAP	89	216	6
NMTAP	89	240	5
NMTAP	89	264	4
NMTAP	89	288	7
NMTAP	89	312	6
NMTAP	89	336	5
NMTAP	89	360	4
EXTAP	90	0	0
NMTAP	90	16	7
NMTAP	90	32	6
NMTAP	90	48	5
NMTAP	90	64	4
NMTAP	90	80	3
NMTAP	90	96	1
NMTAP	90	112	0
NMTAP	90	128	7
NMTAP	90	144	6
NMTAP	90	160	5
NMTAP	90	176	4
NMTAP	90	192	2
NMTAP	90	208	1
NMTAP	90	224	0
NMTAP	90	240	7
NMTAP	90	256	6
NMTAP	90	272	5
NMTAP	90	288	4
EXTAP	90	336	2
EXTAP	90	336	3
NMTAP	91	24	5
NMTAP	91	48	4
NMTAP	91	72	5
NMTAP	91	96	3
NMTAP	91	120	6
NMTAP	91	144	3
NMTAP	91	168	6
EXTAP	91	192	1
NMTAP	91	216	2
NMTAP	91	240	3
NMTAP	91	264	4
NMTAP	91	288	7
NMTAP	91	312	6
NMTAP	91	336	5
NMTAP	91	360	4
EXTAP	92	0	0
NMTAP	92	24	1
NMTAP	92	48	2
NMTAP	92	72	3
EXTAP	92	96	0
EXTAP	92	96	4
NMTAP	92	120	7
NMTAP	92	144	6
NMTAP	92	168	5
EXTAP	92	192	0
EXTAP	92	192	4
NMTAP	92	216	1
NMTAP	92	240	2
NMTAP	92	264	3
EXTAP	92	288	0
EXTAP	92	288	4
NMTAP	92	312	7
NMTAP	92	336	6
NMTAP	92	360	5
EXTAP	93	0	0
NMTAP	93	16	1
NMTAP	93	32	2
EXTAP	93	48	6
NMTAP	93	64	5
NMTAP	93	80	4
EXTAP	93	96	0
NMTAP	93	112	1
NMTAP	93	128	2
NMTAP	93	144	6
NMTAP	93	160	5
NMTAP	93	176	4
NMTAP	93	192	1
NMTAP	93	208	2
NMTAP	93	224	3
EXTAP	93	240	7
NMTAP	93	256	6
NMTAP	93	272	5
NMTAP	93	288	1
NMTAP	93	304	2
NMTAP	93	320	3
EXTAP	93	336	7
NMTAP	93	352	6
NMTAP	93	368	5
EXTAP	94	0	1
NMTAP	94	24	0
NMTAP	94	48	1
NMTAP	94	72	0
NMTAP	94	96	1
NMTAP	94	120	0
NMTAP	94	144	1
NMTAP	94	168	0
NMTAP	94	192	1
NMTAP	94	216	0
NMTAP	94	240	7
NMTAP	94	264	6
BRTAP	94	288	3
BRTAP	94	288	5
EXTAP	95	0	6
NMTAP	95	24	3
NMTAP	95	48	6
NMTAP	95	72	3
NMTAP	95	96	5
NMTAP	95	120	2
NMTAP	95	144	5
NMTAP	95	168	2
EXTAP	95	192	7
NMTAP	95	216	6
NMTAP	95	240	5
NMTAP	95	264	4
NMTAP	95	288	7
NMTAP	95	312	0
NMTAP	95	336	1
NMTAP	95	360	2
EXTAP	96	0	5
NMTAP	96	24	3
NMTAP	96	48	5
NMTAP	96	72	3
NMTAP	96	96	4
NMTAP	96	120	1
NMTAP	96	144	4
NMTAP	96	168	1
EXTAP	96	192	6
NMTAP	96	216	5
NMTAP	96	240	4
NMTAP	96	264	3
NMTAP	96	288	0
NMTAP	96	312	1
NMTAP	96	336	2
NMTAP	96	360	3
EXTAP	97	0	5
NMTAP	97	24	4
NMTAP	97	48	6
NMTAP	97	72	3
NMTAP	97	96	7
NMTAP	97	120	2
NMTAP	97	144	0
NMTAP	97	168	1
EXTAP	97	192	7
NMTAP	97	216	6
NMTAP	97	240	5
NMTAP	97	264	4
NMTAP	97	288	7
NMTAP	97	312	6
NMTAP	97	336	5
NMTAP	97	360	4
EXTAP	98	0	6
NMTAP	98	16	5
NMTAP	98	32	4
NMTAP	98	48	7
NMTAP	98	64	6
NMTAP	98	80	5
NMTAP	98	96	0
NMTAP	98	112	7
NMTAP	98	128	6
NMTAP	98	144	1
NMTAP	98	160	0
NMTAP	98	176	7
NMTAP	98	192	2
NMTAP	98	208	1
NMTAP	98	224	0
NMTAP	98	240	7
NMTAP	98	256	6
NMTAP	98	272	5
NMTAP	98	288	4
EXTAP	98	336	2
EXTAP	98	336	3
NMTAP	99	0	0
NMTAP	99	0	6
NMTAP	99	24	1
NMTAP	99	48	2
NMTAP	99	72	3
NMTAP	99	96	0
NMTAP	99	96	4
NMTAP	99	120	1
NMTAP	99	144	2
NMTAP	99	168	3
EXTAP	99	192	0
EXTAP	99	192	4
NMTAP	99	216	1
NMTAP	99	240	2
NMTAP	99	264	3
NMTAP	99	288	0
NMTAP	99	288	4
NMTAP	99	312	7
NMTAP	99	336	6
NMTAP	99	360	5
EXTAP	100	0	0
NMTAP	100	12	1
NMTAP	100	24	2
NMTAP	100	36	3
NMTAP	100	48	0
NMTAP	100	60	7
NMTAP	100	72	6
NMTAP	100	84	5
EXTAP	100	96	0
NMTAP	100	108	1
NMTAP	100	120	2
NMTAP	100	132	3
NMTAP	100	144	7
NMTAP	100	156	6
NMTAP	100	168	5
NMTAP	100	180	4
EXTAP	100	192	7
NMTAP	100	204	0
NMTAP	100	216	1
NMTAP	100	228	2
NMTAP	100	240	7
NMTAP	100	252	6
NMTAP	100	264	5
NMTAP	100	276	4
EXTAP	100	288	7
NMTAP	100	300	0
NMTAP	100	312	1
NMTAP	100	324	2
NMTAP	100	336	7
NMTAP	100	348	6
NMTAP	100	360	5
NMTAP	100	372	4
BRTAP	101	0	3
BRTAP	101	48	0
BRTAP	101	48	6
BRTAP	101	96	2
BRTAP	101	96	4
NMTAP	101	192	0
NMTAP	101	192	7
NMTAP	101	240	2
NMTAP	101	240	5
NMTAP	101	336	3
NMTAP	101	336	4
EXTAP	102	0	5
NMTAP	102	24	4
NMTAP	102	48	3
EXTAP	102	72	2
NMTAP	102	96	3
NMTAP	102	120	4
EXTAP	102	144	5
NMTAP	102	168	4
NMTAP	102	192	3
EXTAP	102	216	2
NMTAP	102	240	3
NMTAP	102	264	4
EXTAP	102	288	5
NMTAP	102	312	4
NMTAP	102	336	3
NMTAP	102	360	2
EXSTR	103	0	1
NMSI_	103	0	1	96	48	5
EXSTR	103	0	7
NMSI_	103	0	7	96	48	3
NMTAP	103	96	1
NMTAP	103	96	7
NMTAP	103	192	2
NMTAP	103	192	6
NMTAP	103	240	2
NMTAP	103	240	6
NMTAP	103	256	5
NMTAP	103	272	4
NMTAP	103	288	3
NMTAP	103	336	1
NMTAP	103	336	7
NMTAP	104	0	1
NMTAP	104	0	7
NMTAP	104	16	6
NMTAP	104	32	5
NMTAP	104	48	4
NMTAP	104	96	0
NMTAP	104	96	1
NMTAP	104	144	0
NMTAP	104	144	1
NMTAP	104	160	7
NMTAP	104	176	6
NMTAP	104	192	5
NMTAP	104	240	2
NMTAP	104	240	3
NMTAP	104	288	2
NMTAP	104	288	3
EXSTR	105	0	0
NMSI_	105	0	0	96	48	4
EXSTR	105	0	2
NMSI_	105	0	2	96	48	6
NMTAP	105	96	0
NMTAP	105	96	2
NMTAP	105	192	3
NMTAP	105	192	5
NMTAP	105	240	3
NMTAP	105	240	5
NMTAP	105	256	6
NMTAP	105	272	7
NMTAP	105	288	0
NMTAP	105	336	2
NMTAP	106	0	3
NMTAP	106	48	2
NMTAP	106	48	4
NMTAP	106	96	1
NMTAP	106	96	5
NMTAP	106	144	0
NMTAP	106	144	6
NMHLD	106	192	7	96
NMTAP	106	240	0
NMTAP	106	252	1
NMTAP	106	264	2
NMTAP	106	276	3
NMTAP	106	288	4
EXSTR	107	0	0
NMSI_	107	0	0	96	48	4
EXSTR	107	0	6
NMSI_	107	0	6	96	48	2
NMTAP	107	96	0
NMTAP	107	96	6
NMTAP	107	192	1
NMTAP	107	192	5
NMTAP	107	240	1
NMTAP	107	240	5
NMTAP	107	256	2
NMTAP	107	272	3
NMTAP	107	288	4
NMTAP	107	336	0
NMTAP	107	336	6
NMTAP	108	0	0
NMTAP	108	0	6
NMTAP	108	16	1
NMTAP	108	32	2
NMTAP	108	48	3
NMTAP	108	96	6
NMTAP	108	96	7
NMTAP	108	144	6
NMTAP	108	144	7
NMTAP	108	160	0
NMTAP	108	176	1
NMTAP	108	192	2
NMTAP	108	240	4
NMTAP	108	240	5
NMTAP	108	288	4
NMTAP	108	288	5
EXSTR	109	0	5
NMSI_	109	0	5	96	48	1
EXSTR	109	0	7
NMSI_	109	0	7	96	48	3
NMTAP	109	96	5
NMTAP	109	96	7
NMTAP	109	192	2
NMTAP	109	192	4
NMTAP	109	240	2
NMTAP	109	240	4
NMTAP	109	256	1
NMTAP	109	272	0
NMTAP	109	288	7
NMTAP	109	336	5
NMTAP	110	0	2
NMTAP	110	0	3
NMTAP	110	48	0
NMTAP	110	48	5
NMTAP	110	96	1
NMTAP	110	96	4
NMTAP	110	144	6
NMTAP	110	144	7
EXTAP	110	192	0
EXTAP	110	192	5
NMTAP	110	288	7
NMTAP	110	304	6
NMTAP	110	320	7
NMTAP	110	336	6
NMTAP	110	352	7
NMTAP	110	368	6
NMTAP	111	0	7
NMTAP	111	16	6
NMTAP	111	32	7
NMTAP	111	48	6
NMTAP	111	64	7
NMTAP	111	80	6
NMTAP	111	96	7
NMTAP	111	112	6
NMTAP	111	128	7
NMTAP	111	144	6
NMTAP	111	160	7
NMTAP	111	176	6
NMTAP	111	192	7
NMTAP	111	208	6
NMTAP	111	224	7
NMTAP	111	240	6
NMTAP	111	256	7
NMTAP	111	272	6
NMTAP	111	288	7
NMTAP	111	304	6
NMTAP	111	320	7
NMTAP	111	336	6
NMTAP	111	352	7
NMTAP	111	368	6
NMHLD	112	0	7	96
NMTAP	112	96	0
NMTAP	112	112	1
NMTAP	112	128	2
NMTAP	112	144	3
NMTAP	112	160	4
NMTAP	112	176	5
NMTAP	112	192	7
NMTAP	112	208	0
NMTAP	112	224	1
NMTAP	112	240	2
NMTAP	112	256	3
NMTAP	112	272	4
NMTAP	112	288	6
NMTAP	112	304	7
NMTAP	112	320	0
NMTAP	112	336	1
NMTAP	112	352	2
NMTAP	112	368	3
BRTAP	113	192	7
EXTAP	114	0	0
EXHLD	114	0	6	192
NMTAP	114	144	1
NMTAP	114	160	2
NMTAP	114	176	3
NMTAP	114	192	4
NMTAP	114	208	5
NMTAP	114	224	6
NMTAP	114	240	7
NMTAP	114	256	0
NMTAP	114	272	1
NMTAP	114	288	2
NMTAP	114	304	3
NMTAP	114	320	4
NMTAP	114	336	5
NMTAP	114	352	6
NMTAP	114	368	7
NMTTP	115	0	0	A	0	M1
NMTTP	115	0	6	A	0	M1
NMTTP	115	12	0	B	0	M1
NMTTP	115	12	6	B	0	M1
NMTTP	115	24	0	C	1	M1
NMTTP	115	36	2	B	0	M1
NMTTP	115	36	4	B	0	M1
NMTTP	115	48	2	A	0	M1
NMTTP	115	48	4	A	0	M1

T_REC_TAP	849
T_REC_BRK	15
T_REC_XTP	84
T_REC_BXX	6
T_REC_HLD	45
T_REC_XHO	31
T_REC_BHO	0
T_REC_BXH	0
T_REC_STR	33
T_REC_BST	0
T_REC_XST	17
T_REC_XBS	0
T_REC_TTP	59
T_REC_THO	0
T_REC_SLD	50
T_REC_BSL	0
T_REC_ALL	1189
T_NUM_TAP	1042
T_NUM_BRK	21
T_NUM_HLD	76
T_NUM_SLD	50
T_NUM_ALL	1189
T_JUDGE_TAP	1063
T_JUDGE_HLD	248
T_JUDGE_SLD	50
T_JUDGE_ALL	1361
TTM_EACHPAIRS	171
TTM_SCR_TAP	521000
TTM_SCR_BRK	54600
TTM_SCR_HLD	76000
TTM_SCR_SLD	75000
TTM_SCR_ALL	726600
TTM_SCR_S	702800
TTM_SCR_SS	724500
TTM_RAT_ACV	10028

