VERSION	0.00.00	1.04.00
FES_MODE	0
BPM_DEF	190.000	190.000	190.000	190.000
MET_DEF	4	4
RESOLUTION	384
CLK_DEF	384
COMPATIBLE_CODE	MA2

BPM	0	0	190.000
MET	0	0	4	4

BXSTR	2	0	3
BRSXR	2	0	3	96	672	0
BXSTR	2	0	4
BRSXL	2	0	4	96	672	7
NMHLD	6	0	1	576
NMTAP	6	96	3
NMTAP	6	144	3
NMTAP	6	240	2
NMTAP	6	288	2
NMTAP	7	0	3
NMTAP	7	48	3
NMTAP	7	144	4
NMTAP	7	192	4
NMTAP	7	288	2
NMTAP	7	288	4
NMHLD	8	0	6	576
NMTAP	8	96	4
NMTAP	8	144	4
NMTAP	8	240	5
NMTAP	8	288	5
NMTAP	9	0	4
NMTAP	9	48	4
NMTAP	9	144	3
NMTAP	9	192	3
NMTAP	9	288	3
NMTAP	9	288	5
NMHLD	10	0	2	576
NMTAP	10	96	1
NMTAP	10	144	1
NMTAP	10	240	0
NMTAP	10	288	0
NMTAP	11	0	7
NMTAP	11	48	7
NMTAP	11	144	6
NMTAP	11	192	6
NMTAP	11	288	2
NMTAP	11	288	5
NMTAP	12	0	5
NMTAP	12	48	4
NMTAP	12	96	3
NMTAP	12	144	2
NMTAP	12	192	5
NMTAP	12	240	4
NMTAP	12	288	3
NMTAP	12	336	2
NMTAP	13	0	6
NMTAP	13	48	5
NMTAP	13	96	4
NMTAP	13	144	3
NMSTR	13	192	2
BRSCR	13	192	2	96	48	5
NMTAP	14	0	6
NMTAP	14	96	0
NMTAP	14	96	7
NMTAP	14	192	2
NMTAP	14	240	2
NMTAP	14	240	3
NMTAP	14	336	1
NMTAP	14	336	4
NMTAP	15	0	1
NMTAP	15	0	4
NMTAP	15	96	5
NMTAP	15	144	4
NMTAP	15	144	5
NMTAP	15	240	3
NMTAP	15	240	6
NMTAP	15	288	3
NMTAP	15	288	6
NMTAP	16	0	7
NMTAP	16	96	4
NMTAP	16	96	6
NMTAP	16	192	2
NMTAP	16	240	2
NMTAP	16	240	3
NMTAP	16	336	5
NMTAP	17	0	4
NMTAP	17	48	7
NMSTR	17	96	7
NMSSR	17	96	7	96	96	3
NMTAP	18	0	1
NMTAP	18	96	0
NMTAP	18	96	7
NMTAP	18	192	5
NMTAP	18	240	4
NMTAP	18	240	5
NMTAP	18	336	3
NMTAP	18	336	6
NMTAP	19	0	3
NMTAP	19	0	6
NMTAP	19	96	2
NMTAP	19	144	2
NMTAP	19	144	3
NMTAP	19	240	1
NMTAP	19	240	4
NMTAP	19	288	1
NMTAP	19	288	4
NMTAP	20	0	0
NMTAP	20	96	1
NMTAP	20	96	3
NMTAP	20	192	5
NMTAP	20	240	4
NMTAP	20	240	5
NMTAP	20	336	2
NMTAP	21	0	3
NMTAP	21	48	0
NMTAP	21	96	0
NMTAP	21	144	7
NMSTR	21	192	0
NMSI_	21	192	0	96	48	4
NMTAP	21	192	7
NMTAP	22	0	5
NMTAP	22	96	6
NMTAP	22	96	7
NMTAP	22	192	1
NMTAP	22	240	1
NMTAP	22	240	3
NMTAP	22	336	5
NMTAP	23	0	3
NMTAP	23	0	5
NMTAP	23	96	2
NMTAP	23	144	2
NMTAP	23	144	3
NMTAP	23	240	4
NMTAP	23	288	3
NMTAP	23	288	4
NMTAP	24	0	6
NMTAP	24	96	4
NMTAP	24	96	5
NMTAP	24	192	2
NMTAP	24	240	2
NMTAP	24	240	3
NMTAP	24	336	1
NMTAP	25	0	2
NMTAP	25	48	3
NMSTR	25	96	4
NMSSL	25	96	4	96	96	0
NMTAP	26	0	1
NMTAP	26	96	0
NMTAP	26	96	7
NMTAP	26	192	6
NMTAP	26	240	4
NMTAP	26	240	6
NMTAP	26	336	2
NMTAP	27	0	2
NMTAP	27	0	4
NMTAP	27	96	5
NMTAP	27	144	4
NMTAP	27	144	5
NMTAP	27	240	3
NMTAP	27	288	3
NMTAP	27	288	4
NMTAP	28	0	1
NMTAP	28	96	2
NMTAP	28	96	3
NMTAP	28	192	5
NMTAP	28	240	4
NMTAP	28	240	5
NMTAP	28	336	6
NMTAP	29	0	4
NMTAP	29	48	7
NMTAP	29	96	7
NMTAP	29	144	0
NMSTR	29	192	0
NMSF_	29	192	0	96	48	4
NMTAP	29	192	7
BRTAP	30	0	2
BRTAP	30	0	6
NMTAP	30	96	6
NMTAP	30	144	5
NMTAP	30	192	4
NMTAP	30	240	3
NMHLD	30	288	2	384
NMTAP	31	0	3
NMTAP	31	96	1
NMTAP	31	144	1
NMTAP	31	240	3
NMTAP	31	288	3
NMTAP	32	0	1
NMTAP	32	0	3
NMTAP	32	96	1
NMTAP	32	144	2
NMTAP	32	192	3
NMTAP	32	240	4
NMHLD	32	288	5	384
NMTAP	33	0	4
NMTAP	33	96	6
NMTAP	33	144	6
NMTAP	33	240	7
NMTAP	33	288	7
NMTAP	34	0	6
NMTAP	34	0	7
NMTAP	34	96	5
NMTAP	34	144	6
NMTAP	34	192	7
NMTAP	34	240	0
NMHLD	34	288	1	384
NMTAP	35	0	0
NMTAP	35	96	2
NMTAP	35	144	2
NMTAP	35	240	7
NMSTR	35	288	7
NMSCL	35	288	7	96	288	0
BXTAP	37	0	0
BXTAP	37	0	7
BXTAP	37	72	1
BXTAP	37	72	6
BXTAP	37	144	2
BXTAP	37	144	5
BXTAP	37	192	2
BXTAP	37	192	5
NMSTR	38	0	1
NMSI_	38	0	1	96	96	4
NMSTR	38	192	5
NMSI_	38	192	5	96	96	2
NMSTR	39	0	0
NMSI_	39	0	0	96	96	3
NMSTR	39	192	4
NMSI_	39	192	4	96	96	7
NMSTR	40	0	2
NMSI_	40	0	2	96	96	7
NMSTR	40	192	5
NMSI_	40	192	5	96	96	0
NMHLD	41	0	1	96
NMTAP	41	96	3
NMTAP	41	144	3
NMTAP	41	192	2
NMTAP	41	240	2
NMTAP	41	288	2
NMTAP	41	288	4
NMSTR	42	0	4
NMSI_	42	0	4	96	96	7
NMSTR	42	192	1
NMSI_	42	192	1	96	96	6
NMSTR	43	0	5
NMSI_	43	0	5	96	96	0
NMSTR	43	192	1
NMSI_	43	192	1	96	96	4
NMSTR	44	0	6
NMSCL	44	0	6	96	192	1
BXTAP	45	0	0
BXTAP	45	0	7
BXTAP	45	72	1
BXTAP	45	72	6
BXTAP	45	144	2
BXTAP	45	144	5
BXSTR	45	192	2
BRSCR	45	192	2	96	48	5
BXTAP	45	192	5
NMTAP	46	0	6
NMTAP	46	96	0
NMTAP	46	96	7
NMTAP	46	192	2
NMTAP	46	240	0
NMTAP	46	240	2
NMTAP	46	336	6
NMTAP	47	0	0
NMTAP	47	0	6
NMTAP	47	96	1
NMTAP	47	144	0
NMTAP	47	144	1
NMTAP	47	240	7
NMTAP	47	288	0
NMTAP	47	288	7
NMTAP	48	0	6
NMTAP	48	96	4
NMTAP	48	96	5
NMTAP	48	192	2
NMTAP	48	240	2
NMTAP	48	240	3
NMTAP	48	336	5
NMTAP	49	0	4
NMTAP	49	48	7
NMSTR	49	96	7
NMSI_	49	96	7	96	48	3
NMSI_	49	96	7	96	48	5
EXTAP	49	288	2
EXTAP	49	288	4
NMTAP	50	0	1
NMTAP	50	96	0
NMTAP	50	96	7
NMTAP	50	192	5
NMTAP	50	240	5
NMTAP	50	240	7
NMTAP	50	336	1
NMTAP	51	0	1
NMTAP	51	0	7
NMTAP	51	96	6
NMTAP	51	144	6
NMTAP	51	144	7
NMTAP	51	240	0
NMTAP	51	288	0
NMTAP	51	288	7
NMTAP	52	0	1
NMTAP	52	96	2
NMTAP	52	96	3
NMTAP	52	192	5
NMTAP	52	240	4
NMTAP	52	240	5
NMTAP	52	336	2
NMTAP	53	0	3
NMTAP	53	48	0
NMTAP	53	96	0
NMTAP	53	144	7
NMTAP	53	192	0
NMSTR	53	192	7
NMSF_	53	192	7	96	48	3
BRTAP	54	0	1
BRTAP	54	0	5
NMTAP	54	96	1
NMTAP	54	144	2
NMTAP	54	192	3
NMTAP	54	240	4
NMTAP	54	288	2
NMTAP	54	336	3
NMHLD	55	0	4	288
NMTAP	55	96	5
NMTAP	55	144	5
NMTAP	55	240	3
NMTAP	55	288	3
NMTAP	56	0	4
NMTAP	56	0	5
NMTAP	56	96	6
NMTAP	56	144	5
NMTAP	56	192	4
NMTAP	56	240	3
NMTAP	56	288	5
NMTAP	56	336	4
NMHLD	57	0	3	288
NMTAP	57	96	2
NMTAP	57	144	2
NMTAP	57	240	1
NMTAP	57	288	1
NMTAP	58	0	0
NMTAP	58	0	1
NMTAP	58	96	2
NMTAP	58	144	1
NMTAP	58	192	0
NMTAP	58	240	7
NMTAP	58	288	1
NMTAP	58	336	0
NMHLD	59	0	7	288
NMTAP	59	96	6
NMTAP	59	144	6
NMTAP	59	240	0
NMSTR	59	288	0
NMSCR	59	288	0	96	288	7
BRTAP	61	0	0
BRTAP	61	0	7
BRTAP	61	72	1
BRTAP	61	72	6
BRTAP	61	144	2
BRTAP	61	144	5
BRTAP	61	192	2
BRTAP	61	192	5
NMSTR	62	0	1
NMSUR	62	0	1	96	96	5
NMSTR	62	192	0
NMSUR	62	192	0	96	96	4
NMSTR	63	0	7
NMSUR	63	0	7	96	96	3
NMSTR	63	192	6
NMSUR	63	192	6	96	96	2
NMSTR	64	0	5
NMSUR	64	0	5	96	96	1
NMSTR	64	192	4
NMSUR	64	192	4	96	96	0
NMHLD	65	0	1	96
NMTAP	65	96	3
NMTAP	65	144	3
NMTAP	65	192	2
NMTAP	65	240	2
NMTAP	65	288	2
NMTAP	65	288	4
NMSTR	66	0	4
NMSUL	66	0	4	96	96	0
NMSTR	66	192	3
NMSUL	66	192	3	96	96	7
NMSTR	67	0	2
NMSUL	67	0	2	96	96	6
NMSTR	67	192	1
NMSUL	67	192	1	96	96	5
NMSTR	68	0	0
NMSUL	68	0	0	96	192	7
BRTAP	69	0	0
BRTAP	69	0	7
BRTAP	69	72	3
BRTAP	69	72	4
BRTAP	69	144	1
BRTAP	69	144	6
BRHLD	69	192	1	192
BRHLD	69	192	6	192
NMTTP	71	0	4	E	0	M1
NMTTP	71	0	4	D	0	M1
NMTTP	72	0	3	E	0	M1
NMTTP	72	0	3	D	0	M1
NMTTP	73	0	2	E	0	M1
NMTTP	73	0	2	D	0	M1
NMTTP	74	0	1	E	0	M1
NMTTP	74	0	1	D	0	M1
NMTTP	75	0	0	E	0	M1
NMTTP	75	0	0	D	0	M1
NMTTP	76	0	7	E	0	M1
NMTTP	76	0	7	D	0	M1
NMTTP	77	0	6	E	0	M1
NMTTP	77	0	6	D	0	M1
NMTTP	78	0	5	E	0	M1
NMTTP	78	0	5	D	0	M1
NMHLD	79	0	2	384
NMTTP	79	192	3	E	0	M1
NMHLD	80	0	5	384
NMTTP	80	192	5	E	0	M1
NMHLD	81	0	1	384
NMTTP	81	192	1	E	0	M1
NMHLD	82	0	6	384
NMTTP	82	192	7	E	0	M1
NMHLD	83	0	0	192
NMHLD	83	192	1	192
NMTAP	84	0	2
NMTAP	84	96	3
NMTAP	84	192	4
NMTAP	84	288	3
NMTAP	84	288	4
NMTAP	85	0	0
NMTAP	85	0	7
NMTAP	85	48	0
NMTAP	85	48	7
NMTAP	85	96	1
NMTAP	85	96	6
NMTAP	85	240	3
NMTAP	85	240	4
NMTAP	85	336	1
NMTAP	85	336	6
BRSTR	86	0	1
NMSLR	86	0	1	96	192	7
BRSTR	86	0	6
NMSLL	86	0	6	96	192	0
NMTAP	87	0	1
NMTAP	87	48	2
NMTAP	87	96	3
NMTAP	87	144	4
NMTAP	87	192	2
NMTAP	87	240	3
NMTAP	87	288	4
NMTAP	87	336	5
NMTAP	88	0	3
NMTAP	88	48	4
NMTAP	88	96	5
NMTAP	88	144	6
NMTAP	88	192	4
NMTAP	88	240	5
NMTAP	88	288	6
NMTAP	88	336	7
NMHLD	89	0	7	192
NMTAP	89	96	5
NMHLD	89	192	0	192
NMTAP	89	288	2
NMTAP	90	0	7
NMTAP	90	48	6
NMTAP	90	96	1
NMTAP	90	144	2
NMTAP	90	192	6
NMTAP	90	240	5
NMTAP	90	288	2
NMTAP	90	336	3
NMTAP	91	0	6
NMTAP	91	48	5
NMTAP	91	96	4
NMTAP	91	144	3
NMTAP	91	192	5
NMTAP	91	240	4
NMTAP	91	288	3
NMTAP	91	336	2
NMTAP	92	0	4
NMTAP	92	48	3
NMTAP	92	96	2
NMTAP	92	144	1
NMTAP	92	192	3
NMTAP	92	240	2
NMTAP	92	288	1
NMTAP	92	336	0
NMHLD	93	0	0	96
NMHLD	93	96	2	96
NMHLD	93	192	4	96
NMHLD	93	288	6	96
BRSTR	94	0	0
NMSSR	94	0	0	96	192	4
NMTAP	95	0	6
NMHLD	95	48	6	96
NMTAP	95	96	4
NMTAP	95	144	3
NMTAP	95	192	5
NMHLD	95	240	5	96
NMTAP	95	288	3
NMTAP	95	336	2
NMTAP	96	0	4
NMHLD	96	48	4	96
NMTAP	96	96	2
NMTAP	96	144	1
NMTAP	96	192	3
NMHLD	96	240	3	96
NMTAP	96	288	1
NMTAP	96	336	0
NMHLD	97	0	0	192
NMTAP	97	96	2
NMHLD	97	192	7	192
NMTAP	97	288	5
NMTAP	98	0	0
NMTAP	98	48	1
NMTAP	98	96	6
NMTAP	98	144	5
NMTAP	98	192	1
NMTAP	98	240	2
NMTAP	98	288	2
NMTAP	98	288	3
NMTAP	99	0	1
NMTAP	99	24	3
NMTAP	99	48	1
NMTAP	99	72	3
NMTAP	99	96	1
NMTAP	99	120	3
NMTAP	99	144	1
NMTAP	99	168	3
NMTAP	99	192	1
NMTAP	99	288	3
NMTAP	99	288	4
NMTAP	100	0	6
NMTAP	100	24	4
NMTAP	100	48	6
NMTAP	100	72	4
NMTAP	100	96	6
NMTAP	100	120	4
NMTAP	100	144	6
NMTAP	100	168	4
NMTAP	100	192	6
NMTAP	100	288	3
NMTAP	100	288	4
NMTAP	101	0	1
NMTAP	101	48	1
NMTAP	101	96	6
NMTAP	101	144	6
NMTAP	101	192	0
NMTAP	101	216	7
NMTAP	101	240	0
NMTAP	101	264	7
NMTAP	101	288	0
NMTTP	102	0	0	C	1	M1
NMTTP	102	0	1	B	0	M1
NMTTP	102	0	1	A	0	M1
NMTTP	102	0	2	B	0	M1
NMTTP	102	0	2	A	0	M1
NMTTP	102	0	5	B	0	M1
NMTTP	102	0	5	A	0	M1
NMTTP	102	0	6	B	0	M1
NMTTP	102	0	6	A	0	M1
NMTAP	103	0	1
NMTAP	103	96	0
NMTAP	103	96	7
NMTAP	103	192	6
NMTAP	103	240	4
NMTAP	103	240	6
NMTAP	103	336	1
NMTAP	104	0	1
NMTAP	104	0	3
NMTAP	104	96	5
NMTAP	104	144	3
NMTAP	104	144	5
NMTAP	104	240	2
NMTAP	104	288	2
NMTAP	104	288	4
NMTAP	105	0	6
NMTAP	105	96	3
NMTAP	105	96	5
NMTAP	105	192	2
NMTAP	105	192	4
NMTAP	105	240	2
NMTAP	105	240	4
NMTAP	105	336	5
NMTAP	106	0	4
NMTAP	106	48	7
NMTAP	106	96	7
NMTAP	106	144	0
NMSTR	106	192	1
NMSI_	106	192	1	96	48	4
NMTAP	106	192	7
NMTAP	107	0	6
NMTAP	107	96	0
NMTAP	107	96	7
NMTAP	107	192	1
NMTAP	107	240	1
NMTAP	107	240	3
NMTAP	107	336	6
NMTAP	108	0	4
NMTAP	108	0	6
NMTAP	108	96	2
NMTAP	108	144	2
NMTAP	108	144	4
NMTAP	108	240	5
NMTAP	108	288	3
NMTAP	108	288	5
NMTAP	109	0	1
NMTAP	109	96	2
NMTAP	109	96	4
NMTAP	109	192	3
NMTAP	109	192	5
NMTAP	109	240	3
NMTAP	109	240	5
NMTAP	109	336	6
NMTAP	110	0	5
NMTAP	110	48	4
NMTAP	110	96	3
NMTAP	110	144	2
NMTAP	110	192	1
NMTAP	110	192	6
NMTAP	110	288	0
NMTAP	110	312	7
NMTAP	110	336	0
NMTAP	110	360	7
NMTAP	111	0	0
NMTAP	111	24	7
NMTAP	111	48	0
NMTAP	111	72	7
NMTAP	111	96	0
NMTAP	111	120	7
NMTAP	111	144	0
NMTAP	111	168	7
NMTAP	111	192	0
NMTAP	111	216	7
NMTAP	111	240	0
NMTAP	111	264	7
NMTAP	111	288	0
NMTAP	111	312	7
NMTAP	111	336	0
NMSTR	111	360	7
NMSXL	111	360	7	96	312	4
NMHLD	112	0	0	576
BRTAP	114	0	2
BRTAP	114	0	6
NMTAP	114	96	3
NMTAP	114	96	7
NMTAP	114	144	3
NMTAP	114	144	7
NMTAP	114	192	2
NMTAP	114	192	6
NMTAP	114	240	2
NMTAP	114	240	6
NMSTR	114	288	1
BRSV_	114	288	1	96	48	3
NMSTR	114	288	5
BRSV_	114	288	5	96	48	7

T_REC_TAP	468
T_REC_BRK	20
T_REC_XTP	2
T_REC_BXX	15
T_REC_HLD	30
T_REC_XHO	0
T_REC_BHO	2
T_REC_BXH	0
T_REC_STR	35
T_REC_BST	3
T_REC_XST	0
T_REC_XBS	3
T_REC_TTP	29
T_REC_THO	0
T_REC_SLD	36
T_REC_BSL	6
T_REC_ALL	649
T_NUM_TAP	534
T_NUM_BRK	49
T_NUM_HLD	30
T_NUM_SLD	36
T_NUM_ALL	649
T_JUDGE_TAP	575
T_JUDGE_HLD	174
T_JUDGE_SLD	42
T_JUDGE_ALL	791
TTM_EACHPAIRS	112
TTM_SCR_TAP	267000
TTM_SCR_BRK	127400
TTM_SCR_HLD	30000
TTM_SCR_SLD	54000
TTM_SCR_ALL	478400
TTM_SCR_S	459300
TTM_SCR_SS	473500
TTM_RAT_ACV	10103

