VERSION	0.00.00	1.04.00
FES_MODE	0
BPM_DEF	190.000	190.000	190.000	190.000
MET_DEF	4	4
RESOLUTION	384
CLK_DEF	384
COMPATIBLE_CODE	MA2

BPM	0	0	190.000
MET	0	0	4	4

NMHLD	2	0	3	768
NMHLD	2	0	4	768
NMSTR	6	0	1
NMSI_	6	0	1	96	288	4
NMTAP	7	192	5
NMSTR	8	0	5
NMSI_	8	0	5	96	288	0
NMTAP	9	192	2
NMSTR	10	0	2
NMSI_	10	0	2	96	288	7
NMTAP	11	192	6
NMSTR	12	0	6
NMSI_	12	0	6	96	288	3
EXTAP	13	192	3
EXTAP	13	192	4
NMTAP	14	0	2
NMTAP	14	96	2
NMTAP	14	192	1
NMTAP	14	288	1
NMTAP	15	0	0
NMTAP	15	96	0
NMTAP	15	192	6
NMTAP	15	192	7
NMTAP	16	0	5
NMTAP	16	96	5
NMTAP	16	192	6
NMTAP	16	288	6
NMTAP	17	0	7
NMTAP	17	96	7
NMTAP	17	192	0
NMTAP	17	192	1
NMTAP	18	0	1
NMTAP	18	96	1
NMTAP	18	192	2
NMTAP	18	288	2
NMTAP	19	0	3
NMTAP	19	96	3
NMTAP	19	192	4
NMTAP	19	192	5
NMTAP	20	0	6
NMTAP	20	96	6
NMTAP	20	192	5
NMTAP	20	288	5
NMTAP	21	0	4
NMTAP	21	96	4
NMTAP	21	192	2
NMTAP	21	192	3
NMTAP	22	0	1
NMTAP	22	96	1
NMTAP	22	192	1
NMTAP	22	288	0
NMTAP	22	288	1
NMTAP	23	0	2
NMTAP	23	96	2
NMTAP	23	192	2
NMTAP	23	288	2
NMTAP	23	288	3
NMTAP	24	0	5
NMTAP	24	96	5
NMTAP	24	192	5
NMTAP	24	288	4
NMTAP	24	288	5
NMTAP	25	0	6
NMTAP	25	0	7
NMTAP	25	96	6
NMTAP	25	96	7
NMTAP	25	192	0
NMTAP	25	192	5
NMTAP	26	0	6
NMTAP	26	96	6
NMTAP	26	192	6
NMTAP	26	288	6
NMTAP	26	288	7
NMTAP	27	0	5
NMTAP	27	96	5
NMTAP	27	192	5
NMTAP	27	288	4
NMTAP	27	288	5
NMTAP	28	0	2
NMTAP	28	96	2
NMTAP	28	192	2
NMTAP	28	288	2
NMTAP	28	288	3
NMTAP	29	0	0
NMTAP	29	0	1
NMTAP	29	96	0
NMTAP	29	96	1
BRTAP	29	192	2
BRTAP	29	192	7
NMHLD	30	0	1	192
NMTAP	30	192	0
NMHLD	31	0	6	192
NMTAP	31	192	7
NMHLD	32	0	1	192
NMTAP	32	192	0
NMTAP	33	0	6
NMTAP	33	0	7
NMTAP	33	96	6
NMTAP	33	96	7
NMTAP	33	192	6
NMTAP	33	192	7
NMHLD	34	0	5	192
NMTAP	34	192	4
NMHLD	35	0	2	192
NMTAP	35	192	3
NMHLD	36	0	5	192
NMTAP	36	192	4
NMTAP	37	0	2
NMTAP	37	0	3
NMTAP	37	96	2
NMTAP	37	96	3
BRTAP	37	192	2
BRTAP	37	192	3
NMSTR	38	0	1
NMSUR	38	0	1	96	480	4
NMSTR	40	0	6
NMSUL	40	0	6	96	480	3
NMSTR	42	0	1
NMSUR	42	0	1	96	480	4
EXHLD	44	0	3	192
EXHLD	44	0	4	192
NMTAP	45	0	3
NMTAP	45	0	4
NMTAP	45	96	3
NMTAP	45	96	4
BRTAP	45	192	3
BRTAP	45	192	4
NMTAP	46	0	2
NMTAP	46	96	2
NMTAP	46	192	0
NMTAP	46	192	1
NMTAP	46	288	0
NMTAP	46	288	1
NMTAP	47	0	7
NMTAP	47	96	7
NMTAP	47	192	6
NMTAP	47	192	7
NMTAP	48	0	5
NMTAP	48	96	5
NMTAP	48	192	6
NMTAP	48	192	7
NMTAP	48	288	6
NMTAP	48	288	7
NMTAP	49	0	0
NMTAP	49	96	0
NMTAP	49	192	0
NMTAP	49	192	1
NMTAP	50	0	1
NMTAP	50	96	1
NMTAP	50	192	2
NMTAP	50	192	3
NMTAP	50	288	2
NMTAP	50	288	3
NMTAP	51	0	4
NMTAP	51	96	4
NMTAP	51	192	4
NMTAP	51	192	5
NMTAP	52	0	6
NMTAP	52	96	6
NMTAP	52	192	4
NMTAP	52	192	5
NMTAP	52	288	4
NMTAP	52	288	5
NMTAP	53	0	3
NMTAP	53	96	3
NMTAP	53	192	2
NMTAP	53	192	3
NMHLD	54	0	1	192
NMTAP	54	192	0
NMHLD	55	0	6	192
NMTAP	55	192	7
NMHLD	56	0	1	192
NMTAP	56	192	0
NMTAP	57	0	6
NMTAP	57	0	7
NMTAP	57	96	6
NMTAP	57	96	7
NMTAP	57	192	6
NMTAP	57	192	7
NMHLD	58	0	5	192
NMTAP	58	192	4
NMHLD	59	0	2	192
NMTAP	59	192	3
NMHLD	60	0	5	192
NMTAP	60	192	4
NMTAP	61	0	2
NMTAP	61	0	3
NMTAP	61	96	2
NMTAP	61	96	3
BRTAP	61	192	2
BRTAP	61	192	3
NMSTR	62	0	1
NMSXL	62	0	1	96	480	4
NMSTR	64	0	6
NMSXR	64	0	6	96	480	3
NMSTR	66	0	1
NMSXL	66	0	1	96	480	4
EXHLD	68	0	3	192
EXHLD	68	0	4	192
NMTAP	69	0	3
NMTAP	69	0	4
NMTAP	69	96	3
NMTAP	69	96	4
NMHLD	69	192	2	192
NMHLD	69	192	5	192
NMTTP	71	0	3	B	0	L1
NMTTP	71	192	2	B	0	L1
NMTTP	72	0	1	B	0	L1
NMTTP	73	0	4	B	0	L1
NMTTP	73	192	5	B	0	L1
NMTTP	74	0	6	B	0	L1
NMTTP	75	0	2	B	0	L1
NMTTP	75	192	1	B	0	L1
NMTTP	76	0	0	B	0	L1
NMTTP	77	0	5	B	0	L1
NMTTP	77	192	6	B	0	L1
NMTTP	78	0	7	B	0	L1
NMTTP	79	0	1	B	0	L1
NMTTP	79	192	2	B	0	L1
NMTTP	80	0	3	B	0	L1
NMTTP	80	192	4	B	0	L1
NMTTP	81	0	5	B	0	L1
NMTTP	81	192	6	B	0	L1
NMTTP	82	0	0	B	0	L1
NMTTP	82	0	7	B	0	L1
NMTTP	83	0	5	B	0	L1
NMTTP	83	192	4	B	0	L1
NMTTP	84	0	3	B	0	L1
NMTTP	84	192	2	B	0	L1
NMTTP	85	0	0	C	1	L1
NMTAP	87	0	2
NMTAP	87	48	2
NMTAP	87	96	2
NMTAP	87	192	1
NMTAP	87	240	1
NMTAP	87	288	1
NMTAP	88	0	0
NMTAP	88	48	0
NMTAP	88	96	0
NMTAP	88	192	6
NMTAP	88	192	7
NMTAP	88	288	6
NMTAP	88	288	7
NMTAP	89	0	5
NMTAP	89	48	5
NMTAP	89	96	5
NMTAP	89	192	6
NMTAP	89	240	6
NMTAP	89	288	6
NMTAP	90	0	7
NMTAP	90	48	7
NMTAP	90	96	7
NMTAP	90	192	0
NMTAP	90	192	1
NMTAP	90	288	0
NMTAP	90	288	1
NMTAP	91	0	1
NMTAP	91	48	1
NMTAP	91	96	1
NMTAP	91	192	2
NMTAP	91	240	2
NMTAP	91	288	2
NMTAP	92	0	3
NMTAP	92	48	3
NMTAP	92	96	3
NMTAP	92	192	4
NMTAP	92	192	5
NMTAP	92	288	4
NMTAP	92	288	5
NMTAP	93	0	6
NMTAP	93	48	6
NMTAP	93	96	6
NMTAP	93	192	5
NMTAP	93	240	5
NMTAP	93	288	5
NMTAP	94	0	4
NMTAP	94	48	4
NMTAP	94	96	4
NMTAP	94	192	2
NMTAP	94	192	3
NMTAP	94	288	2
NMTAP	94	288	3
NMTAP	95	0	1
NMTAP	95	48	1
NMTAP	95	96	1
NMTAP	95	192	0
NMTAP	95	192	1
NMTAP	95	288	0
NMTAP	95	288	1
NMTAP	96	0	2
NMTAP	96	48	2
NMTAP	96	96	2
NMTAP	96	192	2
NMTAP	96	192	3
NMTAP	96	288	2
NMTAP	96	288	3
NMTAP	97	0	5
NMTAP	97	48	5
NMTAP	97	96	5
NMTAP	97	192	4
NMTAP	97	192	5
NMTAP	97	288	4
NMTAP	97	288	5
NMTAP	98	0	6
NMTAP	98	0	7
NMTAP	98	48	6
NMTAP	98	48	7
NMTAP	98	96	6
NMTAP	98	96	7
NMTAP	98	192	0
NMTAP	98	192	5
NMTAP	99	0	6
NMTAP	99	48	6
NMTAP	99	96	6
NMTAP	99	192	5
NMTAP	99	240	5
NMTAP	99	288	5
NMTAP	100	0	4
NMTAP	100	48	4
NMTAP	100	96	4
NMTAP	100	192	3
NMTAP	100	240	3
NMTAP	100	288	3
NMTAP	101	0	2
NMTAP	101	48	2
NMTAP	101	96	2
NMTAP	101	192	1
NMTAP	101	240	1
NMTAP	101	288	1
BRTAP	102	0	0
BRTAP	102	0	7
NMTAP	103	0	0
NMTAP	103	96	1
NMTAP	103	192	2
NMTAP	103	288	3
NMTAP	104	0	4
NMTAP	104	96	5
NMTAP	104	192	6
NMTAP	104	288	7
NMTAP	105	0	0
NMTAP	105	96	1
NMTAP	105	192	2
NMTAP	105	288	3
NMTAP	106	0	4
NMTAP	106	0	5
NMTAP	106	96	4
NMTAP	106	96	5
NMTAP	106	192	3
NMTAP	106	192	6
NMTAP	107	0	3
NMTAP	107	96	2
NMTAP	107	192	1
NMTAP	107	288	0
NMTAP	108	0	7
NMTAP	108	96	6
NMTAP	108	192	5
NMTAP	108	288	4
NMTAP	109	0	3
NMTAP	109	96	2
NMTAP	109	192	1
NMTAP	109	288	0
NMTAP	110	0	0
NMTAP	110	0	7
NMTAP	110	48	0
NMTAP	110	48	7
NMTAP	110	96	0
NMTAP	110	96	7
NMTAP	110	192	1
NMTAP	110	192	6
NMTAP	110	240	1
NMTAP	110	240	6
NMTAP	110	288	1
NMTAP	110	288	6
NMTAP	111	0	2
NMTAP	111	0	5
NMTAP	111	48	2
NMTAP	111	48	5
NMTAP	111	96	2
NMTAP	111	96	5
NMTAP	111	192	3
NMTAP	111	192	4
NMTAP	111	240	3
NMTAP	111	240	4
NMTAP	111	288	3
NMTAP	111	288	4
NMHLD	112	0	2	576
NMHLD	112	0	5	576
NMSTR	114	0	0
NMSI_	114	0	0	96	192	3
NMSTR	114	0	7
NMSI_	114	0	7	96	192	4
BRTAP	115	0	2
BRTAP	115	0	5

T_REC_TAP	308
T_REC_BRK	12
T_REC_XTP	2
T_REC_BXX	0
T_REC_HLD	18
T_REC_XHO	4
T_REC_BHO	0
T_REC_BXH	0
T_REC_STR	12
T_REC_BST	0
T_REC_XST	0
T_REC_XBS	0
T_REC_TTP	25
T_REC_THO	0
T_REC_SLD	12
T_REC_BSL	0
T_REC_ALL	393
T_NUM_TAP	347
T_NUM_BRK	12
T_NUM_HLD	22
T_NUM_SLD	12
T_NUM_ALL	393
T_JUDGE_TAP	359
T_JUDGE_HLD	128
T_JUDGE_SLD	12
T_JUDGE_ALL	499
TTM_EACHPAIRS	87
TTM_SCR_TAP	173500
TTM_SCR_BRK	31200
TTM_SCR_HLD	22000
TTM_SCR_SLD	18000
TTM_SCR_ALL	244700
TTM_SCR_S	236200
TTM_SCR_SS	243500
TTM_RAT_ACV	10049

