VERSION	0.00.00	1.04.00
FES_MODE	0
BPM_DEF	135.000	135.000	135.000	135.000
MET_DEF	4	4
RESOLUTION	384
CLK_DEF	384
COMPATIBLE_CODE	MA2

BPM	0	0	135.000
MET	0	0	4	4

NMTAP	1	0	2
NMTAP	1	0	7
NMTAP	1	72	3
NMTAP	1	72	6
NMSTR	1	144	4
NMSI_	1	144	4	96	96	2
NMTAP	1	144	5
CNSI_	1	336	2	0	96	0
CNSI_	2	48	0	0	144	6
NMTAP	3	0	4
NMTAP	3	0	5
NMTAP	3	72	3
NMTAP	3	72	6
NMHLD	3	144	2	240
NMSTR	3	144	7
NMSI_	3	144	7	96	96	5
CNSI_	3	336	5	0	240	2
NMTAP	5	0	2
NMTAP	5	0	6
NMTAP	5	72	1
NMTAP	5	72	5
NMSTR	5	144	0
NMSI_	5	144	0	96	96	2
NMSTR	5	144	4
NMSI_	5	144	4	96	96	6
CNSI_	5	336	2	0	240	4
CNSI_	5	336	6	0	240	0
NMTAP	7	0	2
NMTAP	7	0	5
NMTAP	7	72	1
NMTAP	7	72	6
NMSTR	7	144	0
NMSI_	7	144	0	96	48	6
NMSTR	7	144	7
NMSI_	7	144	7	96	48	3
NMSTR	8	0	0
NMSV_	8	0	0	96	48	3
NMSTR	8	0	7
NMSI_	8	0	7	96	48	4
NMSTR	8	192	3
NMSSR	8	192	3	96	48	7
NMSTR	8	192	4
NMSI_	8	192	4	96	48	7
EXHLD	9	0	0	48
NMTAP	9	48	2
NMHLD	9	72	1	48
NMTAP	9	120	3
NMHLD	9	144	2	48
NMTAP	9	192	4
NMTAP	9	240	3
NMTAP	9	240	4
NMHLD	9	288	6	48
NMTAP	9	336	4
NMHLD	9	360	5	48
NMTAP	10	24	3
NMHLD	10	48	4	48
NMTAP	10	96	2
NMTAP	10	144	2
NMTAP	10	144	3
NMTTP	10	192	1	E	0	M1
NMTTP	10	216	4	E	0	M1
NMTTP	10	240	2	E	0	M1
NMTTP	10	264	5	E	0	M1
NMTTP	10	288	3	E	0	M1
NMTTP	10	312	6	E	0	M1
NMTTP	10	336	4	D	0	M1
NMHLD	11	0	7	48
NMTAP	11	48	5
NMHLD	11	72	6	48
NMTAP	11	120	4
NMHLD	11	144	5	48
NMTAP	11	192	3
NMTAP	11	240	3
NMTAP	11	240	4
NMHLD	11	288	1	48
NMTAP	11	336	3
NMHLD	11	360	2	48
NMTAP	12	24	4
NMHLD	12	48	3	48
NMTAP	12	96	5
NMTAP	12	144	4
NMTAP	12	144	5
NMTTP	12	192	7	E	0	M1
NMTTP	12	216	4	E	0	M1
NMTTP	12	240	6	E	0	M1
NMTTP	12	264	3	E	0	M1
NMTTP	12	288	5	E	0	M1
NMTTP	12	312	2	E	0	M1
NMTTP	12	336	4	D	0	M1
NMTAP	13	0	1
NMTAP	13	48	3
NMTAP	13	72	2
NMTAP	13	120	4
NMTAP	13	144	3
NMTAP	13	192	6
NMTAP	13	240	4
NMTAP	13	240	6
NMTAP	13	288	2
NMTAP	13	336	4
NMTAP	13	360	3
NMTAP	14	24	5
NMTAP	14	48	4
NMTAP	14	96	6
NMTAP	14	144	4
NMTAP	14	144	6
NMTTP	14	192	1	E	0	M1
NMTTP	14	216	4	E	0	M1
NMTTP	14	240	2	E	0	M1
NMTTP	14	264	5	E	0	M1
NMTTP	14	288	3	E	0	M1
NMTTP	14	312	6	E	0	M1
NMTTP	14	336	4	D	0	M1
NMTAP	15	0	6
NMTAP	15	48	4
NMTAP	15	72	5
NMTAP	15	120	3
NMTAP	15	144	4
NMTAP	15	192	1
NMTAP	15	240	1
NMTAP	15	240	3
NMTAP	15	288	5
NMTAP	15	336	3
NMTAP	15	360	4
NMTAP	16	24	2
NMTAP	16	48	3
NMTAP	16	96	1
NMTAP	16	144	1
NMTAP	16	144	3
NMTAP	16	192	1
NMTAP	16	192	4
NMTAP	16	240	1
NMTAP	16	240	5
NMTAP	16	288	1
NMTAP	16	288	6
NMTAP	16	336	1
NMTAP	16	336	7
NMSTR	17	0	0
NMSI_	17	0	0	96	48	2
NMSTR	17	48	0
NMSI_	17	48	0	96	48	6
NMSTR	17	192	3
NMSI_	17	192	3	96	48	5
NMSTR	17	240	3
NMSI_	17	240	3	96	48	1
NMSTR	18	0	6
NMSI_	18	0	6	96	48	0
NMTAP	18	48	6
NMSTR	18	96	6
NMSXL	18	96	6	96	144	2
NMSTR	19	0	7
NMSI_	19	0	7	96	48	5
NMSTR	19	48	7
NMSI_	19	48	7	96	48	1
NMSTR	19	192	4
NMSI_	19	192	4	96	48	2
NMSTR	19	240	4
NMSI_	19	240	4	96	48	6
NMHLD	20	0	0	48
NMHLD	20	48	2	48
NMHLD	20	96	4	48
NMTAP	20	144	6
NMTTP	20	192	7	B	0	M1
NMTTP	20	204	6	B	0	M1
NMTTP	20	216	5	B	0	M1
NMTTP	20	228	4	B	0	M1
NMTTP	20	240	3	B	0	M1
NMTTP	20	252	2	B	0	M1
NMTTP	20	264	1	B	0	M1
NMTTP	20	276	0	B	0	M1
NMTTP	20	288	7	A	0	M1
NMTTP	20	300	6	A	0	M1
NMTTP	20	312	5	A	0	M1
NMTTP	20	324	4	A	0	M1
NMTTP	20	336	3	A	0	M1
NMSTR	21	0	7
NMSI_	21	0	7	96	48	5
NMSTR	21	48	7
NMSI_	21	48	7	96	48	1
NMSTR	21	192	4
NMSI_	21	192	4	96	48	2
NMSTR	21	240	4
NMSI_	21	240	4	96	48	6
NMSTR	22	0	1
NMSI_	22	0	1	96	48	7
NMTAP	22	48	1
NMSTR	22	96	1
NMSCR	22	96	1	96	96	5
NMSUR	22	96	1	96	96	6
NMSTR	23	0	0
NMSI_	23	0	0	96	48	2
NMSTR	23	48	0
NMSI_	23	48	0	96	48	6
NMSTR	23	192	3
NMSI_	23	192	3	96	48	5
NMSTR	23	240	3
NMSI_	23	240	3	96	48	1
NMTAP	24	0	6
NMTAP	24	48	5
NMTAP	24	96	4
NMTAP	24	144	3
NMSTR	24	192	2
NMSI_	24	192	2	96	48	7
NMSTR	24	192	5
NMSI_	24	192	5	96	48	3
NMTAP	24	240	2
NMTAP	24	240	5
EXTAP	24	288	2
EXTAP	24	288	5
EXHLD	25	0	4	48
EXTAP	25	0	7
NMTAP	25	48	0
NMTAP	25	96	1
NMHLD	25	96	5	48
NMTAP	25	144	2
NMSTR	25	192	2
NMSCR	25	192	2	96	96	5
NMHLD	25	192	6	48
NMHLD	25	288	7	48
NMHLD	26	0	0	48
CNSI_	26	0	5	0	96	1
CNSCL	26	96	1	0	96	7
NMHLD	26	96	7	48
NMTAP	26	192	6
CNSSR	26	192	7	0	144	3
NMTAP	26	240	6
NMTAP	26	288	6
NMHLD	27	0	2	48
NMTAP	27	0	7
NMTAP	27	48	6
NMHLD	27	96	1	48
NMTAP	27	96	5
NMTAP	27	144	4
NMTAP	27	192	0
NMSTR	27	192	3
NMSI_	27	192	3	96	48	1
NMSI_	27	192	3	96	48	7
NMSTR	28	0	0
NMSI_	28	0	0	96	48	2
NMSTR	28	48	0
NMSI_	28	48	0	96	48	5
NMSTR	28	96	0
NMSCR	28	96	0	96	48	3
EXTAP	28	144	0
EXTAP	28	192	0
CNSUR	28	240	3	0	144	4
NMTAP	29	0	0
NMTAP	29	48	7
NMHLD	29	96	2	48
NMTAP	29	96	6
NMTAP	29	144	5
NMHLD	29	192	1	48
NMSTR	29	192	5
NMSCL	29	192	5	96	96	2
NMHLD	29	288	0	48
CNSI_	30	0	2	0	96	6
NMHLD	30	0	7	48
NMHLD	30	96	0	48
CNSCR	30	96	6	0	96	0
CNSSL	30	192	0	0	144	4
NMTAP	30	192	1
NMTAP	30	240	1
NMTAP	30	288	1
NMTAP	31	0	0
NMHLD	31	0	5	48
NMTAP	31	48	1
NMTAP	31	96	2
NMHLD	31	96	6	48
NMTAP	31	144	3
NMSTR	31	192	4
NMSI_	31	192	4	96	48	0
NMSTR	31	192	7
NMSI_	31	192	7	96	48	3
NMTAP	31	288	4
NMTAP	31	288	7
NMTAP	32	0	1
NMTAP	32	0	2
NMTAP	32	48	1
NMTAP	32	48	2
NMTAP	32	96	0
NMTAP	32	96	7
NMTAP	32	144	0
NMTAP	32	144	7
NMTAP	32	192	5
NMTAP	32	192	6
NMTAP	32	240	5
NMTAP	32	240	6
BRTAP	32	288	4
BRTAP	32	288	7
NMHLD	33	0	2	144
NMTTP	33	96	1	B	0	M1
NMHLD	33	144	3	144
NMTTP	33	240	2	B	0	M1
NMHLD	33	288	4	144
NMTTP	34	0	3	B	0	M1
NMHLD	34	48	5	144
NMTTP	34	144	4	B	0	M1
NMHLD	34	192	6	96
NMHLD	34	288	0	96
NMHLD	35	0	2	144
NMTTP	35	96	2	E	0	M1
NMHLD	35	144	3	144
NMTTP	35	240	3	E	0	M1
NMHLD	35	288	4	144
NMTTP	36	0	4	E	0	M1
NMHLD	36	48	5	144
NMTTP	36	144	5	E	0	M1
NMTAP	36	192	6
NMTAP	36	240	5
NMTAP	36	288	4
NMTAP	36	336	3
NMHLD	37	0	2	144
NMTTP	37	96	3	B	0	M1
NMHLD	37	144	1	144
NMTTP	37	240	2	B	0	M1
NMHLD	37	288	0	144
NMTTP	38	0	1	B	0	M1
NMHLD	38	48	7	144
NMTTP	38	144	0	B	0	M1
NMHLD	38	192	6	96
NMHLD	38	288	4	96
NMHLD	39	0	2	144
NMTTP	39	96	3	E	0	M1
NMHLD	39	144	1	144
NMTTP	39	240	2	E	0	M1
NMHLD	39	288	0	144
NMTTP	40	0	1	E	0	M1
NMHLD	40	48	7	144
NMTTP	40	144	0	E	0	M1
NMTAP	40	192	6
NMTAP	40	240	7
NMTAP	40	288	0
NMTAP	40	336	1
NMTAP	41	0	2
NMTAP	41	0	4
NMTAP	41	72	4
NMSTR	41	72	6
NMSCR	41	72	6	96	120	3
NMTTP	41	144	1	B	0	M1
NMTTP	41	144	2	B	0	M1
NMTTP	41	144	2	E	0	M1
CNSXR	41	288	3	0	288	7
NMTAP	43	0	3
NMTAP	43	0	5
NMSTR	43	72	1
NMSCL	43	72	1	96	120	4
NMTAP	43	72	3
NMTTP	43	144	5	B	0	M1
NMTTP	43	144	6	B	0	M1
NMTTP	43	144	6	E	0	M1
CNSXL	43	288	4	0	288	0
NMTAP	45	0	2
NMTAP	45	0	4
NMTAP	45	72	4
NMSTR	45	72	6
NMSCR	45	72	6	96	120	3
NMTTP	45	144	1	B	0	M1
NMTTP	45	144	2	B	0	M1
NMTTP	45	144	2	E	0	M1
CNSXR	45	288	3	0	288	7
NMTAP	47	0	3
NMTAP	47	0	5
NMSTR	47	72	1
NMSCL	47	72	1	96	312	4
NMTAP	47	72	3
NMTTP	47	144	0	C	0	M1
NMSTR	48	0	0
BRSUL	48	0	0	96	288	6
CNSUL	48	96	4	0	288	2
BRTAP	49	288	0
BRTAP	49	288	7
NMSTR	50	0	2
NMSI_	50	0	2	96	48	5
NMTAP	50	0	5
NMTAP	50	48	3
NMTAP	50	48	6
NMTAP	50	96	2
NMHLD	50	96	5	96
CNSI_	50	144	5	0	48	7
CNSI_	50	192	7	0	48	3
NMSTR	50	288	2
NMSI_	50	288	2	96	48	5
NMTAP	50	288	4
NMTAP	50	336	1
NMTAP	50	336	3
NMHLD	51	0	0	192
NMSTR	51	0	2
NMSI_	51	0	2	96	48	6
NMSTR	51	96	2
NMSI_	51	96	2	96	48	7
NMTAP	51	192	2
NMTAP	51	288	2
NMTAP	51	288	5
NMTAP	51	336	3
NMTAP	51	336	6
NMTAP	52	0	2
NMSTR	52	0	5
NMSI_	52	0	5	96	48	2
NMTAP	52	48	1
NMTAP	52	48	4
NMHLD	52	96	2	96
NMTAP	52	96	5
CNSI_	52	144	2	0	48	0
CNSI_	52	192	0	0	48	4
NMSTR	52	288	2
NMSCL	52	288	2	96	48	7
NMSTR	52	288	6
NMSCL	52	288	6	96	48	3
NMTAP	52	336	3
NMTAP	52	336	7
NMSTR	53	0	2
NMSI_	53	0	2	96	48	5
NMSTR	53	0	6
NMSI_	53	0	6	96	48	1
NMTAP	53	96	2
NMTAP	53	96	6
NMTAP	53	192	0
NMTAP	53	192	4
NMTAP	53	240	0
NMTAP	53	240	4
NMTAP	53	288	1
NMTAP	53	288	6
NMTAP	53	336	1
NMTAP	53	336	6
NMTAP	54	0	2
NMSTR	54	0	5
NMSI_	54	0	5	96	48	2
NMTAP	54	48	1
NMTAP	54	48	4
NMHLD	54	96	2	96
NMTAP	54	96	5
CNSI_	54	144	2	0	48	0
CNSI_	54	192	0	0	48	4
NMTAP	54	288	3
NMSTR	54	288	5
NMSI_	54	288	5	96	48	2
NMTAP	54	336	4
NMTAP	54	336	6
NMSTR	55	0	5
NMSI_	55	0	5	96	48	1
NMHLD	55	0	7	192
NMSTR	55	96	5
NMSI_	55	96	5	96	48	0
NMTAP	55	192	5
NMTAP	55	288	2
NMTAP	55	288	5
NMTAP	55	336	1
NMTAP	55	336	4
NMHLD	56	0	0	48
NMHLD	56	48	2	48
NMHLD	56	96	4	48
NMHLD	56	144	6	48
NMSTR	56	192	7
NMSI_	56	192	7	96	48	3
NMSTR	56	240	0
NMSI_	56	240	0	96	48	2
NMTAP	56	288	7
NMTAP	56	336	0
NMTAP	57	0	6
NMTAP	57	48	5
NMSTR	57	48	7
BRSI_	57	48	7	96	48	3
NMSTR	57	96	0
BRSI_	57	96	0	96	48	2
NMTAP	57	96	4
BRTAP	57	144	7
BRSTR	57	192	0
BRSF_	57	192	0	96	48	4
BRTAP	57	288	0
NMSTR	58	0	2
NMSUR	58	0	2	96	96	4
NMSTR	58	0	5
NMSCR	58	0	5	96	96	1
NMTAP	58	48	3
NMTAP	58	48	6
NMTAP	58	96	2
NMTAP	58	96	5
NMSTR	58	288	3
NMSCL	58	288	3	96	48	0
NMSTR	58	288	7
NMSCL	58	288	7	96	48	4
NMTAP	58	336	2
NMTAP	58	336	6
NMSTR	59	0	3
NMSI_	59	0	3	96	48	7
NMSTR	59	0	7
NMSI_	59	0	7	96	48	3
NMSTR	59	96	3
NMSI_	59	96	3	96	48	0
NMSTR	59	96	7
NMSI_	59	96	7	96	48	4
NMTAP	59	192	3
NMTAP	59	192	7
CNSI_	59	240	0	0	48	2
NMTAP	59	288	3
NMTAP	59	336	4
NMSTR	60	0	2
NMSCL	60	0	2	96	96	6
NMSTR	60	0	5
NMSUL	60	0	5	96	96	3
NMTAP	60	48	1
NMTAP	60	48	4
NMTAP	60	96	2
NMTAP	60	96	5
NMSTR	60	288	1
NMSCL	60	288	1	96	48	6
NMSTR	60	288	5
NMSCL	60	288	5	96	48	2
NMSTR	60	336	2
NMSI_	60	336	2	96	48	5
NMSTR	60	336	6
NMSI_	60	336	6	96	48	1
NMTAP	61	0	1
NMTAP	61	0	5
CNSI_	61	96	1	0	48	4
CNSI_	61	96	5	0	48	0
EXTAP	61	192	3
EXTAP	61	192	7
EXTAP	61	240	2
EXTAP	61	240	6
EXTAP	61	288	1
EXTAP	61	288	5
EXTAP	61	336	0
EXTAP	61	336	4
EXSTR	62	0	2
NMSUR	62	0	2	96	96	4
EXSTR	62	0	5
NMSCR	62	0	5	96	96	1
NMTAP	62	48	3
NMTAP	62	48	6
NMTAP	62	96	2
NMTAP	62	96	5
NMSTR	62	288	3
NMSCL	62	288	3	96	48	0
NMSTR	62	288	7
NMSCL	62	288	7	96	48	4
NMTAP	62	336	2
NMTAP	62	336	6
NMSTR	63	0	3
NMSI_	63	0	3	96	48	7
NMSTR	63	0	7
NMSI_	63	0	7	96	48	3
NMSTR	63	96	3
NMSI_	63	96	3	96	48	0
NMSTR	63	96	7
NMSI_	63	96	7	96	48	4
NMTAP	63	192	3
NMTAP	63	192	7
CNSI_	63	240	4	0	48	6
NMTAP	63	288	7
NMTAP	63	336	0
NMTAP	63	336	7
NMTAP	64	0	0
NMTAP	64	0	1
NMTAP	64	48	2
NMTAP	64	48	3
NMTAP	64	96	4
NMTAP	64	96	5
NMTAP	64	144	6
NMTAP	64	144	7
NMSTR	64	192	0
BRSI_	64	192	0	96	48	5
NMSTR	64	192	1
BRSI_	64	192	1	96	48	4
NMTAP	64	240	2
NMTAP	64	240	3
BRTAP	64	288	0
BRTAP	64	288	1
NMTAP	65	0	2
NMTAP	65	0	7
NMSTR	65	48	0
NMSI_	65	48	0	96	48	5
NMSTR	65	96	1
NMSI_	65	96	1	96	48	4
NMTAP	65	144	0
NMTAP	65	192	1
BRTAP	65	288	3
BRTAP	65	288	6
NMSTR	66	0	7
NMSCR	66	0	7	96	96	1
NMHLD	66	48	4	48
NMTAP	66	144	3
NMTAP	66	168	3
CNSI_	66	192	1	0	48	6
NMHLD	66	240	2	48
CNSI_	66	240	6	0	48	2
CNSI_	66	288	2	0	48	5
NMTAP	66	336	1
CNSCL	66	336	5	0	240	3
NMTAP	66	360	1
NMHLD	67	48	0	48
NMTAP	67	144	7
NMTAP	67	168	7
NMTAP	67	240	3
NMTAP	67	240	6
NMTAP	67	288	4
NMTAP	67	288	7
NMTAP	67	336	0
NMSTR	67	336	5
NMSCL	67	336	5	96	96	3
NMTAP	68	48	1
NMTAP	68	96	1
NMTAP	68	144	1
CNSI_	68	144	3	0	48	6
NMTAP	68	168	1
CNSI_	68	192	6	0	48	2
CNSI_	68	240	2	0	48	7
NMTAP	68	240	3
NMTAP	68	288	3
CNSCR	68	288	7	0	240	1
NMTAP	68	336	3
NMTAP	68	360	3
NMTAP	69	48	5
NMTAP	69	96	5
NMTAP	69	144	5
NMTAP	69	168	5
NMTAP	69	240	3
NMTAP	69	240	7
NMTAP	69	288	2
NMTAP	69	288	6
NMHLD	69	336	1	240
NMTAP	69	336	5
NMTTP	70	0	4	E	0	M1
NMTTP	70	96	3	E	0	M1
NMTTP	70	192	0	B	0	M1
NMTTP	70	288	3	E	0	M1
NMTTP	71	0	4	E	0	M1
NMHLD	71	0	5	192
NMTTP	71	96	5	E	0	M1
NMTTP	71	192	7	B	0	M1
NMTTP	71	288	5	E	0	M1
NMHLD	72	0	3	192
NMTTP	72	0	4	E	0	M1
NMTTP	72	96	3	E	0	M1
NMTTP	72	192	0	B	0	M1
NMTTP	72	288	3	E	0	M1
NMTTP	73	0	4	E	0	M1
NMHLD	73	0	4	192
NMSTR	73	96	6
NMSCR	73	96	6	96	96	2
NMTTP	73	288	4	B	0	M1
NMTTP	73	288	5	E	0	M1
NMTTP	73	336	7	B	0	M1
NMTTP	73	336	7	E	0	M1

T_REC_TAP	256
T_REC_BRK	10
T_REC_XTP	13
T_REC_BXX	0
T_REC_HLD	65
T_REC_XHO	2
T_REC_BHO	0
T_REC_BXH	0
T_REC_STR	89
T_REC_BST	1
T_REC_XST	2
T_REC_XBS	0
T_REC_TTP	77
T_REC_THO	0
T_REC_SLD	88
T_REC_BSL	6
T_REC_ALL	609
T_NUM_TAP	437
T_NUM_BRK	17
T_NUM_HLD	67
T_NUM_SLD	88
T_NUM_ALL	609
T_JUDGE_TAP	448
T_JUDGE_HLD	129
T_JUDGE_SLD	94
T_JUDGE_ALL	671
TTM_EACHPAIRS	128
TTM_SCR_TAP	218500
TTM_SCR_BRK	44200
TTM_SCR_HLD	67000
TTM_SCR_SLD	132000
TTM_SCR_ALL	461700
TTM_SCR_S	446200
TTM_SCR_SS	460000
TTM_RAT_ACV	10036

