VERSION	0.00.00	1.04.00
FES_MODE	0
BPM_DEF	135.000	135.000	135.000	135.000
MET_DEF	4	4
RESOLUTION	384
CLK_DEF	384
COMPATIBLE_CODE	MA2

BPM	0	0	135.000
MET	0	0	4	4

NMTAP	1	0	2
NMSTR	1	0	3
NMSCR	1	0	3	96	384	0
NMSTR	3	0	4
NMSCL	3	0	4	96	384	7
NMTAP	3	0	5
NMSTR	5	0	6
NMSXR	5	0	6	96	384	3
NMTAP	5	0	7
NMTAP	7	0	0
NMSTR	7	0	1
NMSCR	7	0	1	96	192	4
NMTAP	8	0	5
NMTAP	8	96	4
NMTAP	8	96	5
NMTAP	8	192	7
NMTAP	8	240	7
BXTAP	8	288	0
BXTAP	8	288	6
NMHLD	9	0	2	96
NMTAP	9	96	3
NMTAP	9	192	5
NMTAP	9	288	4
NMTAP	9	288	6
NMTAP	10	0	2
NMTAP	10	48	2
NMTAP	10	96	3
NMTAP	10	192	5
NMTAP	10	288	6
NMTAP	10	288	7
NMHLD	11	0	5	96
NMTAP	11	96	4
NMTAP	11	192	2
NMTAP	11	288	1
NMTAP	11	288	3
NMTAP	12	0	6
NMTAP	12	48	6
NMSTR	12	96	4
NMSI_	12	96	4	96	96	0
NMHLD	13	0	6	96
NMTAP	13	96	7
NMTAP	13	192	1
NMTAP	13	288	0
NMTAP	13	288	2
NMTAP	14	0	6
NMTAP	14	48	6
NMTAP	14	96	7
NMTAP	14	192	4
NMTAP	14	192	5
NMTAP	14	288	2
NMTAP	14	288	3
NMHLD	15	0	1	96
NMTAP	15	96	0
NMTAP	15	192	6
NMTAP	15	240	6
NMTAP	15	288	7
NMTAP	16	0	2
NMTAP	16	0	5
NMTAP	16	96	1
NMTAP	16	96	6
NMTAP	16	192	0
NMTAP	16	192	7
NMTAP	16	240	0
NMTAP	16	240	7
BXTAP	16	288	1
BXTAP	16	288	6
NMHLD	17	0	2	672
NMTAP	17	96	4
NMTAP	17	192	4
NMTAP	17	288	3
NMTAP	18	0	3
NMTAP	18	96	4
NMTAP	18	192	3
NMTAP	18	288	4
NMHLD	19	0	5	384
NMTAP	19	96	3
NMTAP	19	192	3
NMTAP	19	288	4
NMSTR	20	0	3
NMSCR	20	0	3	96	192	1
NMHLD	21	0	6	672
NMTTP	21	96	2	B	0	M1
NMTTP	21	192	4	E	0	M1
NMTTP	21	288	5	B	0	M1
NMTTP	22	0	6	B	0	M1
NMTTP	22	96	0	C	0	M1
NMTTP	22	192	2	B	0	M1
NMTTP	22	288	2	A	0	M1
NMTAP	23	0	5
NMTAP	23	96	4
NMTAP	23	96	5
NMTAP	23	192	2
NMTAP	23	192	3
NMTAP	23	288	1
NMSTR	24	0	0
NMSI_	24	0	0	96	48	3
NMTAP	24	0	7
NMTAP	24	192	4
NMTAP	24	288	0
NMTAP	24	288	7
NMTAP	25	0	6
NMTAP	25	0	7
NMTAP	25	96	4
NMTAP	25	96	5
NMTAP	25	192	2
NMTAP	25	192	3
NMTAP	25	288	0
NMTAP	25	288	1
NMHLD	26	0	6	288
NMTAP	26	0	7
NMTAP	26	96	7
NMTAP	26	192	7
NMTAP	26	288	7
NMTAP	27	0	0
NMTAP	27	0	1
NMTAP	27	96	2
NMTAP	27	96	3
NMTAP	27	192	4
NMTAP	27	192	5
NMSTR	27	288	6
NMSCR	27	288	6	96	96	1
NMSTR	28	96	2
NMSCR	28	96	2	96	96	5
NMTAP	29	0	6
NMTAP	29	48	6
EXTAP	29	96	4
EXTAP	29	96	5
NMTAP	29	192	1
NMTAP	29	240	1
EXTAP	29	288	2
EXTAP	29	288	3
NMTAP	30	0	7
NMTAP	30	48	6
EXTAP	30	96	4
EXTAP	30	96	5
NMTAP	30	192	0
NMTAP	30	240	1
EXTAP	30	288	2
EXTAP	30	288	3
NMTAP	31	0	7
NMTAP	31	48	6
EXTAP	31	96	4
EXTAP	31	96	5
EXTAP	31	192	2
EXTAP	31	192	3
NMSTR	31	288	0
NMSI_	31	288	0	96	48	5
NMSTR	31	288	1
NMSI_	31	288	1	96	48	4
NMSTR	32	96	6
NMSI_	32	96	6	96	48	3
NMSTR	32	96	7
NMSI_	32	96	7	96	48	2
BXTAP	32	288	0
BXTAP	32	288	5
NMHLD	33	0	6	144
NMHLD	33	144	4	144
NMHLD	33	288	5	144
NMHLD	34	48	7	144
NMTAP	34	192	6
NMTAP	34	288	0
NMTAP	34	288	6
NMHLD	35	0	1	144
NMHLD	35	144	3	144
NMHLD	35	288	2	144
NMHLD	36	48	0	144
NMTAP	36	192	1
NMTAP	36	288	1
NMTAP	36	288	7
NMHLD	37	0	6	144
NMHLD	37	144	5	144
NMHLD	37	288	4	144
NMHLD	38	48	3	144
NMTAP	38	192	2
NMTAP	38	288	2
NMTAP	38	288	3
NMHLD	39	0	1	144
NMHLD	39	144	2	144
NMHLD	39	288	3	144
NMHLD	40	48	4	144
NMTAP	40	192	5
NMTAP	40	288	3
NMTAP	40	288	6
EXTAP	41	0	4
EXTAP	41	0	5
EXTAP	41	72	3
EXTAP	41	72	4
EXTAP	41	144	2
NMSTR	41	144	3
NMSUL	41	144	3	96	240	0
NMTAP	42	192	1
NMTAP	42	288	0
NMTAP	42	288	2
EXTAP	43	0	2
EXTAP	43	0	3
EXTAP	43	72	3
EXTAP	43	72	4
NMSTR	43	144	4
NMSUR	43	144	4	96	240	7
EXTAP	43	144	5
NMTAP	44	192	6
NMTAP	44	288	4
NMTAP	44	288	5
EXTAP	45	0	3
EXTAP	45	0	6
EXTAP	45	72	2
EXTAP	45	72	5
EXSTR	45	144	1
NMSUL	45	144	1	96	240	6
EXTAP	45	144	4
NMTAP	46	192	4
NMTAP	46	288	2
NMTAP	46	288	3
EXTAP	47	0	1
EXTAP	47	0	4
EXTAP	47	72	2
EXTAP	47	72	5
EXTAP	47	144	3
EXSTR	47	144	6
NMSCL	47	144	6	96	144	3
NMHLD	48	0	2	192
NMSTR	48	192	0
NMSI_	48	192	0	96	192	3
NMTAP	49	288	0
NMTAP	49	288	7
BRTAP	50	0	1
NMTAP	50	48	1
NMTAP	50	96	7
NMTAP	50	144	6
NMHLD	50	192	4	96
NMTAP	50	192	5
NMTAP	50	288	6
NMTAP	50	336	6
NMTAP	51	0	0
NMTAP	51	48	0
NMTAP	51	96	1
NMTAP	51	144	2
NMTAP	51	192	1
NMTAP	51	192	3
NMTAP	51	288	5
NMTAP	51	336	5
NMTAP	52	0	3
NMTAP	52	48	3
NMTAP	52	96	6
NMTAP	52	144	7
NMTAP	52	192	0
NMHLD	52	192	1	96
NMTAP	52	288	3
NMTAP	52	336	3
NMTAP	53	0	2
NMTAP	53	48	1
NMSTR	53	96	0
NMSI_	53	96	0	96	48	4
NMSTR	53	96	7
NMSI_	53	96	7	96	48	3
EXTAP	53	288	2
EXTAP	53	288	5
NMTAP	54	0	6
NMTAP	54	48	7
NMTAP	54	96	0
NMTAP	54	144	1
NMHLD	54	192	2	96
NMTAP	54	288	3
NMTAP	54	336	3
NMTAP	55	0	1
NMTAP	55	48	0
NMTAP	55	96	7
NMTAP	55	144	6
NMTAP	55	192	4
NMTAP	55	192	5
NMSTR	55	288	6
NMSI_	55	288	6	96	48	3
NMSTR	55	288	7
NMSI_	55	288	7	96	48	2
NMSTR	56	96	0
NMSI_	56	96	0	96	48	5
NMSTR	56	96	1
NMSI_	56	96	1	96	48	4
NMTAP	56	288	6
NMTAP	56	288	7
BRTAP	57	0	3
BRTAP	57	0	4
BRTAP	57	96	0
BRTAP	57	96	7
BRTAP	57	192	2
BRTAP	57	192	5
NMTAP	57	288	0
NMTAP	57	288	7
NMTAP	58	0	6
NMTAP	58	0	7
NMSTR	58	48	6
NMSI_	58	48	6	96	48	3
NMTAP	58	48	7
NMTAP	58	144	2
NMTAP	58	192	2
NMTAP	58	288	0
NMSTR	58	336	0
NMSI_	58	336	0	96	48	4
NMTAP	59	48	6
NMTAP	59	96	6
NMTAP	59	192	3
NMTAP	59	192	5
NMTAP	59	288	2
NMTAP	59	288	6
NMTAP	60	0	0
NMTAP	60	0	1
NMTAP	60	48	0
NMSTR	60	48	1
NMSI_	60	48	1	96	48	4
NMTAP	60	144	5
NMTAP	60	192	5
NMTAP	60	288	7
NMSTR	60	336	7
NMSI_	60	336	7	96	48	3
NMTAP	61	48	1
NMTAP	61	96	1
NMTAP	61	192	2
NMTAP	61	192	4
NMTAP	61	288	0
NMTAP	61	288	5
NMTAP	62	0	1
NMTAP	62	0	7
NMSTR	62	48	1
NMSCR	62	48	1	96	48	4
NMTAP	62	48	7
NMTAP	62	144	5
NMTAP	62	192	5
NMTAP	62	288	6
NMSTR	62	336	6
NMSI_	62	336	6	96	48	3
NMTAP	63	48	1
NMTAP	63	96	1
NMTAP	63	192	2
NMTAP	63	192	3
NMTAP	63	288	1
NMTAP	63	288	4
EXTAP	64	0	0
NMTAP	64	48	7
NMTAP	64	96	6
NMTAP	64	144	5
EXTAP	64	192	4
NMTAP	64	240	3
NMTAP	64	288	2
NMTAP	64	336	1
EXSTR	65	0	0
BRSXL	65	0	0	96	192	3
EXSTR	65	0	7
BRSXR	65	0	7	96	192	4
NMTAP	66	0	2
NMTAP	66	48	3
NMTAP	66	96	1
NMTAP	66	96	4
NMTAP	66	192	5
NMTAP	66	240	4
NMTAP	66	288	3
NMTAP	66	288	6
NMTAP	67	0	2
NMTAP	67	48	3
NMTAP	67	96	1
NMTAP	67	96	4
NMTAP	67	192	5
NMTAP	67	240	6
NMTAP	67	288	0
NMTAP	67	288	7
NMTAP	68	0	1
NMTAP	68	48	0
NMTAP	68	96	1
NMTAP	68	96	7
NMTAP	68	192	6
NMTAP	68	240	7
NMTAP	68	288	0
NMTAP	68	288	6
NMTAP	69	0	1
NMTAP	69	48	0
NMTAP	69	96	1
NMTAP	69	96	7
NMTAP	69	192	3
NMTAP	69	240	3
NMTAP	69	288	4
NMTAP	69	336	4
NMHLD	70	0	2	672
NMTTP	70	96	4	B	0	M1
NMTTP	70	192	0	C	0	M1
NMTTP	70	288	2	B	0	M1
NMTTP	71	0	3	B	0	M1
NMTTP	71	96	4	D	0	M1
NMTTP	71	192	5	D	0	M1
NMTTP	71	288	6	D	0	M1
NMHLD	72	0	5	288
NMTTP	72	96	0	C	0	M1
NMTTP	72	192	4	B	0	M1
NMTTP	72	288	4	A	0	M1
NMTAP	73	0	3
NMTAP	73	0	5
NMTAP	73	96	2
NMTAP	73	96	4
NMSTR	73	192	1
NMSI_	73	192	1	96	48	5
NMHLD	73	192	3	96

T_REC_TAP	236
T_REC_BRK	7
T_REC_XTP	36
T_REC_BXX	6
T_REC_HLD	31
T_REC_XHO	0
T_REC_BHO	0
T_REC_BXH	0
T_REC_STR	29
T_REC_BST	0
T_REC_XST	4
T_REC_XBS	0
T_REC_TTP	17
T_REC_THO	0
T_REC_SLD	31
T_REC_BSL	2
T_REC_ALL	399
T_NUM_TAP	322
T_NUM_BRK	15
T_NUM_HLD	31
T_NUM_SLD	31
T_NUM_ALL	399
T_JUDGE_TAP	335
T_JUDGE_HLD	130
T_JUDGE_SLD	33
T_JUDGE_ALL	498
TTM_EACHPAIRS	94
TTM_SCR_TAP	161000
TTM_SCR_BRK	39000
TTM_SCR_HLD	31000
TTM_SCR_SLD	46500
TTM_SCR_ALL	277500
TTM_SCR_S	267750
TTM_SCR_SS	276000
TTM_RAT_ACV	10054

