VERSION	0.00.00	1.04.00
FES_MODE	0
BPM_DEF	133.000	133.000	133.000	133.000
MET_DEF	4	4
RESOLUTION	384
CLK_DEF	384
COMPATIBLE_CODE	MA2

BPM	0	0	133.000
MET	0	0	4	4
MET	13	0	4	2
MET	13	192	4	4
MET	57	192	4	2
MET	58	0	4	4

NMSTR	1	0	3
NMSLR	1	0	3	96	192	7
NMHLD	1	0	5	672
NMSTR	2	0	0
NMSLR	2	0	0	96	192	4
NMHLD	3	0	4	576
NMSTR	3	0	5
NMSLL	3	0	5	96	192	7
NMTAP	4	0	7
NMTAP	4	96	7
NMTAP	4	192	6
NMTAP	4	288	5
NMTAP	5	0	3
NMTAP	5	0	4
NMTAP	5	96	2
NMTAP	5	96	4
NMTAP	5	192	1
NMTAP	5	192	4
NMTAP	5	288	0
NMTAP	5	288	4
NMTAP	6	0	0
NMSTR	6	0	4
NMSLL	6	0	4	96	192	6
NMTAP	6	96	0
NMTAP	6	192	0
NMSTR	6	288	0
BRSCL	6	288	0	96	288	1
BRHLD	7	0	5	384
NMSTR	8	0	0
NMSI_	8	0	0	96	48	4
EXTAP	8	96	7
NMTAP	8	192	3
NMTAP	8	192	6
NMTAP	8	240	3
NMTAP	8	240	6
NMTAP	8	288	5
NMTAP	8	312	4
NMTAP	8	336	5
NMTAP	8	360	4
NMHLD	9	0	5	72
NMHLD	9	72	7	72
NMSTR	9	144	0
NMSCL	9	144	0	96	48	5
NMTAP	9	240	4
NMTAP	9	288	4
NMTAP	9	336	3
NMHLD	10	0	2	72
NMHLD	10	72	0	72
NMSTR	10	144	7
NMSCR	10	144	7	96	48	2
NMTAP	10	240	3
NMTAP	10	288	3
NMTAP	10	336	4
NMHLD	11	0	5	72
NMHLD	11	72	7	72
NMSTR	11	144	0
NMSCL	11	144	0	96	48	5
NMTAP	11	240	4
NMTAP	11	288	4
NMTAP	11	336	3
NMHLD	12	0	2	48
NMHLD	12	0	3	48
NMHLD	12	96	0	48
NMHLD	12	96	1	48
NMHLD	12	192	6	48
NMHLD	12	192	7	48
NMTAP	12	288	4
NMTAP	12	288	5
NMTAP	13	0	3
NMTAP	13	24	4
NMTAP	13	48	3
NMTAP	13	72	4
NMTAP	13	96	2
NMTAP	13	120	4
NMTAP	13	144	2
NMTAP	13	168	4
BRHLD	13	192	1	144
NMTAP	13	336	3
NMHLD	14	0	4	192
NMHLD	14	192	3	144
NMTAP	14	336	4
NMHLD	15	0	5	192
NMHLD	15	192	3	192
NMTAP	15	336	5
NMHLD	16	0	6	192
NMTAP	16	192	5
NMTAP	16	288	4
NMSTR	16	288	7
NMSF_	16	288	7	96	96	3
NMHLD	17	192	1	72
NMTAP	17	264	3
NMTAP	17	288	3
NMTAP	17	336	2
NMTAP	17	336	4
NMTAP	18	0	3
NMTAP	18	0	5
EXTAP	18	48	6
NMTAP	18	96	3
NMTAP	18	96	7
NMTAP	18	144	3
NMHLD	18	192	6	72
NMTAP	18	264	4
NMTAP	18	288	4
NMTAP	18	336	3
NMTAP	18	336	5
NMTAP	19	0	2
NMTAP	19	0	4
EXTAP	19	48	1
NMTAP	19	96	0
NMTAP	19	96	4
NMTAP	19	144	4
NMHLD	19	192	3	72
NMTAP	19	192	5
NMTAP	19	264	4
NMTAP	19	288	2
NMTAP	19	336	1
NMTAP	19	336	3
NMTAP	20	0	0
NMHLD	20	0	4	72
NMTAP	20	72	1
NMTAP	20	96	3
NMTAP	20	144	2
NMTAP	20	144	4
NMSTR	20	192	5
NMSI_	20	192	5	96	48	3
NMTAP	20	240	5
NMSTR	20	288	0
NMSI_	20	288	0	96	48	4
NMTAP	20	336	0
NMTAP	21	0	7
NMTAP	21	96	3
NMTAP	21	96	6
NMSTR	21	192	2
NMSI_	21	192	2	96	48	6
NMTAP	21	240	2
NMTAP	21	288	4
NMTAP	21	336	4
NMSTR	22	0	5
NMSI_	22	0	5	96	48	3
NMTAP	22	48	5
NMTAP	22	96	0
NMTAP	22	144	0
NMSTR	22	192	1
NMSI_	22	192	1	96	48	7
NMTAP	22	240	1
NMTAP	22	288	3
NMTTP	23	0	4	A	0	M1
NMTTP	23	0	5	E	0	M1
NMTTP	23	0	5	A	0	M1
NMTTP	23	0	5	D	0	M1
NMTAP	23	96	1
NMTAP	23	96	7
NMTAP	23	144	6
NMSTR	23	192	5
NMSI_	23	192	5	96	48	1
NMTAP	23	240	5
NMTAP	23	288	3
NMTAP	23	336	3
NMSTR	24	0	2
NMSCR	24	0	2	96	48	4
NMTAP	24	48	2
NMTAP	24	96	7
NMTAP	24	144	7
NMSTR	24	192	6
NMSI_	24	192	6	96	48	2
NMTAP	24	240	6
NMSTR	24	288	2
NMSLR	24	288	2	96	120	7
NMTAP	24	336	1
EXTAP	25	0	0
NMTAP	25	96	0
NMTAP	25	144	0
NMTAP	25	192	1
NMTAP	25	192	7
NMTAP	25	240	6
NMTAP	25	264	4
NMTAP	25	288	5
NMTAP	25	336	5
NMTAP	26	0	4
NMTAP	26	0	5
NMTAP	26	48	3
NMTAP	26	72	4
NMTAP	26	120	2
NMTAP	26	144	3
NMTAP	26	192	0
NMTAP	26	192	6
NMTAP	26	240	1
NMTAP	26	264	3
NMTAP	26	288	2
NMTAP	26	336	2
NMTAP	27	0	2
NMTAP	27	0	3
NMTAP	27	48	4
NMTAP	27	72	3
NMTAP	27	120	5
NMTAP	27	144	4
NMTAP	27	192	3
NMHLD	27	192	7	72
NMHLD	27	264	5	72
NMTAP	27	336	4
NMHLD	28	0	0	72
NMHLD	28	72	2	72
NMTAP	28	144	3
NMTAP	28	192	3
NMTAP	28	192	4
NMTAP	28	240	5
NMTAP	28	264	4
NMTAP	28	312	1
NMTAP	28	336	3
NMTAP	29	0	6
NMSTR	29	0	7
NMSI_	29	0	7	96	48	3
BRTAP	29	96	7
EXHLD	29	192	2	672
EXTAP	29	192	4
NMTTP	29	336	3	E	0	M1
NMTTP	30	0	4	E	0	M1
NMTTP	30	96	5	B	0	M1
NMTTP	30	96	5	E	0	M1
NMTTP	30	192	3	B	0	M1
NMTTP	30	192	3	E	0	M1
NMTTP	30	336	4	E	0	M1
NMTTP	31	0	5	E	0	M1
NMTAP	31	96	6
NMTAP	31	192	3
NMHLD	31	192	6	672
NMTTP	31	336	6	E	0	M1
NMTTP	32	0	5	E	0	M1
NMTTP	32	96	2	B	0	M1
NMTTP	32	96	3	B	0	M1
NMTTP	32	96	3	E	0	M1
NMTTP	32	192	0	B	0	M1
NMTTP	32	192	1	E	0	M1
NMTTP	32	288	6	B	0	M1
NMTTP	32	288	6	E	0	M1
NMTTP	32	288	7	E	0	M1
NMTTP	33	0	4	B	0	M1
NMTTP	33	0	4	E	0	M1
NMSTR	33	96	3
NMSCL	33	96	3	96	96	0
NMTAP	33	192	5
NMTAP	33	288	5
NMTAP	34	0	0
NMTAP	34	0	5
NMTAP	34	96	1
NMSTR	34	96	4
NMSCR	34	96	4	96	96	7
NMHLD	34	192	2	48
NMHLD	34	288	2	48
NMHLD	35	0	2	48
NMHLD	35	0	7	48
NMHLD	35	96	3	48
NMHLD	35	96	6	48
NMTAP	35	192	4
NMTAP	35	192	5
NMTAP	35	240	4
NMTAP	35	240	5
NMTAP	35	288	6
NMTAP	35	288	7
NMTAP	35	336	6
NMTAP	35	336	7
NMTAP	36	0	0
NMTAP	36	0	1
NMTAP	36	48	0
NMTAP	36	48	1
NMTAP	36	96	2
NMTAP	36	96	3
NMTAP	36	144	2
NMTAP	36	144	3
NMHLD	36	192	3	144
NMHLD	36	192	4	144
NMSTR	37	0	3
NMSI_	37	0	3	96	48	0
NMSTR	37	0	4
NMSI_	37	0	4	96	48	7
BRTAP	37	96	3
BRTAP	37	96	4
EXSTR	37	192	1
NMSCR	37	192	1	96	72	4
NMSTR	37	264	4
NMSI_	37	264	4	96	48	0
NMTAP	37	336	7
NMSTR	38	0	6
NMSCL	38	0	6	96	72	3
NMSTR	38	72	3
NMSI_	38	72	3	96	48	7
NMTAP	38	144	1
NMSTR	38	192	2
NMSCL	38	192	2	96	72	7
NMSTR	38	264	7
NMSI_	38	264	7	96	48	3
NMTAP	38	336	4
EXSTR	39	0	5
BRSCR	39	0	5	96	48	0
NMTAP	39	72	2
NMTAP	39	144	1
NMHLD	39	192	1	72
NMTAP	39	192	3
NMTAP	39	264	2
NMTAP	39	336	3
NMTAP	39	336	4
NMTAP	40	0	4
NMHLD	40	0	6	72
NMTAP	40	72	7
NMTAP	40	144	0
NMTAP	40	144	7
EXSTR	40	192	0
NMSI_	40	192	0	96	48	4
EXSTR	40	192	1
NMSI_	40	192	1	96	48	3
NMTAP	40	288	0
NMTAP	40	288	1
EXSTR	41	0	6
NMSI_	41	0	6	96	48	4
EXSTR	41	0	7
NMSI_	41	0	7	96	48	3
NMTAP	41	96	6
NMTAP	41	96	7
BRSTR	41	192	0
NMSCL	41	192	0	96	48	5
BRTAP	41	192	1
NMTAP	41	264	2
NMTAP	41	336	4
NMSTR	42	0	3
NMSCL	42	0	3	96	48	0
NMTAP	42	0	4
NMTAP	42	72	5
NMTAP	42	144	7
NMSTR	42	192	6
NMSCL	42	192	6	96	48	3
NMTAP	42	192	7
NMTAP	42	264	0
NMTAP	42	336	2
BRTAP	43	0	1
BRTAP	43	0	2
NMTAP	43	72	6
NMTAP	43	72	7
NMTAP	43	144	1
NMTAP	43	144	4
NMTAP	43	192	2
NMSTR	43	192	3
NMSCR	43	192	3	96	48	6
NMTAP	43	264	7
NMTAP	43	336	0
NMTAP	44	0	0
NMSTR	44	0	1
NMSI_	44	0	1	96	48	4
NMTAP	44	72	4
NMTAP	44	144	5
BRTAP	44	192	6
BRTAP	44	192	7
NMSTR	44	288	4
NMSI_	44	288	4	96	48	0
NMSTR	44	288	6
NMSI_	44	288	6	96	48	3
NMTAP	45	0	4
NMTAP	45	0	6
NMTAP	45	96	1
NMTAP	45	96	7
NMTAP	45	192	2
EXSTR	45	192	6
NMSCL	45	192	6	96	72	3
NMSTR	45	264	3
NMSI_	45	264	3	96	48	7
NMTAP	45	336	0
NMSTR	46	0	1
NMSCL	46	0	1	96	72	6
NMSTR	46	72	6
NMSI_	46	72	6	96	48	2
NMTAP	46	144	3
NMSTR	46	192	5
NMSCR	46	192	5	96	72	0
NMSTR	46	264	0
NMSI_	46	264	0	96	48	4
NMTAP	46	336	3
EXSTR	47	0	2
NMSCL	47	0	2	96	48	7
NMTAP	47	72	3
NMTAP	47	144	4
CNSI_	47	144	7	0	48	3
NMHLD	47	192	5	72
NMTAP	47	264	4
NMTAP	47	288	5
NMTAP	47	336	3
NMTAP	47	336	6
NMHLD	48	0	2	72
NMTAP	48	72	3
NMTAP	48	96	2
NMTAP	48	144	1
NMTAP	48	144	4
EXSTR	48	192	6
NMSI_	48	192	6	96	48	3
EXSTR	48	192	7
NMSI_	48	192	7	96	48	3
NMTAP	48	288	6
NMTAP	48	288	7
EXSTR	49	0	0
NMSI_	49	0	0	96	48	4
EXSTR	49	0	1
NMSI_	49	0	1	96	48	4
NMTAP	49	96	0
NMSTR	49	96	1
NMSCL	49	96	1	96	192	3
NMTTP	49	192	0	C	1	M1
BRTAP	49	192	1
NMTAP	50	96	1
NMSTR	50	96	3
NMSCR	50	96	3	96	192	1
NMTAP	50	192	2
NMTAP	50	288	2
NMSTR	51	0	2
NMSF_	51	0	2	96	48	6
NMHLD	51	192	0	72
NMTAP	51	192	4
NMHLD	51	264	2	72
NMTAP	51	336	3
NMHLD	52	0	4	72
NMHLD	52	72	6	72
NMTAP	52	144	7
NMSTR	52	192	0
NMSI_	52	192	0	96	48	4
NMSTR	52	288	0
BRSCR	52	288	0	96	120	7
BRTAP	53	192	1
NMHLD	53	192	6	192
NMTAP	53	336	4
NMTAP	54	0	4
NMSTR	54	96	3
NMSCL	54	96	3	96	96	7
NMSTR	54	192	7
NMSCL	54	192	7	96	96	3
NMTAP	54	288	3
NMTAP	55	0	7
NMTAP	55	96	2
NMTAP	55	96	4
NMTAP	55	144	1
NMTAP	55	144	5
BXTAP	55	192	0
BXHLD	55	192	6	72
BXTAP	55	264	7
BXHLD	55	336	1	72
BXTAP	55	336	7
BXTAP	56	24	0
BXTAP	56	72	2
BXTAP	56	72	3
BXTAP	56	144	6
BXTAP	56	144	7
BXSTR	56	192	0
NMSI_	56	192	0	96	48	4
BXSTR	56	192	5
NMSI_	56	192	5	96	48	0
NMTAP	56	288	0
NMTAP	56	288	5
EXTAP	57	0	3
EXTAP	57	0	7
NMTAP	57	48	6
NMTAP	57	72	4
NMSTR	57	96	5
BRSCR	57	96	5	96	96	2
NMTAP	57	120	4
NMTAP	57	144	5
EXTAP	57	288	3
NMHLD	58	0	0	72
NMHLD	58	0	6	72
NMTAP	58	96	0
NMTAP	58	96	6
NMTAP	58	144	1
NMTAP	58	144	5
NMTAP	58	192	2
NMTAP	58	216	3
NMTAP	58	240	1
NMTAP	58	288	0
NMTAP	58	288	6
NMTAP	58	336	5
NMSTR	59	0	1
NMSI_	59	0	1	96	48	4
NMTAP	59	0	4
NMSTR	59	96	5
NMSI_	59	96	5	96	48	0
NMSTR	59	192	2
NMSI_	59	192	2	96	48	7
NMSTR	59	288	6
BRSCL	59	288	6	96	48	3
BRTAP	60	0	0
NMHLD	60	96	1	72
NMTAP	60	168	3
NMTAP	60	216	3
NMTAP	60	240	2
NMTAP	60	288	1
NMTAP	60	288	4
NMTAP	60	336	2
NMTAP	60	336	5
NMTAP	61	0	3
NMHLD	61	0	6	72
NMTAP	61	72	5
NMTAP	61	144	0
NMTAP	61	144	7
NMHLD	61	216	1	72
NMTAP	61	216	4
NMTAP	61	288	3
NMTAP	61	336	2
NMTAP	61	336	4
NMHLD	62	0	5	72
NMTAP	62	72	4
NMTAP	62	96	5
NMTAP	62	144	4
NMTAP	62	144	5
NMSTR	62	192	6
NMSCL	62	192	6	96	48	3
NMTAP	62	240	7
NMTAP	62	288	0
NMTAP	62	336	1
NMHLD	63	0	2	72
NMTAP	63	72	3
NMTAP	63	96	2
NMTAP	63	144	2
NMTAP	63	144	3
NMSTR	63	192	1
NMSCR	63	192	1	96	48	4
NMTAP	63	240	0
NMTAP	63	288	7
NMTAP	63	336	6
NMSTR	64	0	5
NMSI_	64	0	5	96	48	1
NMTAP	64	96	4
NMTAP	64	144	3
NMSTR	64	192	0
NMSI_	64	192	0	96	48	4
NMSTR	64	192	2
NMSI_	64	192	2	96	48	4
NMTAP	64	288	0
NMTAP	64	288	2
NMHLD	65	0	6	48
NMHLD	65	0	7	48
NMHLD	65	72	0	48
NMHLD	65	72	5	48
NMTAP	65	144	2
NMTAP	65	144	3
NMHLD	65	192	0	48
NMHLD	65	192	1	48
NMHLD	65	264	2	48
NMHLD	65	264	7	48
NMTAP	65	336	4
NMTAP	65	336	5
NMSTR	66	0	3
NMSXL	66	0	3	96	144	0
NMTAP	66	0	4
CNSCR	66	240	0	0	144	6
NMSTR	67	0	7
BRSF_	67	0	7	96	48	3
BRTAP	67	96	7

T_REC_TAP	283
T_REC_BRK	12
T_REC_XTP	8
T_REC_BXX	8
T_REC_HLD	60
T_REC_XHO	1
T_REC_BHO	2
T_REC_BXH	2
T_REC_STR	59
T_REC_BST	1
T_REC_XST	12
T_REC_XBS	2
T_REC_TTP	25
T_REC_THO	0
T_REC_SLD	68
T_REC_BSL	6
T_REC_ALL	549
T_NUM_TAP	387
T_NUM_BRK	33
T_NUM_HLD	61
T_NUM_SLD	68
T_NUM_ALL	549
T_JUDGE_TAP	410
T_JUDGE_HLD	176
T_JUDGE_SLD	74
T_JUDGE_ALL	660
TTM_EACHPAIRS	111
TTM_SCR_TAP	193500
TTM_SCR_BRK	85800
TTM_SCR_HLD	61000
TTM_SCR_SLD	102000
TTM_SCR_ALL	442300
TTM_SCR_S	425850
TTM_SCR_SS	439000
TTM_RAT_ACV	10075

