VERSION	0.00.00	1.04.00
FES_MODE	0
BPM_DEF	133.000	133.000	133.000	133.000
MET_DEF	4	4
RESOLUTION	384
CLK_DEF	384
COMPATIBLE_CODE	MA2

BPM	0	0	133.000
MET	0	0	4	4
MET	13	0	4	2
MET	13	192	4	4
MET	57	192	4	2
MET	58	0	4	4

NMSTR	1	0	0
NMSXL	1	0	0	96	192	0
NMSTR	2	0	7
NMSXR	2	0	7	96	192	7
NMSTR	3	0	0
NMSSL	3	0	0	96	192	4
NMTAP	4	0	5
NMTAP	4	96	5
NMTAP	4	192	4
NMTAP	4	192	5
NMTAP	5	0	5
NMTAP	5	96	5
NMTAP	5	192	4
NMTAP	5	288	4
NMTAP	6	0	3
NMTAP	6	96	3
NMTAP	6	192	2
NMSTR	6	288	2
BRSCL	6	288	2	96	384	3
BXTAP	8	288	2
BXTAP	8	288	5
NMTAP	9	0	1
NMTAP	9	48	1
NMHLD	9	96	1	96
NMTAP	9	192	3
NMTAP	9	288	2
NMTAP	9	288	4
NMTAP	10	0	6
NMTAP	10	48	6
NMHLD	10	96	6	96
NMTAP	10	192	4
NMTAP	10	288	3
NMTAP	10	288	5
NMTAP	11	0	2
NMTAP	11	48	2
NMHLD	11	96	2	96
NMTAP	11	192	0
NMTAP	11	288	1
NMTAP	11	288	7
NMTAP	12	0	5
NMTAP	12	48	5
NMHLD	12	96	5	96
NMTAP	12	192	7
NMTAP	12	288	0
NMSTR	12	288	6
NMSCL	12	288	6	96	96	3
NMHLD	13	192	2	768
NMTAP	14	0	3
NMTAP	14	96	3
NMTAP	14	192	4
NMTAP	14	288	4
NMTAP	15	0	3
NMTAP	15	96	3
NMHLD	15	192	5	768
NMTAP	16	0	4
NMTAP	16	96	4
NMTAP	16	192	3
NMTAP	16	288	3
NMTAP	17	0	4
NMTAP	17	96	4
NMHLD	17	192	3	672
NMTAP	18	0	4
NMTAP	18	96	4
NMTAP	18	192	2
NMTAP	18	288	2
NMTAP	19	0	4
NMTAP	19	96	4
NMTAP	19	192	5
NMTAP	19	240	5
NMTAP	19	288	4
NMTAP	20	0	2
NMTAP	20	48	2
NMSTR	20	96	3
NMSXR	20	96	3	96	288	7
NMTAP	21	192	0
NMTAP	21	192	1
NMTAP	21	288	3
NMTAP	22	0	6
NMTAP	22	0	7
NMTAP	22	96	4
NMHLD	22	192	0	96
NMHLD	22	288	1	96
NMHLD	23	0	2	96
NMTAP	23	96	3
NMTAP	23	192	4
NMTAP	23	192	5
NMTAP	23	288	7
NMTAP	24	0	2
NMTAP	24	0	3
NMTAP	24	96	0
NMHLD	24	192	4	96
NMHLD	24	288	5	96
NMHLD	25	0	6	96
NMTAP	25	96	7
NMSTR	25	192	0
NMSLR	25	192	0	96	96	4
NMHLD	25	192	6	192
NMTAP	26	96	4
NMTAP	26	96	5
NMHLD	26	192	1	192
NMSTR	26	192	7
NMSLL	26	192	7	96	96	3
NMTAP	27	96	2
NMTAP	27	96	3
NMTAP	27	192	1
NMTAP	27	240	1
NMTAP	27	288	0
NMTAP	27	288	1
NMTAP	28	0	6
NMTAP	28	48	6
NMTAP	28	96	6
NMTAP	28	96	7
NMTAP	28	192	4
NMTAP	28	192	5
NMTAP	28	288	3
NMTAP	28	288	4
BRTAP	29	0	2
BRTAP	29	0	5
EXHLD	29	192	1	384
NMTTP	30	0	0	B	0	M1
NMTTP	30	0	1	E	0	M1
NMHLD	30	192	6	384
NMTTP	31	0	7	B	0	M1
NMTTP	31	0	7	E	0	M1
NMHLD	31	192	2	384
NMTTP	32	0	3	E	0	M1
NMTTP	32	0	3	A	0	M1
NMHLD	32	192	5	384
NMTTP	33	0	4	A	0	M1
NMTTP	33	0	5	E	0	M1
NMTTP	33	192	4	E	0	M1
NMTTP	33	288	3	E	0	M1
NMTTP	34	0	2	E	0	M1
NMTTP	34	96	1	E	0	M1
NMTTP	34	192	0	E	0	M1
NMTTP	34	288	7	E	0	M1
NMTTP	35	0	6	E	0	M1
NMTTP	35	96	5	E	0	M1
NMTAP	35	192	3
NMTAP	35	240	3
NMTAP	35	288	5
NMTAP	35	336	5
NMTAP	36	0	1
NMTAP	36	48	1
NMTAP	36	96	7
NMTAP	36	144	7
NMHLD	36	192	0	192
NMHLD	36	192	7	192
BRTAP	37	96	1
BRTAP	37	96	6
NMHLD	37	192	1	72
NMTAP	37	264	0
NMTAP	37	336	2
NMTAP	37	336	7
NMHLD	38	0	6	72
NMTAP	38	72	7
NMTAP	38	144	0
NMTAP	38	144	5
NMHLD	38	192	2	72
NMTAP	38	264	3
NMTAP	38	336	1
NMTAP	38	336	4
NMHLD	39	0	5	72
NMTAP	39	72	4
NMTAP	39	144	3
NMTAP	39	144	6
NMSTR	39	192	7
NMSI_	39	192	7	96	48	2
NMSI_	39	192	7	96	48	3
NMSTR	40	0	0
NMSI_	40	0	0	96	48	4
NMSI_	40	0	0	96	48	5
NMTAP	40	192	2
NMTAP	40	192	3
NMTAP	40	288	0
NMTAP	40	288	1
BRTAP	41	0	2
BRTAP	41	0	7
NMHLD	41	192	2	72
NMTAP	41	264	3
NMTAP	41	336	1
NMTAP	41	336	4
NMHLD	42	0	5	72
NMTAP	42	72	4
NMTAP	42	144	3
NMTAP	42	144	6
NMHLD	42	192	1	72
NMTAP	42	264	0
NMTAP	42	336	2
NMTAP	42	336	7
NMHLD	43	0	6	72
NMTAP	43	72	7
NMTAP	43	144	0
NMTAP	43	144	5
NMSTR	43	192	1
NMSI_	43	192	1	96	48	4
NMSTR	43	192	4
NMSI_	43	192	4	96	48	7
NMSTR	44	0	3
NMSI_	44	0	3	96	48	7
NMSTR	44	0	6
NMSI_	44	0	6	96	48	3
BRTAP	44	192	1
BRTAP	44	192	5
NMTTP	44	288	3	E	0	M1
NMTTP	45	0	4	E	0	M1
NMTTP	45	96	5	E	0	M1
NMHLD	45	192	6	72
NMTAP	45	264	7
NMTAP	45	336	0
NMTAP	45	336	5
NMHLD	46	0	1	72
NMTAP	46	72	0
NMTAP	46	144	2
NMTAP	46	144	7
NMHLD	46	192	5	72
NMTAP	46	264	4
NMTAP	46	336	3
NMTAP	46	336	6
NMHLD	47	0	2	72
NMTAP	47	72	3
NMTAP	47	144	1
NMTAP	47	144	4
NMSTR	47	192	0
NMSI_	47	192	0	96	48	4
NMSCL	47	192	0	96	48	5
NMSTR	48	0	7
NMSI_	48	0	7	96	48	3
NMSCR	48	0	7	96	48	2
NMTAP	48	192	4
NMTAP	48	192	5
NMTAP	48	288	6
NMTAP	48	288	7
NMTAP	49	0	0
NMTAP	49	0	1
NMTAP	49	96	2
NMTAP	49	96	3
BRSTR	49	192	1
NMSCL	49	192	1	96	192	3
BRTAP	49	192	4
NMTAP	50	192	3
NMSTR	50	192	6
NMSCR	50	192	6	96	192	4
NMHLD	51	192	6	72
NMHLD	51	264	4	72
NMTAP	51	336	5
NMHLD	52	0	1	72
NMHLD	52	72	3	72
NMTAP	52	144	2
NMTAP	52	192	2
NMTAP	52	288	4
NMTAP	52	288	5
NMTAP	53	0	6
NMTAP	53	0	7
NMTAP	53	96	0
NMTAP	53	96	1
BRSTR	53	192	2
NMSCR	53	192	2	96	192	0
BRTAP	53	192	7
NMTAP	54	192	0
NMSTR	54	192	5
NMSCL	54	192	5	96	192	7
EXHLD	55	192	6	72
EXHLD	55	264	4	72
EXHLD	55	336	5	72
EXHLD	56	24	1	48
EXTAP	56	72	3
EXTAP	56	144	2
EXHLD	56	192	2	96
NMHLD	56	288	3	96
NMHLD	57	0	4	96
NMTAP	57	96	5
NMHLD	57	192	2	96
NMHLD	57	192	6	96
BRSTR	58	0	0
BRSXL	58	0	0	96	288	3
BRSTR	58	0	4
BRSXL	58	0	4	96	288	7
NMTAP	59	192	2
NMTAP	59	192	6
NMTAP	59	288	1
NMTAP	59	288	5
NMTAP	60	0	2
NMTAP	60	48	2
NMHLD	60	96	2	72
NMHLD	60	168	0	72
NMTAP	60	240	1
NMTAP	60	288	1
NMTAP	60	288	7
NMTAP	61	0	5
NMTAP	61	48	5
NMHLD	61	96	5	72
NMHLD	61	168	7	72
NMTAP	61	240	6
NMTAP	61	288	0
NMTAP	61	288	6
NMTAP	62	0	1
NMTAP	62	48	1
NMHLD	62	96	1	72
NMHLD	62	168	3	72
NMTAP	62	240	2
NMTAP	62	288	2
NMTAP	62	288	4
NMTAP	63	0	6
NMTAP	63	48	6
NMHLD	63	96	6	72
NMHLD	63	168	4	72
NMTAP	63	240	5
NMTAP	63	288	3
NMTAP	63	288	5
NMTAP	64	0	1
NMTAP	64	0	3
NMTAP	64	96	3
NMTAP	64	96	4
NMTAP	64	192	4
NMTAP	64	192	6
NMTAP	64	288	0
NMTAP	64	288	7
NMHLD	65	0	1	72
NMHLD	65	72	2	72
NMTAP	65	144	3
NMHLD	65	192	6	72
NMHLD	65	264	5	72
NMTAP	65	336	4
NMSTR	66	0	4
NMSXL	66	0	4	96	288	0
NMSXR	66	0	4	96	288	0
BRTAP	67	96	2
BRTAP	67	96	6

T_REC_TAP	185
T_REC_BRK	12
T_REC_XTP	2
T_REC_BXX	2
T_REC_HLD	52
T_REC_XHO	6
T_REC_BHO	0
T_REC_BXH	0
T_REC_STR	19
T_REC_BST	4
T_REC_XST	0
T_REC_XBS	0
T_REC_TTP	19
T_REC_THO	0
T_REC_SLD	25
T_REC_BSL	3
T_REC_ALL	329
T_NUM_TAP	225
T_NUM_BRK	21
T_NUM_HLD	58
T_NUM_SLD	25
T_NUM_ALL	329
T_JUDGE_TAP	243
T_JUDGE_HLD	187
T_JUDGE_SLD	28
T_JUDGE_ALL	458
TTM_EACHPAIRS	63
TTM_SCR_TAP	112500
TTM_SCR_BRK	54600
TTM_SCR_HLD	58000
TTM_SCR_SLD	37500
TTM_SCR_ALL	262600
TTM_SCR_S	252700
TTM_SCR_SS	260500
TTM_RAT_ACV	10080

