VERSION	0.00.00	1.04.00
FES_MODE	0
BPM_DEF	240.000	240.000	240.000	240.000
MET_DEF	4	4
RESOLUTION	384
CLK_DEF	384
COMPATIBLE_CODE	MA2

BPM	0	0	240.000
MET	0	0	4	4

NMHLD	2	0	1	240
NMHLD	2	0	7	240
NMTAP	2	336	2
NMTAP	2	336	6
NMTAP	3	48	2
NMTAP	3	48	6
NMTAP	3	144	2
NMTAP	3	144	6
NMTAP	3	240	0
NMTAP	3	288	0
NMTHO	4	0	0	240	C	0	M1
NMHLD	4	0	7	240
EXTAP	4	336	0
EXTAP	4	336	6
EXTAP	5	48	0
EXTAP	5	48	6
EXTAP	5	144	0
EXTAP	5	144	6
NMTAP	5	240	7
NMHLD	5	288	7	384
BRTAP	6	0	0
NMTAP	6	192	4
NMTAP	6	288	4
NMHLD	7	0	3	96
NMHLD	7	0	6	96
NMHLD	7	144	1	96
NMHLD	7	144	4	96
NMTAP	7	288	3
NMTAP	7	288	5
NMSTR	8	0	2
NMSI_	8	0	2	96	48	7
NMTAP	8	96	4
NMSTR	8	192	5
NMSI_	8	192	5	96	48	0
NMTAP	8	288	3
NMSTR	9	0	2
NMSI_	9	0	2	96	48	7
NMTAP	9	96	4
EXTAP	9	192	0
EXTAP	9	192	3
EXTAP	9	288	0
EXTAP	9	288	3
NMSTR	10	0	5
NMSI_	10	0	5	96	48	0
NMTAP	10	96	3
NMSTR	10	192	2
NMSI_	10	192	2	96	48	7
NMTAP	10	288	4
NMSTR	11	0	5
NMSI_	11	0	5	96	48	0
NMSTR	11	96	3
NMSSR	11	96	3	96	144	7
EXTAP	11	192	7
NMHLD	12	0	6	384
NMTAP	12	96	4
NMTAP	12	192	4
NMTAP	12	288	3
NMHLD	13	0	1	384
NMTAP	13	96	3
NMTAP	13	192	3
NMSTR	13	288	4
NMSXL	13	288	4	96	192	3
NMHLD	14	240	0	96
NMTAP	14	336	7
NMTAP	15	48	1
NMTAP	15	48	6
NMTAP	15	96	1
NMTAP	15	96	6
NMTAP	15	192	4
NMTAP	15	192	5
BRTAP	15	288	7
NMTAP	16	0	1
NMTAP	16	48	1
NMTAP	16	96	3
NMTAP	16	192	3
NMTAP	16	192	5
NMTAP	16	288	6
NMTAP	16	336	6
NMTAP	17	0	4
NMTAP	17	96	3
NMTAP	17	96	5
NMTAP	17	192	6
NMTAP	17	240	6
NMTAP	17	288	0
NMTAP	18	0	2
NMTAP	18	0	4
NMTAP	18	96	1
NMTAP	18	144	1
NMTAP	18	192	7
NMTAP	18	288	2
NMTAP	18	336	2
NMTAP	19	0	4
NMTAP	19	96	5
NMTAP	19	144	5
NMSTR	19	192	3
NMSXR	19	192	3	96	144	2
NMTAP	19	288	4
NMTAP	20	0	5
NMTAP	20	48	5
NMTAP	20	144	4
NMTAP	20	192	4
NMSTR	20	288	3
BRSI_	20	288	3	96	96	0
NMSTR	20	288	4
BRSI_	20	288	4	96	96	7
EXTAP	21	192	0
EXTAP	21	192	7
NMTAP	21	288	1
NMTAP	21	288	6
NMTAP	22	0	1
NMTAP	22	0	6
BRHLD	22	96	2	48
BRHLD	22	96	4	48
BRHLD	22	192	3	48
BRHLD	22	192	5	48
BRHLD	22	288	2	48
BRHLD	22	288	4	48
BRHLD	23	0	3	48
BRHLD	23	0	6	48
BRHLD	23	96	1	48
BRHLD	23	96	4	48
BRTAP	23	192	2
BRTAP	23	192	5
BRTAP	23	288	0
BRTAP	23	288	7
NMTAP	24	0	2
NMTAP	24	48	2
NMTAP	24	96	4
NMTAP	24	192	6
NMTAP	24	240	6
NMTAP	24	288	4
NMTAP	25	0	2
NMTAP	25	0	4
NMSTR	25	96	3
NMSLL	25	96	3	96	96	7
NMSLR	25	96	3	96	96	7
EXTAP	26	0	6
EXTAP	26	0	7
NMTAP	26	96	4
NMTAP	26	96	5
NMTAP	26	192	2
NMTAP	26	192	3
NMTAP	26	288	2
NMTAP	26	288	3
EXTAP	27	0	1
EXTAP	27	0	3
EXTAP	27	96	4
EXTAP	27	96	6
EXTAP	27	192	0
EXTAP	27	192	2
EXTAP	27	288	5
EXTAP	27	288	7
NMHLD	28	0	2	48
NMHLD	28	0	7	48
NMHLD	28	96	0	48
NMHLD	28	96	5	48
NMHLD	28	192	2	48
NMHLD	28	192	7	48
NMHLD	28	288	2	48
NMHLD	28	288	7	48
NMHLD	29	0	0	48
NMHLD	29	0	5	48
NMHLD	29	96	2	48
NMHLD	29	96	7	48
NMTAP	29	192	0
NMTAP	29	192	5
NMTAP	29	288	0
NMTAP	29	288	5
NMTAP	29	336	1
NMTAP	29	336	6
NMHLD	30	0	2	528
NMHLD	30	0	7	528
NMTAP	31	240	3
NMTAP	31	240	6
NMTAP	31	288	3
NMSTR	31	288	6
NMSI_	31	288	6	96	48	1
NMSTR	32	0	1
NMSI_	32	0	1	96	48	3
CNSI_	32	144	3	0	48	0
CNSI_	32	192	0	0	48	4
CNSI_	32	240	4	0	48	7
CNSI_	32	288	7	0	48	5
EXTAP	33	0	2
NMTAP	33	96	3
NMTAP	33	96	5
NMTAP	33	192	1
NMSTR	33	192	7
NMSCL	33	192	7	96	96	3
NMSTR	33	288	3
NMSCL	33	288	3	96	96	7
NMTAP	34	0	7
NMTAP	34	96	3
NMTAP	34	192	3
NMTAP	34	288	2
NMTAP	34	288	4
NMTTP	35	0	5	B	0	M1
NMTTP	35	0	5	E	0	M1
NMTTP	35	0	5	A	1	M1
NMTTP	35	0	6	E	0	M1
NMTTP	35	96	0	B	0	M1
NMTTP	35	96	0	E	1	M1
NMTTP	35	96	0	A	0	M1
NMTTP	35	96	7	B	0	M1
NMTTP	35	96	7	A	0	M1
NMTTP	35	192	2	B	0	M1
NMTTP	35	192	2	E	0	M1
NMTTP	35	192	2	A	1	M1
NMTTP	35	192	3	E	0	M1
NMSTR	36	0	5
NMSV_	36	0	5	96	48	0
NMTAP	36	96	2
NMSTR	36	192	1
NMSV_	36	192	1	96	48	4
NMTAP	36	288	7
NMSTR	37	0	5
NMSV_	37	0	5	96	48	2
NMTAP	37	96	3
NMTAP	37	192	1
NMTAP	37	288	1
NMSTR	38	0	0
NMSI_	38	0	0	96	48	5
NMSTR	38	0	1
NMSI_	38	0	1	96	48	4
NMSTR	38	192	6
NMSI_	38	192	6	96	48	3
NMSTR	38	192	7
NMSI_	38	192	7	96	48	2
NMSTR	39	0	1
NMSI_	39	0	1	96	48	3
NMSTR	39	0	7
NMSI_	39	0	7	96	48	4
BRTAP	39	192	2
BRTAP	39	192	6
NMHLD	40	0	1	48
NMHLD	40	0	7	48
NMHLD	40	96	0	48
NMHLD	40	96	6	48
NMHLD	40	192	1	48
NMHLD	40	192	7	48
NMHLD	40	288	0	48
NMHLD	40	288	6	48
NMHLD	41	0	1	48
NMHLD	41	0	7	48
NMHLD	41	96	0	48
NMHLD	41	96	6	48
NMTAP	41	192	1
NMTAP	41	192	7
NMTAP	41	240	1
NMTAP	41	240	7
NMTAP	41	288	1
NMTAP	41	288	7
NMTAP	42	0	3
BRTAP	42	0	6
NMTAP	42	96	4
BRTAP	42	96	6
NMTAP	42	192	3
BRTAP	42	192	6
NMTAP	42	288	4
BRSTR	42	288	7
BRSF_	42	288	7	96	96	3
NMTTP	43	0	7	A	1	M1
EXTAP	43	192	1
EXTAP	43	192	5
BXTAP	43	240	0
BXTAP	43	288	0
NMTTP	44	0	2	A	0	M1
NMTTP	44	0	3	B	0	M1
NMTTP	44	0	3	E	0	M1
NMTTP	44	0	4	E	0	M1
NMTTP	44	0	4	A	0	M1
NMTTP	44	192	3	A	0	M1
NMTTP	44	192	4	B	0	M1
NMTTP	44	192	4	E	0	M1
NMTTP	44	192	5	E	0	M1
NMTTP	44	192	5	A	0	M1
NMTTP	45	0	0	B	0	M1
NMTTP	45	0	0	E	0	M1
NMTTP	45	0	1	E	0	M1
NMTTP	45	0	1	A	0	M1
NMTTP	45	0	7	A	0	M1
NMTTP	45	192	0	E	0	M1
NMTTP	45	192	0	A	0	M1
NMTTP	45	192	6	A	0	M1
NMTTP	45	192	7	B	0	M1
NMTTP	45	192	7	E	0	M1
NMHLD	46	0	1	48
NMHLD	46	0	4	48
NMHLD	46	96	3	48
NMHLD	46	96	6	48
NMHLD	46	192	1	48
NMHLD	46	192	4	48
NMSTR	46	288	3
NMSI_	46	288	3	96	48	0
NMHLD	46	288	6	48
NMTAP	47	0	5
EXTAP	47	96	5
EXTAP	47	128	4
EXTAP	47	160	3
EXTAP	47	192	2
NMTTP	47	288	0	E	1	M1
NMSTR	48	0	6
NMSI_	48	0	6	96	48	4
NMTAP	48	48	6
NMSTR	48	96	0
NMSI_	48	96	0	96	48	2
NMTAP	48	144	0
NMSTR	48	192	6
NMSCL	48	192	6	96	48	4
NMTAP	48	240	6
NMSTR	48	288	0
NMSCR	48	288	0	96	48	2
NMTAP	48	336	0
NMSTR	49	0	6
NMSI_	49	0	6	96	48	4
NMTAP	49	48	6
NMSTR	49	96	0
NMSI_	49	96	0	96	48	2
NMTAP	49	144	0
NMTAP	49	192	7
NMTAP	49	288	0
NMTAP	49	288	6
NMSTR	50	0	2
NMSI_	50	0	2	96	48	0
NMTAP	50	48	2
NMSTR	50	96	4
NMSI_	50	96	4	96	48	6
NMTAP	50	144	4
NMSTR	50	192	2
NMSCL	50	192	2	96	48	0
NMTAP	50	240	2
NMSTR	50	288	4
NMSCR	50	288	4	96	48	6
NMTAP	50	336	4
NMSTR	51	0	2
NMSI_	51	0	2	96	48	0
NMTAP	51	48	2
NMSTR	51	96	4
NMSI_	51	96	4	96	48	6
NMTAP	51	144	4
NMTAP	51	192	3
EXSTR	51	288	2
NMSCL	51	288	2	96	48	7
NMTAP	51	288	4
NMTAP	52	0	3
NMTAP	52	96	4
NMTAP	52	144	4
NMTAP	52	240	3
NMSTR	52	240	5
NMSI_	52	240	5	96	48	2
NMSTR	52	336	1
NMSI_	52	336	1	96	48	6
EXTAP	53	48	4
EXTAP	53	96	4
NMTAP	53	192	5
NMSTR	53	288	6
NMSI_	53	288	6	96	48	4
NMSTR	53	288	7
NMSI_	53	288	7	96	48	3
EXTAP	54	0	6
EXTAP	54	0	7
NMSTR	54	96	0
NMSI_	54	96	0	96	48	4
NMSTR	54	96	1
NMSI_	54	96	1	96	48	3
EXTAP	54	192	0
EXTAP	54	192	1
NMSTR	54	288	6
NMSI_	54	288	6	96	48	4
NMSTR	54	288	7
NMSI_	54	288	7	96	48	3
EXTAP	55	0	6
EXTAP	55	0	7
NMTAP	55	96	0
NMTAP	55	96	1
BRTAP	55	192	2
BRTAP	55	192	7
NMTAP	55	288	1
NMSTR	56	0	0
NMSI_	56	0	0	96	48	2
NMTAP	56	48	0
NMSTR	56	96	6
NMSI_	56	96	6	96	48	4
NMTAP	56	144	6
NMSTR	56	192	0
NMSCR	56	192	0	96	48	2
NMTAP	56	240	0
NMSTR	56	288	6
NMSCL	56	288	6	96	48	4
NMTAP	56	336	6
NMSTR	57	0	0
NMSI_	57	0	0	96	48	2
NMTAP	57	48	0
NMSTR	57	96	6
NMSI_	57	96	6	96	48	4
NMTAP	57	144	6
NMTAP	57	192	7
NMTAP	57	288	0
NMTAP	57	288	6
NMSTR	58	0	4
NMSI_	58	0	4	96	48	6
NMTAP	58	48	4
NMSTR	58	96	2
NMSI_	58	96	2	96	48	0
NMTAP	58	144	2
NMSTR	58	192	4
NMSCR	58	192	4	96	48	6
NMTAP	58	240	4
NMSTR	58	288	2
NMSCL	58	288	2	96	48	0
NMTAP	58	336	2
NMSTR	59	0	4
NMSI_	59	0	4	96	48	6
NMTAP	59	48	4
NMSTR	59	96	2
NMSI_	59	96	2	96	48	0
NMTAP	59	144	2
NMTAP	59	192	3
EXSTR	59	288	5
NMSI_	59	288	5	96	72	2
NMTTP	60	0	0	C	1	M1
CNSI_	60	72	2	0	48	6
CNSI_	60	120	6	0	72	1
EXTAP	60	240	0
EXTAP	60	288	0
NMHLD	61	0	2	96
NMHLD	61	0	4	96
NMHLD	61	144	3	96
NMHLD	61	144	5	96
NMTAP	61	288	3
NMTAP	61	288	5
BRTAP	62	0	2
BRSTR	62	0	6
NMSI_	62	0	6	96	48	3
NMTAP	62	96	3
NMSTR	62	192	2
NMSI_	62	192	2	96	48	7
NMTAP	62	288	4
NMSTR	63	0	5
NMSI_	63	0	5	96	48	0
NMTAP	63	96	3
EXTAP	63	192	4
EXTAP	63	192	7
EXTAP	63	288	4
EXTAP	63	288	7
NMSTR	64	0	2
NMSI_	64	0	2	96	48	7
NMTAP	64	96	4
NMSTR	64	192	5
NMSI_	64	192	5	96	48	0
NMTAP	64	288	3
NMSTR	65	0	2
NMSI_	65	0	2	96	48	7
NMSTR	65	96	4
NMSV_	65	96	4	96	96	6
EXTAP	65	192	0
CNSI_	65	288	6	0	48	0
NMHLD	66	0	1	96
NMTAP	66	96	3
NMHLD	66	192	2	96
NMTAP	66	192	3
NMTAP	66	288	4
NMHLD	67	0	6	96
NMTAP	67	96	4
NMTAP	67	192	4
NMHLD	67	192	5	96
NMTAP	67	288	3
NMSTR	68	0	2
NMSCR	68	0	2	96	48	4
NMTAP	68	96	7
NMSTR	68	144	7
NMSI_	68	144	7	96	48	3
NMHLD	68	240	0	96
NMTAP	68	336	4
NMTAP	69	48	2
NMTAP	69	48	6
NMTAP	69	96	2
NMTAP	69	96	6
NMTAP	69	192	3
NMTAP	69	192	5
BRTAP	69	288	1
NMSTR	70	0	7
NMSXR	70	0	7	96	96	7
NMSTR	70	288	0
NMSI_	70	288	0	96	96	4
CNSCL	71	96	4	0	48	3
CNSI_	71	144	3	0	48	1
NMSTR	71	192	7
NMSV_	71	192	7	96	96	6
CNSI_	72	0	6	0	48	4
NMSTR	72	96	0
BRSXL	72	96	0	96	96	0
NMTTP	73	0	5	E	0	M1
NMTTP	73	96	6	E	0	M1
NMTTP	73	192	7	E	0	M1
NMSTR	73	288	0
NMSI_	73	288	0	96	48	4
NMSTR	73	288	7
NMSI_	73	288	7	96	48	3
NMTAP	74	144	2
NMTAP	74	144	5
NMTAP	74	192	2
NMHLD	74	192	5	96
NMTAP	74	288	4
NMTAP	75	0	3
NMTAP	75	0	6
NMTTP	75	144	5	E	0	M1
NMTTP	75	168	4	E	0	M1
NMTTP	75	192	3	E	0	M1
EXTAP	75	288	1
NMHLD	76	0	0	48
NMHLD	76	0	1	48
NMHLD	76	96	6	48
NMHLD	76	96	7	48
NMHLD	76	192	4	48
NMHLD	76	192	5	48
NMHLD	76	288	2	48
NMHLD	76	288	3	48
NMHLD	77	0	2	48
NMHLD	77	0	4	48
NMHLD	77	96	3	48
NMHLD	77	96	5	48
NMTAP	77	192	2
NMSTR	77	192	6
NMSI_	77	192	6	96	48	3
BRTAP	77	288	0
BRTAP	77	288	6
NMSTR	78	0	1
NMSI_	78	0	1	96	48	5
NMTAP	78	96	5
NMTAP	78	144	6
NMSTR	78	192	7
NMSI_	78	192	7	96	48	3
NMTAP	78	288	3
NMTAP	78	336	2
NMSTR	79	0	1
NMSI_	79	0	1	96	48	5
NMTAP	79	96	5
NMHLD	79	144	6	96
NMTAP	79	240	4
NMTAP	79	288	4
NMSTR	80	0	0
NMSI_	80	0	0	96	48	4
NMTAP	80	96	4
NMTAP	80	144	5
NMSTR	80	192	6
NMSI_	80	192	6	96	48	2
NMTAP	80	288	2
NMHLD	80	336	1	96
NMTAP	81	48	3
NMTAP	81	96	3
NMSTR	81	192	5
NMSI_	81	192	5	96	48	1
NMTAP	81	288	1
NMHLD	81	336	0	96
NMTAP	82	48	3
NMTAP	82	96	3
NMTAP	82	192	1
NMTAP	82	192	4
NMSTR	82	288	3
NMSCL	82	288	3	96	192	4
NMTAP	82	288	6
NMTTP	83	0	0	C	1	M1
NMTAP	83	288	0
NMTAP	83	288	7
NMHLD	84	0	2	528
NMHLD	84	0	5	528
NMTAP	85	240	1
NMTAP	85	240	4
NMSTR	85	288	1
NMSI_	85	288	1	96	48	6
NMTAP	85	288	4
NMSTR	86	0	6
NMSI_	86	0	6	96	48	4
CNSI_	86	144	4	0	48	7
CNSI_	86	192	7	0	48	3
CNSI_	86	240	3	0	48	0
CNSI_	86	288	0	0	48	2
EXTAP	87	0	5
NMTAP	87	96	2
NMTAP	87	96	4
NMSTR	87	192	0
BRSCR	87	192	0	96	96	4
NMTAP	87	192	6
NMSTR	87	288	4
BRSCR	87	288	4	96	96	0
NMTAP	88	0	0
NMTAP	88	96	4
NMTAP	88	192	4
NMTAP	88	288	3
NMTAP	88	288	5
NMTTP	89	0	1	B	0	M1
NMTTP	89	0	1	E	0	M1
NMTTP	89	0	1	A	1	M1
NMTTP	89	0	2	E	0	M1
NMTTP	89	96	3	B	0	M1
NMTTP	89	96	3	A	0	M1
NMTTP	89	96	4	B	0	M1
NMTTP	89	96	4	E	1	M1
NMTTP	89	96	4	A	0	M1
NMTTP	89	192	6	B	0	M1
NMTTP	89	192	6	E	0	M1
NMTTP	89	192	6	A	1	M1
NMTTP	89	192	7	E	0	M1
NMSTR	90	0	2
NMSV_	90	0	2	96	48	5
NMTAP	90	96	4
NMSTR	90	192	6
NMSV_	90	192	6	96	48	1
NMTAP	90	288	0
NMSTR	91	0	2
NMSV_	91	0	2	96	48	7
NMTAP	91	96	5
NMTAP	91	192	6
NMTAP	91	288	4
NMTAP	91	288	6
NMTAP	92	0	2
NMTAP	92	0	4
NMSTR	92	96	0
NMSV_	92	96	0	96	48	3
NMSTR	92	96	6
NMSV_	92	96	6	96	48	3
NMTAP	92	288	1
NMTAP	92	288	5
NMTAP	93	0	3
NMTAP	93	0	4
NMSTR	93	96	2
NMSI_	93	96	2	96	48	7
NMSTR	93	96	5
NMSI_	93	96	5	96	48	0
NMSTR	94	0	2
NMSCL	94	0	2	96	48	0
NMTAP	94	0	4
NMTAP	94	96	3
NMTAP	94	192	3
NMSTR	94	192	5
NMSCR	94	192	5	96	48	7
NMTAP	94	288	4
NMSTR	95	0	2
NMSCL	95	0	2	96	48	0
NMTAP	95	0	4
NMTAP	95	96	3
NMTAP	95	192	3
NMSTR	95	192	5
NMSCR	95	192	5	96	48	7
NMTAP	95	288	4
NMHLD	96	0	3	48
NMHLD	96	0	4	48
NMTAP	96	96	0
NMTAP	96	96	1
NMHLD	96	192	3	48
NMHLD	96	192	4	48
NMTAP	96	288	6
NMTAP	96	288	7
NMHLD	97	0	3	48
NMHLD	97	0	4	48
NMTAP	97	96	0
NMTAP	97	96	1
NMHLD	97	192	3	48
NMHLD	97	192	4	48
EXTAP	97	288	3
EXTAP	97	288	4
NMTTP	98	0	1	A	0	M1
NMTTP	98	0	2	B	0	M1
NMTTP	98	0	2	E	0	M1
NMTTP	98	0	3	E	0	M1
NMTTP	98	0	3	A	0	M1
NMTTP	98	192	0	A	0	M1
NMTTP	98	192	1	B	0	M1
NMTTP	98	192	1	E	0	M1
NMTTP	98	192	2	E	0	M1
NMTTP	98	192	2	A	0	M1
NMTTP	99	0	4	A	0	M1
NMTTP	99	0	5	B	0	M1
NMTTP	99	0	5	E	0	M1
NMTTP	99	0	6	E	0	M1
NMTTP	99	0	6	A	0	M1
NMTTP	99	192	5	A	0	M1
NMTTP	99	192	6	B	0	M1
NMTTP	99	192	6	E	0	M1
NMTTP	99	192	7	E	0	M1
NMTTP	99	192	7	A	0	M1
NMSTR	100	0	0
NMSCR	100	0	0	96	144	5
NMTAP	100	96	5
NMHLD	100	192	6	192
NMHLD	101	0	0	96
NMTAP	101	96	5
NMTAP	101	128	4
NMTAP	101	160	3
NMTAP	101	192	2
BXTAP	102	0	1
BXHLD	102	0	4	96
NMTAP	102	96	2
NMTAP	102	144	2
NMTAP	102	192	1
NMHLD	102	240	1	96
NMTAP	102	336	3
NMTAP	103	48	0
NMTAP	103	48	7
NMHLD	103	144	4	96
NMTAP	103	144	6
NMTAP	103	240	5
NMTAP	103	288	5
NMHLD	104	0	3	96
NMTAP	104	0	6
NMTAP	104	96	5
NMTAP	104	144	5
NMTAP	104	192	6
NMHLD	104	240	6	96
NMTAP	104	336	4
NMTAP	105	48	0
NMTAP	105	48	7
NMTAP	105	144	1
NMHLD	105	144	3	96
NMTAP	105	240	2
NMTAP	105	288	2
NMSTR	106	0	1
NMSI_	106	0	1	96	96	6
NMTAP	106	0	4
NMTAP	106	96	4
NMTAP	106	192	4
NMTAP	106	288	4
NMSTR	107	0	1
NMSI_	107	0	1	96	96	6
NMTAP	107	0	4
NMTAP	107	96	4
NMTAP	107	192	4
NMTAP	107	288	0
NMTAP	107	288	7
NMHLD	108	0	0	96
NMHLD	108	0	1	96
NMTAP	108	192	6
NMTAP	108	240	6
NMTAP	108	288	7
NMTTP	109	0	2	E	0	M1
NMTTP	109	0	2	A	0	M1
NMTTP	109	0	2	D	1	M1
NMTTP	109	96	3	B	0	M1
NMTTP	109	96	4	B	0	M1
NMTTP	109	96	4	E	1	M1
NMTTP	109	192	5	A	0	M1
NMTTP	109	192	6	E	0	M1
NMTTP	109	192	6	D	1	M1
NMSTR	110	0	6
NMSI_	110	0	6	96	48	4
NMSTR	110	0	7
NMSI_	110	0	7	96	48	3
EXTAP	110	96	6
EXTAP	110	96	7
NMSTR	110	192	6
NMSI_	110	192	6	96	48	4
NMSTR	110	192	7
NMSI_	110	192	7	96	48	3
EXTAP	110	288	6
EXTAP	110	288	7
NMSTR	111	0	0
NMSI_	111	0	0	96	48	4
NMSTR	111	0	1
NMSI_	111	0	1	96	48	3
EXTAP	111	96	0
EXTAP	111	96	1
NMTAP	111	192	0
NMTAP	111	192	1
EXTAP	111	288	2
EXTAP	111	288	7
NMSTR	112	0	3
NMSI_	112	0	3	96	48	1
NMSTR	112	0	5
NMSI_	112	0	5	96	48	7
EXTAP	112	96	3
EXTAP	112	96	5
NMSTR	112	192	2
NMSI_	112	192	2	96	48	0
NMSTR	112	192	4
NMSI_	112	192	4	96	48	6
EXTAP	112	288	2
EXTAP	112	288	4
NMSTR	113	0	3
NMSI_	113	0	3	96	48	1
NMSTR	113	0	5
NMSI_	113	0	5	96	48	7
EXTAP	113	96	3
EXTAP	113	96	5
NMTAP	113	192	2
NMTAP	113	192	4
NMSTR	113	288	1
BRSI_	113	288	1	96	72	6
NMTAP	113	288	5
BRTAP	114	0	7
CNSI_	114	72	6	0	48	0
CNSI_	114	120	0	0	72	4
NMTAP	114	240	6
NMHLD	114	288	6	96
NMHLD	115	0	4	96
NMHLD	115	96	2	96
NMTAP	115	192	0
NMSTR	115	288	0
NMSCR	115	288	0	96	96	5
EXTAP	116	0	6
NMTAP	116	96	7
NMTAP	116	144	7
NMTAP	116	192	7
NMTAP	116	288	4
NMTAP	116	288	6
NMTAP	117	0	1
NMTAP	117	0	3
NMTAP	117	96	3
NMTAP	117	96	5
NMTAP	117	192	6
NMTHO	117	288	0	480	C	0	M1
NMTTP	117	288	2	B	0	M1
NMTTP	117	288	3	B	0	M1
NMTAP	117	288	6
EXSTR	118	0	7
NMSCL	118	0	7	96	48	5
EXSTR	118	96	7
NMSCR	118	96	7	96	48	1
EXSTR	118	192	7
NMSCL	118	192	7	96	48	5
EXSTR	118	288	7
NMSCR	118	288	7	96	48	1
EXSTR	119	0	7
NMSCL	119	0	7	96	48	5
EXTAP	119	96	7
NMTAP	119	192	1
NMTHO	119	288	0	480	C	0	M1
NMTAP	119	288	1
NMTTP	119	288	4	B	0	M1
NMTTP	119	288	5	B	0	M1
EXSTR	120	0	0
NMSCR	120	0	0	96	48	2
EXSTR	120	96	0
NMSCL	120	96	0	96	48	6
EXSTR	120	192	0
NMSCR	120	192	0	96	48	2
EXSTR	120	288	0
NMSCL	120	288	0	96	48	6
EXSTR	121	0	0
NMSCR	121	0	0	96	48	2
EXTAP	121	96	0
NMTAP	121	192	0
NMTAP	121	192	7
NMTAP	121	288	0
NMTAP	121	288	7
BRTAP	122	0	1
BRHLD	122	0	3	48
BRHLD	122	96	2	48
BRTAP	122	96	4
BRTAP	122	192	1
BRHLD	122	192	3	48
BRHLD	122	288	2	48
BRTAP	122	288	4
BRTAP	123	0	4
BRTAP	123	0	5
NMTAP	123	96	3
NMSTR	123	96	6
BRSI_	123	96	6	96	48	1
BRTAP	123	192	6
NMTAP	123	288	2
NMSTR	124	0	3
NMSI_	124	0	3	96	48	0
NMSTR	124	0	4
NMSI_	124	0	4	96	48	7
EXTAP	124	192	1
EXTAP	124	192	6
NMTAP	124	288	2
NMTAP	124	336	4
NMSTR	125	0	1
NMSLR	125	0	1	96	144	5
NMSTR	125	0	5
NMSLR	125	0	5	96	144	1
BRHLD	126	0	3	48
BRHLD	126	0	7	48
BRHLD	126	96	1	48
BRHLD	126	96	4	48
BRHLD	126	192	3	48
BRHLD	126	192	6	48
BRHLD	126	288	1	48
BRHLD	126	288	3	48
BRHLD	127	0	4	48
BRHLD	127	0	6	48
BRHLD	127	96	2	48
BRHLD	127	96	4	48
BRHLD	127	192	1	48
BRHLD	127	192	3	48
BRTAP	127	288	3
BRTAP	127	288	5
EXTAP	128	0	4
EXTAP	128	0	5
EXTAP	128	48	6
EXTAP	128	96	4
EXTAP	128	96	5
EXTAP	128	144	6
EXTAP	128	192	4
EXTAP	128	192	5
EXTAP	128	240	6
EXTAP	128	288	4
EXTAP	128	288	5
EXTAP	128	336	6
EXTAP	129	0	4
EXTAP	129	0	5
EXTAP	129	48	6
EXTAP	129	96	4
EXTAP	129	96	5
EXTAP	129	144	6
EXTAP	129	192	4
EXTAP	129	192	5
EXTAP	129	240	6
EXSTR	129	288	7
NMSI_	129	288	7	96	48	3
BRTAP	130	0	7
NMTAP	130	240	3
NMTAP	130	288	3
NMHLD	131	0	2	96
NMHLD	131	0	5	96
NMTAP	131	144	3
NMTAP	131	144	4
NMTAP	131	240	3
NMTAP	131	240	4
NMTAP	131	288	2
NMTAP	131	288	5
EXSTR	132	0	6
NMSCL	132	0	6	96	48	3
EXSTR	132	0	7
NMSCR	132	0	7	96	48	2
EXSTR	132	192	4
NMSF_	132	192	4	96	48	0
EXSTR	133	0	2
NMSI_	133	0	2	96	48	7
EXSTR	133	0	3
NMSI_	133	0	3	96	48	6
EXTAP	133	192	0
NMSTR	133	288	2
NMSXR	133	288	2	96	240	4
NMSTR	133	288	5
NMSXL	133	288	5	96	240	3
EXHLD	135	0	3	96
EXHLD	135	0	5	96
EXHLD	135	192	2	480
EXTAP	135	192	4
NMTAP	136	0	3
NMTAP	136	96	3
NMTAP	136	192	3
NMTAP	136	288	3
NMTAP	137	0	2
NMTAP	137	0	3
NMSTR	137	96	1
NMSI_	137	96	1	96	48	7
NMTAP	137	96	4
NMTAP	137	192	3
EXTAP	137	240	4
EXTAP	137	288	4
NMSTR	138	0	5
NMSI_	138	0	5	96	48	0
NMTAP	138	96	3
NMTAP	138	144	2
NMSTR	138	192	2
NMSI_	138	192	2	96	48	7
NMTAP	138	288	4
NMTAP	138	336	5
NMTAP	139	0	5
NMTAP	139	96	3
NMTAP	139	96	6
EXHLD	139	192	4	48
EXHLD	139	192	7	48
EXHLD	139	288	4	48
EXHLD	139	288	7	48
NMSTR	140	0	2
NMSI_	140	0	2	96	48	7
NMTAP	140	96	4
NMTAP	140	144	5
NMSTR	140	192	5
NMSI_	140	192	5	96	48	0
NMTAP	140	288	3
NMTAP	140	336	2
NMSTR	141	0	2
NMSI_	141	0	2	96	48	7
NMSTR	141	96	4
NMSV_	141	96	4	96	72	5
EXTAP	141	192	0
CNSI_	141	264	5	0	72	7
NMHLD	142	0	1	288
NMTAP	142	96	0
NMTAP	142	192	0
NMTAP	142	288	7
NMTAP	143	0	6
NMTAP	143	48	6
NMTAP	143	96	4
NMTAP	143	144	4
NMTAP	143	192	3
NMTAP	143	240	3
NMSTR	143	288	1
NMSXR	143	288	1	96	192	4
NMTAP	144	0	4
NMTAP	144	96	5
NMTAP	144	144	5
NMHLD	144	240	6	96
NMTAP	144	336	2
NMTAP	145	48	1
NMTAP	145	48	5
NMTAP	145	96	1
NMTAP	145	96	5
NMSTR	145	192	0
NMSI_	145	192	0	96	48	2
NMSTR	145	192	7
NMSI_	145	192	7	96	48	5
BRTAP	146	0	0
BRTAP	146	0	1
NMSTR	146	96	0
BRSI_	146	96	0	96	96	4
NMSTR	146	96	6
BRSI_	146	96	6	96	48	1
CNSI_	146	240	1	0	48	3
BRTAP	146	336	5

T_REC_TAP	343
T_REC_BRK	31
T_REC_XTP	94
T_REC_BXX	3
T_REC_HLD	95
T_REC_XHO	7
T_REC_BHO	28
T_REC_BXH	1
T_REC_STR	131
T_REC_BST	2
T_REC_XST	18
T_REC_XBS	0
T_REC_TTP	89
T_REC_THO	3
T_REC_SLD	142
T_REC_BSL	10
T_REC_ALL	997
T_NUM_TAP	675
T_NUM_BRK	75
T_NUM_HLD	105
T_NUM_SLD	142
T_NUM_ALL	997
T_JUDGE_TAP	711
T_JUDGE_HLD	186
T_JUDGE_SLD	152
T_JUDGE_ALL	1049
TTM_EACHPAIRS	211
TTM_SCR_TAP	337500
TTM_SCR_BRK	195000
TTM_SCR_HLD	105000
TTM_SCR_SLD	213000
TTM_SCR_ALL	850500
TTM_SCR_S	817750
TTM_SCR_SS	843000
TTM_RAT_ACV	10088

