VERSION	0.00.00	1.04.00
FES_MODE	0
BPM_DEF	240.000	240.000	240.000	240.000
MET_DEF	4	4
RESOLUTION	384
CLK_DEF	384
COMPATIBLE_CODE	MA2

BPM	0	0	240.000
MET	0	0	4	4

NMTAP	2	0	3
NMSTR	2	0	5
NMSUL	2	0	5	96	384	3
NMSTR	4	0	2
NMSUR	4	0	2	96	384	4
NMTAP	4	0	4
NMTAP	6	0	4
NMSTR	6	0	5
NMSI_	6	0	5	96	96	7
NMSTR	7	0	2
NMSI_	7	0	2	96	96	0
NMTAP	7	0	3
NMTAP	8	0	6
NMTAP	8	0	7
NMTAP	8	96	6
NMTAP	8	96	7
NMTAP	8	192	0
NMTAP	8	192	7
NMTAP	8	288	0
NMTAP	8	288	7
NMTAP	9	0	6
NMTAP	9	0	7
NMTAP	9	96	6
NMTAP	9	96	7
NMTAP	9	192	0
NMTAP	9	192	5
NMTAP	10	0	0
NMTAP	10	0	1
NMTAP	10	96	0
NMTAP	10	96	1
NMTAP	10	192	0
NMTAP	10	192	7
NMTAP	10	288	0
NMTAP	10	288	7
NMTAP	11	0	0
NMTAP	11	0	1
NMTAP	11	96	0
NMTAP	11	96	1
NMTAP	11	192	2
NMTAP	11	192	7
NMTAP	12	0	4
NMTAP	12	0	5
NMTAP	12	96	6
NMTAP	12	192	0
NMTAP	12	192	7
NMTAP	12	288	1
NMTAP	13	0	2
NMTAP	13	0	3
NMTAP	13	96	1
NMTAP	13	192	0
NMTAP	13	192	7
NMTAP	13	288	0
NMTAP	13	288	7
EXHLD	14	0	1	96
EXHLD	14	0	6	96
NMTAP	14	144	1
NMTAP	14	144	6
NMTAP	14	240	1
NMTAP	14	240	6
NMSTR	14	336	0
NMSI_	14	336	0	96	144	3
NMSTR	14	336	7
NMSI_	14	336	7	96	144	4
NMTAP	16	0	2
NMTAP	16	0	3
NMTAP	16	96	2
NMTAP	16	96	3
NMTAP	16	288	0
NMTAP	16	288	1
NMTAP	17	96	4
NMTAP	17	96	5
NMTAP	17	288	6
NMTAP	17	288	7
NMTAP	18	96	1
NMTAP	18	96	3
NMTAP	18	288	0
NMTAP	18	288	1
NMTAP	19	96	4
NMTAP	19	96	6
NMTAP	19	288	6
NMTAP	19	288	7
NMHLD	20	0	6	192
NMHLD	20	192	4	192
NMHLD	21	0	3	192
NMHLD	21	192	1	192
NMSTR	22	0	0
NMSUL	22	0	0	96	144	4
NMTAP	23	0	2
NMTAP	23	96	1
NMTAP	23	192	0
NMTAP	23	192	7
NMTAP	24	0	4
NMTAP	24	0	5
NMTAP	24	96	4
NMTAP	24	96	5
NMTAP	24	288	6
NMTAP	24	288	7
NMTAP	25	96	2
NMTAP	25	96	4
NMTAP	25	288	0
NMTAP	25	288	1
NMTAP	26	96	3
NMTAP	26	96	5
NMTAP	26	288	6
NMTAP	26	288	7
NMTAP	27	96	2
NMTAP	27	96	3
NMTAP	27	288	0
NMTAP	27	288	1
NMTAP	28	0	0
NMTAP	28	0	1
NMTAP	28	96	2
NMTAP	28	192	3
NMTAP	28	192	4
NMTAP	28	288	5
NMSTR	29	0	6
NMSXL	29	0	6	96	240	7
NMTAP	29	0	7
CNSI_	29	336	7	0	144	4
NMSTR	32	0	6
NMSCL	32	0	6	96	144	3
NMSTR	33	0	2
NMSCL	33	0	2	96	144	7
NMSTR	34	0	5
NMSSR	34	0	5	96	192	1
EXTAP	35	0	0
EXTAP	35	96	0
NMTAP	35	192	1
NMTAP	35	192	5
NMTTP	36	0	0	E	0	M1
NMTTP	36	96	7	E	0	M1
NMTTP	36	192	6	E	0	M1
NMTTP	36	288	5	E	0	M1
NMTTP	37	0	4	E	0	M1
NMTTP	37	96	3	E	0	M1
NMTTP	37	192	2	E	0	M1
EXSTR	38	0	0
NMSUR	38	0	0	96	96	4
NMSTR	39	0	7
NMSUL	39	0	7	96	96	3
NMTAP	40	0	1
NMTAP	40	96	1
NMTAP	40	192	0
NMTAP	40	192	1
NMTAP	40	288	0
NMTAP	40	288	1
NMTAP	41	0	2
NMTAP	41	96	2
NMTAP	41	192	2
NMTAP	41	192	3
NMTAP	41	288	2
NMTAP	41	288	3
NMSTR	42	0	4
NMSF_	42	0	4	96	96	0
NMSTR	43	0	3
NMSF_	43	0	3	96	96	7
NMTTP	44	0	6	B	0	M1
NMTTP	44	0	7	E	1	M1
NMTTP	44	192	4	B	0	M1
NMTTP	44	192	5	E	1	M1
NMTTP	45	0	0	B	0	M1
NMTTP	45	0	1	E	1	M1
NMTTP	45	192	2	B	0	M1
NMTTP	45	192	3	E	1	M1
NMSTR	46	0	0
NMSCR	46	0	0	96	96	3
NMSTR	46	0	7
NMSCL	46	0	7	96	96	4
EXTAP	47	0	2
EXTAP	47	0	5
EXTAP	47	96	2
EXTAP	47	96	5
EXTAP	47	192	0
EXTAP	47	192	7
NMTAP	48	0	0
NMTAP	48	0	1
NMTAP	48	96	2
NMTAP	48	192	6
NMTAP	48	192	7
NMTAP	48	288	5
NMTAP	49	0	0
NMTAP	49	0	1
NMTAP	49	96	2
NMTAP	49	192	6
NMTAP	49	192	7
NMTAP	49	288	6
NMTAP	49	288	7
NMTAP	50	0	4
NMTAP	50	0	5
NMTAP	50	96	6
NMTAP	50	192	2
NMTAP	50	192	3
NMTAP	50	288	1
NMTAP	51	0	4
NMTAP	51	0	5
NMTAP	51	96	7
NMTAP	51	192	2
NMTAP	51	192	3
NMTAP	51	288	0
NMSTR	52	0	1
NMSI_	52	0	1	96	96	4
NMSTR	52	192	6
NMSI_	52	192	6	96	96	3
NMSTR	53	0	0
NMSI_	53	0	0	96	96	4
NMTAP	53	192	5
NMTAP	53	288	5
NMTAP	54	0	4
NMTAP	54	0	6
NMTAP	54	96	4
NMTAP	54	96	6
NMTAP	54	192	0
NMTAP	54	192	7
NMSTR	54	288	0
NMSI_	54	288	0	96	96	4
NMSTR	54	288	7
NMSI_	54	288	7	96	96	3
NMTAP	55	192	1
NMTAP	55	192	6
NMTAP	56	0	6
NMTAP	56	0	7
NMTAP	56	96	5
NMTAP	56	192	0
NMTAP	56	192	1
NMTAP	56	288	2
NMTAP	57	0	6
NMTAP	57	0	7
NMTAP	57	96	5
NMTAP	57	192	0
NMTAP	57	192	1
NMTAP	57	288	0
NMTAP	57	288	1
NMTAP	58	0	2
NMTAP	58	0	3
NMTAP	58	96	1
NMTAP	58	192	4
NMTAP	58	192	5
NMTAP	58	288	6
NMTAP	59	0	1
NMTAP	59	0	3
NMTAP	59	96	0
NMTAP	59	192	4
NMTAP	59	192	6
NMTAP	59	288	7
NMSTR	60	0	0
NMSUR	60	0	0	96	96	4
NMSTR	60	0	1
NMSUL	60	0	1	96	96	5
BRTAP	61	0	4
BRTAP	61	0	5
BRTAP	61	144	2
BRTAP	61	144	3
BRTAP	61	288	0
BRTAP	61	288	7
BRTAP	62	0	0
BRTAP	62	0	7
NMTAP	63	0	6
NMTAP	63	0	7
NMTAP	63	96	6
NMTAP	63	96	7
NMTAP	63	192	0
NMTAP	63	192	5
NMTAP	64	0	0
NMTAP	64	0	1
NMTAP	64	96	0
NMTAP	64	96	1
NMTAP	64	192	0
NMTAP	64	192	7
NMTAP	64	288	0
NMTAP	64	288	7
NMTAP	65	0	0
NMTAP	65	0	1
NMTAP	65	96	0
NMTAP	65	96	1
NMHLD	65	192	2	96
NMHLD	65	192	7	96
NMTAP	66	0	0
NMTAP	66	0	1
NMTAP	66	96	2
NMTAP	66	192	3
NMTAP	66	192	4
NMTAP	66	288	5
NMTAP	67	0	6
NMTAP	67	0	7
NMTAP	67	96	5
NMTAP	67	192	3
NMTAP	67	192	4
NMTAP	67	288	2
NMTAP	67	288	5
NMHLD	68	0	1	96
NMHLD	68	0	6	96
NMTAP	68	144	1
NMTAP	68	144	6
NMTAP	68	240	0
NMTAP	68	240	7
NMSTR	68	336	0
NMSI_	68	336	0	96	144	3
NMSTR	68	336	7
NMSI_	68	336	7	96	144	4
NMHLD	70	0	2	768
NMTAP	70	192	3
NMTAP	71	192	3
NMHLD	72	0	5	768
NMTAP	72	192	4
NMTAP	73	192	4
NMHLD	74	0	1	192
NMHLD	74	192	3	192
NMHLD	75	0	4	192
NMHLD	75	192	6	192
NMSTR	76	0	7
NMSUR	76	0	7	96	192	3
NMTAP	77	0	5
NMTAP	77	96	6
BRTAP	77	192	0
BRTAP	77	192	7
NMTAP	78	0	0
NMTAP	78	0	1
NMTAP	78	96	0
NMTAP	78	96	1
NMTAP	78	288	4
NMTAP	78	288	5
NMTAP	79	96	2
NMTAP	79	96	3
NMTAP	79	288	6
NMTAP	79	288	7
NMTAP	80	96	0
NMTAP	80	96	1
NMTAP	80	288	4
NMTAP	80	288	6
NMTAP	81	96	1
NMTAP	81	96	3
NMTAP	81	288	6
NMTAP	81	288	7
NMTAP	82	0	6
NMTAP	82	0	7
NMTAP	82	96	5
NMTAP	82	192	3
NMTAP	82	192	4
NMTAP	82	288	2
NMTAP	83	0	0
NMSTR	83	0	1
NMSI_	83	0	1	96	96	3
CNSCR	83	192	3	0	96	4
CNSI_	83	288	4	0	96	6
NMSTR	86	0	1
NMSCR	86	0	1	96	144	4
NMSTR	87	0	5
NMSCR	87	0	5	96	144	0
NMSTR	88	0	2
NMSSL	88	0	2	96	192	6
EXTAP	89	0	7
EXTAP	89	96	7
NMTAP	89	192	2
NMTAP	89	192	6
NMTTP	90	0	0	E	0	M1
NMTTP	90	96	1	E	0	M1
NMTTP	90	192	2	E	0	M1
NMTTP	90	288	3	E	0	M1
NMTTP	91	0	4	E	0	M1
NMTTP	91	96	5	E	0	M1
NMTTP	91	192	6	E	0	M1
NMSTR	92	0	1
NMSV_	92	0	1	96	144	4
NMSTR	92	0	7
NMSV_	92	0	7	96	144	4
NMSTR	93	0	3
NMSI_	93	0	3	96	144	0
NMSTR	93	0	5
NMSI_	93	0	5	96	144	0
NMTAP	94	0	6
NMTAP	94	96	6
NMTAP	94	192	6
NMTAP	94	192	7
NMTAP	94	288	6
NMTAP	94	288	7
NMTAP	95	0	5
NMTAP	95	96	5
NMTAP	95	192	4
NMTAP	95	192	5
NMTAP	95	288	4
NMTAP	95	288	5
NMSTR	96	0	4
NMSCL	96	0	4	96	144	1
NMSTR	96	0	5
NMSUL	96	0	5	96	144	0
NMSTR	97	0	0
NMSUL	97	0	0	96	144	3
NMSTR	97	0	7
NMSCL	97	0	7	96	144	4
NMTTP	98	0	2	B	0	M1
NMTTP	98	0	3	E	1	M1
NMTTP	98	192	0	B	0	M1
NMTTP	98	192	1	E	1	M1
NMTTP	99	0	6	B	0	M1
NMTTP	99	0	7	E	1	M1
NMTTP	99	192	4	B	0	M1
NMTTP	99	192	5	E	1	M1
NMSTR	100	0	1
NMSUL	100	0	1	96	192	4
NMSTR	100	0	7
NMSUR	100	0	7	96	192	4
NMTAP	101	96	1
NMTAP	101	96	7
NMTAP	101	192	1
NMTAP	101	192	7
NMHLD	102	0	4	192
NMHLD	102	0	5	192
NMTAP	102	336	4
NMTAP	102	336	5
NMTAP	103	48	4
NMTAP	103	48	5
NMTAP	103	144	3
NMTAP	103	144	6
NMHLD	104	0	2	192
NMHLD	104	0	3	192
NMTAP	104	336	2
NMTAP	104	336	3
NMTAP	105	48	2
NMTAP	105	48	3
NMTAP	105	144	1
NMTAP	105	144	4
NMTAP	106	0	0
NMTAP	106	96	1
NMTAP	106	192	2
NMTAP	106	288	3
NMTAP	107	0	4
NMTAP	107	96	5
NMTAP	107	192	6
NMTAP	107	288	7
NMTAP	108	0	0
NMTAP	108	0	1
NMTAP	108	96	2
NMTAP	108	192	3
NMTAP	108	192	4
NMTAP	108	288	5
NMTAP	109	0	6
NMTAP	109	0	7
NMTAP	109	96	6
NMTAP	109	96	7
BRTAP	109	192	0
BRTAP	109	192	5
NMTAP	110	0	0
NMTAP	110	0	1
NMTAP	110	96	2
NMTAP	110	192	6
NMTAP	110	192	7
NMTAP	110	288	5
NMTAP	111	0	0
NMTAP	111	0	1
NMTAP	111	96	3
NMTAP	111	192	6
NMTAP	111	192	7
NMTAP	111	288	4
NMTAP	112	0	2
NMTAP	112	0	3
NMTAP	112	96	0
NMTAP	112	192	4
NMTAP	112	192	5
NMTAP	112	288	7
NMTAP	113	0	2
NMTAP	113	0	3
NMTAP	113	96	0
NMTAP	113	192	4
NMTAP	113	192	5
NMTAP	113	288	7
NMSTR	114	0	2
NMSI_	114	0	2	96	96	7
NMTAP	114	0	3
NMSTR	114	192	5
NMSI_	114	192	5	96	96	0
NMSTR	115	0	3
NMSI_	115	0	3	96	96	7
NMTAP	115	192	6
NMTAP	115	288	6
NMTAP	116	0	4
NMTAP	116	0	5
NMTAP	116	96	6
NMTAP	116	192	0
NMTAP	116	192	7
NMSTR	116	288	0
NMSCR	116	288	0	96	96	3
NMSTR	116	288	7
NMSV_	116	288	7	96	96	4
NMTAP	117	192	2
NMTAP	117	192	5
NMTAP	118	0	6
NMTAP	118	0	7
NMTAP	118	96	2
NMTAP	118	96	4
NMTAP	118	192	0
NMTAP	118	192	1
NMTAP	118	288	3
NMTAP	118	288	5
NMTAP	119	0	6
NMTAP	119	0	7
NMTAP	119	96	2
NMTAP	119	96	4
NMTAP	119	192	0
NMTAP	119	192	1
NMTAP	119	288	3
NMTAP	119	288	5
NMTAP	120	0	0
NMTAP	120	0	1
NMTAP	120	96	2
NMTAP	120	96	4
NMTAP	120	192	6
NMTAP	120	192	7
NMTAP	120	288	3
NMTAP	120	288	5
NMTAP	121	0	0
NMTAP	121	0	1
NMTAP	121	96	2
NMTAP	121	96	4
NMTAP	121	192	6
NMTAP	121	192	7
NMTAP	121	288	3
NMTAP	121	288	5
NMSTR	122	0	0
NMSI_	122	0	0	96	96	3
NMSTR	122	0	1
NMSI_	122	0	1	96	96	4
NMSTR	123	0	4
NMSUR	123	0	4	96	96	0
NMSTR	123	0	5
NMSCR	123	0	5	96	96	7
NMTAP	124	0	0
NMTAP	124	0	7
NMTAP	124	96	6
NMTAP	124	192	1
NMTAP	124	192	5
NMTAP	124	288	2
NMTAP	125	0	3
NMTAP	125	0	6
NMTAP	125	96	5
NMTAP	125	192	0
NMTAP	125	192	4
EXTAP	126	0	6
EXTAP	126	0	7
EXTAP	126	96	4
EXTAP	126	96	5
EXTAP	126	192	2
EXTAP	126	192	3
EXTAP	126	288	0
EXTAP	126	288	1
EXTAP	127	0	6
EXTAP	127	0	7
EXTAP	127	96	4
EXTAP	127	96	5
EXTAP	127	192	2
EXTAP	127	192	3
EXTAP	127	288	0
EXTAP	127	288	1
NMTAP	128	0	0
NMTAP	128	0	1
NMTAP	128	96	2
NMTAP	128	96	3
NMTAP	128	192	4
NMTAP	128	192	5
NMTAP	128	288	6
NMTAP	128	288	7
NMTAP	129	0	0
NMTAP	129	0	1
NMTAP	129	96	2
NMTAP	129	96	3
NMTAP	129	192	4
NMTAP	129	192	5
NMTAP	129	288	6
NMTAP	129	288	7
NMSTR	130	0	0
NMSI_	130	0	0	96	96	5
NMSTR	130	0	1
NMSI_	130	0	1	96	96	5
EXTAP	131	0	4
EXTAP	131	0	6
EXTAP	131	144	1
EXTAP	131	144	3
EXTAP	131	288	0
EXTAP	131	288	7
NMSTR	132	0	0
NMSXL	132	0	0	96	480	3
NMSTR	132	0	7
NMSXR	132	0	7	96	480	4
NMHLD	134	0	2	288
NMHLD	134	0	5	288
NMTAP	135	0	1
NMTAP	135	0	4
NMTAP	135	192	3
NMTAP	135	192	6
NMTAP	136	0	6
NMTAP	136	96	5
NMTAP	136	192	3
NMTAP	136	192	4
NMTAP	136	288	2
NMTAP	137	0	1
NMTAP	137	96	0
NMTAP	137	96	7
BRTAP	137	192	1
BRTAP	137	192	6
NMTAP	138	0	3
NMTAP	138	96	3
NMTAP	138	192	2
NMTAP	138	192	4
NMTAP	138	288	2
NMTAP	138	288	4
NMTAP	139	0	1
NMTAP	139	0	3
NMTAP	139	96	1
NMTAP	139	96	3
NMTAP	139	192	4
NMTAP	139	288	5
NMTAP	140	0	4
NMTAP	140	0	6
NMTAP	140	96	4
NMTAP	140	96	6
NMTAP	140	192	3
NMTAP	140	192	5
NMTAP	140	288	3
NMTAP	140	288	5
NMTAP	141	0	4
NMTAP	141	0	6
NMTAP	141	96	4
NMTAP	141	96	6
NMHLD	141	192	3	96
NMHLD	141	192	7	96
NMSTR	142	0	1
NMSI_	142	0	1	96	96	5
NMTAP	142	0	5
NMTAP	142	192	7
NMTAP	143	0	2
NMSTR	143	0	6
NMSI_	143	0	6	96	96	2
NMTAP	143	192	0
EXHLD	144	0	1	96
EXHLD	144	0	3	96
EXTAP	144	144	1
EXTAP	144	144	3
NMTAP	144	240	2
NMTAP	144	240	4
NMTAP	144	336	3
NMSTR	144	336	5
NMSUL	144	336	5	96	192	4
NMTAP	146	0	2
NMTAP	146	0	5
NMTAP	146	96	1
NMTAP	146	96	6
NMTAP	146	192	0
NMTAP	146	192	7
NMSTR	146	240	0
BRSI_	146	240	0	96	96	4
NMSTR	146	240	7
BRSI_	146	240	7	96	96	3

T_REC_TAP	426
T_REC_BRK	14
T_REC_XTP	34
T_REC_BXX	0
T_REC_HLD	22
T_REC_XHO	4
T_REC_BHO	0
T_REC_BXH	0
T_REC_STR	58
T_REC_BST	0
T_REC_XST	1
T_REC_XBS	0
T_REC_TTP	30
T_REC_THO	0
T_REC_SLD	57
T_REC_BSL	2
T_REC_ALL	648
T_NUM_TAP	549
T_NUM_BRK	16
T_NUM_HLD	26
T_NUM_SLD	57
T_NUM_ALL	648
T_JUDGE_TAP	563
T_JUDGE_HLD	56
T_JUDGE_SLD	59
T_JUDGE_ALL	678
TTM_EACHPAIRS	226
TTM_SCR_TAP	274500
TTM_SCR_BRK	41600
TTM_SCR_HLD	26000
TTM_SCR_SLD	85500
TTM_SCR_ALL	427600
TTM_SCR_S	413250
TTM_SCR_SS	426000
TTM_RAT_ACV	10037

