VERSION	0.00.00	1.04.00
FES_MODE	0
BPM_DEF	240.000	240.000	240.000	240.000
MET_DEF	4	4
RESOLUTION	384
CLK_DEF	384
COMPATIBLE_CODE	MA2

BPM	0	0	240.000
MET	0	0	4	4

NMSTR	2	0	1
NMSSR	2	0	1	96	432	5
NMSTR	4	0	6
NMSSL	4	0	6	96	432	2
NMSTR	6	0	1
NMSI_	6	0	1	96	288	5
NMTAP	8	0	6
NMTAP	9	0	5
NMTAP	10	0	4
NMTAP	11	0	3
NMTAP	12	0	2
NMTAP	13	0	1
NMHLD	14	0	0	384
NMHLD	14	0	7	384
NMTAP	16	0	1
NMTAP	16	192	1
NMTAP	17	0	2
NMTAP	17	192	2
NMTAP	18	0	3
NMTAP	18	192	3
NMTAP	19	0	4
NMTAP	19	0	5
NMTAP	20	0	6
NMTAP	20	192	6
NMTAP	21	0	5
NMTAP	21	192	5
NMTAP	22	0	4
NMTAP	22	192	4
NMTAP	23	0	2
NMTAP	23	0	3
NMTAP	24	0	1
NMTAP	24	192	1
NMTAP	25	0	0
NMTAP	25	192	0
NMTAP	26	0	7
NMTAP	26	192	7
NMTAP	27	0	6
NMTAP	27	192	6
NMTAP	28	0	4
NMTAP	28	0	5
NMTAP	28	192	4
NMTAP	28	192	5
NMTAP	29	0	2
NMTAP	29	0	3
NMTAP	29	192	2
NMTAP	29	192	3
BRTAP	30	0	3
BRTAP	30	0	4
NMHLD	32	0	2	384
NMHLD	33	0	3	384
NMHLD	34	0	4	384
NMTAP	35	0	5
NMHLD	36	0	5	384
NMHLD	37	0	4	384
NMHLD	38	0	3	384
NMTAP	39	0	2
NMHLD	40	0	1	384
NMHLD	41	0	2	384
NMHLD	42	0	3	384
NMTAP	43	0	4
NMHLD	44	0	6	384
NMHLD	45	0	5	384
NMHLD	46	0	4	384
BRTAP	47	0	3
NMTAP	48	0	2
NMTAP	48	96	2
NMTAP	48	192	2
NMTAP	49	0	1
NMTAP	49	96	1
NMTAP	49	192	1
NMTAP	50	0	0
NMTAP	50	96	0
NMTAP	50	192	0
NMTAP	51	0	6
NMTAP	51	0	7
NMTAP	51	96	6
NMTAP	51	96	7
NMTAP	51	192	6
NMTAP	51	192	7
NMTAP	52	0	5
NMTAP	52	96	5
NMTAP	52	192	5
NMTAP	53	0	6
NMTAP	53	96	6
NMTAP	53	192	6
NMTAP	54	0	7
NMTAP	54	96	7
NMTAP	54	192	7
NMTAP	55	0	0
NMTAP	55	0	1
NMTAP	55	96	0
NMTAP	55	96	1
NMTAP	55	192	0
NMTAP	55	192	1
NMTAP	56	0	2
NMTAP	56	96	2
NMTAP	56	192	2
NMTAP	56	192	3
NMTAP	57	0	1
NMTAP	57	96	1
NMTAP	57	192	0
NMTAP	57	192	1
NMTAP	58	0	6
NMTAP	58	96	6
NMTAP	58	192	6
NMTAP	58	192	7
NMTAP	59	0	5
NMTAP	59	96	5
NMTAP	59	192	4
NMTAP	59	192	5
NMTAP	60	0	2
NMTAP	60	0	3
NMTAP	60	96	2
NMTAP	60	96	3
NMTAP	60	192	2
NMTAP	60	192	3
NMTAP	61	0	4
NMTAP	61	0	5
NMTAP	61	96	4
NMTAP	61	96	5
NMTAP	61	192	4
NMTAP	61	192	5
NMTAP	62	0	6
NMTAP	62	192	5
NMTAP	63	0	4
NMTAP	63	192	3
NMTAP	64	0	2
NMTAP	64	192	1
NMTAP	65	0	0
NMTAP	65	0	7
NMTAP	66	0	1
NMTAP	66	192	2
NMTAP	67	0	3
NMTAP	67	192	4
NMTAP	68	0	5
NMTAP	68	192	6
NMTAP	69	0	0
NMTAP	69	0	7
NMTTP	70	0	6	B	0	L1
NMTTP	70	192	5	B	0	L1
NMTTP	71	0	4	B	0	L1
NMTTP	72	0	1	B	0	L1
NMTTP	72	192	2	B	0	L1
NMTTP	73	0	3	B	0	L1
NMTTP	74	0	7	B	0	L1
NMTTP	74	192	6	B	0	L1
NMTTP	75	0	4	B	0	L1
NMTTP	75	0	5	B	0	L1
NMTTP	76	0	0	B	0	L1
NMTTP	76	192	1	B	0	L1
NMTTP	77	0	2	B	0	L1
NMTTP	77	0	3	B	0	L1
NMTTP	78	0	6	B	0	L1
NMTTP	78	192	5	B	0	L1
NMTTP	79	0	4	B	0	L1
NMTTP	79	192	3	B	0	L1
NMTTP	80	0	2	B	0	L1
NMTTP	80	192	1	B	0	L1
NMTTP	81	0	0	B	0	L1
NMTTP	81	0	7	B	0	L1
NMTTP	82	0	2	B	0	L1
NMTTP	82	192	3	B	0	L1
NMTTP	83	0	4	B	0	L1
NMTTP	83	192	5	B	0	L1
NMTTP	84	0	0	C	1	L1
NMTAP	86	0	1
NMTAP	86	96	1
NMTAP	86	192	1
NMTAP	87	0	2
NMTAP	87	96	2
NMTAP	87	192	2
NMTAP	88	0	3
NMTAP	88	96	3
NMTAP	88	192	3
NMTAP	89	0	4
NMTAP	89	96	4
NMTAP	89	192	4
NMTAP	90	0	5
NMTAP	90	96	5
NMTAP	90	192	5
NMTAP	91	0	6
NMTAP	91	96	6
NMTAP	91	192	6
NMTAP	92	0	4
NMTAP	92	0	5
NMTAP	92	96	4
NMTAP	92	96	5
NMTAP	92	192	4
NMTAP	92	192	5
NMTAP	93	0	2
NMTAP	93	0	3
NMTAP	93	96	2
NMTAP	93	96	3
NMTAP	93	192	2
NMTAP	93	192	3
NMHLD	94	0	1	192
NMTAP	94	192	0
NMTAP	95	0	1
NMTAP	95	96	1
NMTAP	95	192	0
NMTAP	95	192	1
NMHLD	96	0	6	192
NMTAP	96	192	7
NMTAP	97	0	6
NMTAP	97	96	6
NMTAP	97	192	6
NMTAP	97	192	7
NMTAP	98	0	4
NMTAP	98	0	5
NMTAP	98	192	6
NMTAP	98	192	7
NMTAP	99	0	0
NMTAP	99	0	1
NMTAP	99	192	2
NMTAP	99	192	3
NMTAP	100	0	4
NMTAP	100	96	4
NMTAP	100	192	3
NMTAP	100	288	3
BRTAP	101	0	2
BRTAP	101	0	5
NMSTR	102	0	6
NMSUL	102	0	6	96	480	3
NMSTR	104	0	1
NMSUR	104	0	1	96	480	4
NMSTR	106	0	6
NMSI_	106	0	6	96	192	3
NMSTR	107	0	1
NMSI_	107	0	1	96	192	4
NMSTR	108	0	6
NMSI_	108	0	6	96	192	2
NMTAP	109	0	1
NMTAP	109	96	1
EXTAP	109	192	0
EXTAP	109	192	7
NMTAP	110	0	6
NMTAP	110	96	6
NMTAP	110	192	6
NMTAP	110	192	7
NMTAP	111	0	5
NMTAP	111	96	5
NMTAP	111	192	4
NMTAP	111	192	5
NMTAP	112	0	3
NMTAP	112	96	3
NMTAP	112	192	2
NMTAP	112	192	3
NMTAP	113	0	0
NMTAP	113	0	1
NMTAP	113	96	0
NMTAP	113	96	1
NMTAP	113	192	0
NMTAP	113	192	1
NMTAP	114	0	1
NMTAP	114	96	1
NMTAP	114	192	0
NMTAP	114	192	1
NMTAP	115	0	2
NMTAP	115	96	2
NMTAP	115	192	2
NMTAP	115	192	3
NMTAP	116	0	4
NMTAP	116	96	4
NMTAP	116	192	4
NMTAP	116	192	5
NMTAP	117	0	6
NMTAP	117	0	7
NMTAP	117	96	6
NMTAP	117	96	7
NMTAP	117	192	6
NMTAP	117	192	7
NMTAP	118	0	5
NMTAP	118	96	5
NMTAP	118	192	6
NMTAP	118	288	6
NMTAP	119	0	7
NMTAP	119	96	7
NMTAP	119	192	0
NMTAP	119	192	1
NMTAP	120	0	2
NMTAP	120	96	2
NMTAP	120	192	1
NMTAP	120	288	1
NMTAP	121	0	0
NMTAP	121	96	0
NMTAP	121	192	6
NMTAP	121	192	7
NMTAP	122	0	6
NMTAP	122	96	6
NMTAP	122	192	5
NMTAP	122	288	5
NMTAP	123	0	4
NMTAP	123	96	4
NMTAP	123	192	2
NMTAP	123	192	3
NMTAP	124	0	1
NMTAP	124	96	1
NMTAP	124	192	2
NMTAP	124	288	2
NMTAP	125	0	3
NMTAP	125	96	3
NMTAP	125	192	4
NMTAP	125	192	5
NMTAP	126	0	5
NMTAP	126	96	5
NMTAP	126	192	6
NMTAP	126	192	7
NMTAP	126	288	6
NMTAP	126	288	7
NMTAP	127	0	0
NMTAP	127	96	0
NMTAP	127	192	0
NMTAP	127	192	1
NMTAP	128	0	2
NMTAP	128	96	2
NMTAP	128	192	0
NMTAP	128	192	1
NMTAP	128	288	0
NMTAP	128	288	1
NMTAP	129	0	7
NMTAP	129	96	7
NMTAP	129	192	6
NMTAP	129	192	7
NMTAP	130	0	5
NMTAP	130	96	5
NMTAP	130	192	4
NMTAP	130	192	5
NMTAP	130	288	4
NMTAP	130	288	5
NMTAP	131	0	2
NMTAP	131	96	2
NMTAP	131	192	2
NMTAP	131	192	3
NMTAP	131	288	2
NMTAP	131	288	3
NMHLD	132	0	3	384
NMHLD	132	0	4	384
EXTAP	134	0	2
EXTAP	134	0	5
NMTAP	135	0	1
NMTAP	135	0	6
NMTAP	135	192	1
NMTAP	135	192	6
NMHLD	136	0	0	384
NMHLD	136	0	7	384
NMTAP	138	0	1
NMTAP	138	96	1
NMTAP	138	192	2
NMTAP	138	288	2
NMTAP	139	0	3
NMTAP	139	96	3
NMTAP	139	192	4
NMTAP	139	288	4
NMTAP	140	0	5
NMTAP	140	96	5
NMTAP	140	192	6
NMTAP	140	288	6
NMTAP	141	0	0
NMTAP	141	0	7
NMTAP	142	0	6
NMTAP	142	96	6
NMTAP	142	192	5
NMTAP	142	288	5
NMTAP	143	0	4
NMTAP	143	96	4
NMTAP	143	192	3
NMTAP	143	288	3
NMTAP	144	0	2
NMTAP	144	96	2
NMTAP	144	192	1
NMTAP	144	288	1
NMTAP	145	0	0
NMTAP	145	0	7
NMTAP	146	0	1
NMTAP	146	0	6
NMTAP	146	96	1
NMTAP	146	96	6
NMHLD	146	192	1	144
NMHLD	146	192	6	144

T_REC_TAP	305
T_REC_BRK	5
T_REC_XTP	4
T_REC_BXX	0
T_REC_HLD	22
T_REC_XHO	0
T_REC_BHO	0
T_REC_BXH	0
T_REC_STR	8
T_REC_BST	0
T_REC_XST	0
T_REC_XBS	0
T_REC_TTP	27
T_REC_THO	0
T_REC_SLD	8
T_REC_BSL	0
T_REC_ALL	379
T_NUM_TAP	344
T_NUM_BRK	5
T_NUM_HLD	22
T_NUM_SLD	8
T_NUM_ALL	379
T_JUDGE_TAP	349
T_JUDGE_HLD	80
T_JUDGE_SLD	8
T_JUDGE_ALL	437
TTM_EACHPAIRS	76
TTM_SCR_TAP	172000
TTM_SCR_BRK	13000
TTM_SCR_HLD	22000
TTM_SCR_SLD	12000
TTM_SCR_ALL	219000
TTM_SCR_S	211950
TTM_SCR_SS	218500
TTM_RAT_ACV	10022

