VERSION	0.00.00	1.04.00
FES_MODE	0
BPM_DEF	170.000	170.000	170.000	170.000
MET_DEF	4	4
RESOLUTION	384
CLK_DEF	384
COMPATIBLE_CODE	MA2

BPM	0	0	170.000
MET	0	0	4	4
MET	68	0	4	2
MET	68	192	4	4

NMTTP	1	288	5	E	0	M1
NMTTP	1	336	4	E	0	M1
NMTTP	2	0	3	E	0	M1
NMHLD	2	96	1	96
NMTAP	2	192	3
NMTAP	2	264	3
NMTAP	2	264	4
NMTAP	2	336	4
NMTAP	2	336	6
NMTAP	3	0	4
NMTAP	3	0	6
NMTAP	3	96	0
NMTAP	3	96	7
NMTAP	3	192	1
NMTAP	3	192	3
NMTTP	3	288	3	E	0	M1
NMTTP	3	336	4	E	0	M1
NMTTP	4	0	5	E	0	M1
NMHLD	4	96	6	96
NMTAP	4	192	4
NMTAP	4	264	3
NMTAP	4	264	4
NMTAP	4	336	1
NMTAP	4	336	3
NMHLD	5	0	1	48
NMHLD	5	0	3	48
NMHLD	5	96	4	48
NMHLD	5	96	6	48
NMHLD	5	192	1	48
NMHLD	5	192	3	48
NMTTP	5	288	3	E	0	M1
NMTTP	5	336	4	E	0	M1
NMTTP	6	0	5	E	0	M1
NMHLD	6	96	6	96
NMTAP	6	192	4
NMTAP	6	264	3
NMTAP	6	264	4
NMTAP	6	336	1
NMTAP	6	336	3
NMTAP	7	0	1
NMTAP	7	0	3
NMTAP	7	96	0
NMTAP	7	96	7
NMTAP	7	192	4
NMTAP	7	192	6
NMTTP	7	288	5	E	0	M1
NMTTP	7	336	4	E	0	M1
NMTTP	8	0	3	E	0	M1
NMHLD	8	96	1	96
NMTAP	8	192	3
NMTAP	8	264	3
NMTAP	8	264	4
NMTAP	8	336	4
NMTAP	8	336	6
NMHLD	9	0	7	192
NMSTR	9	192	0
NMSI_	9	192	0	96	48	4
NMTAP	9	216	6
NMTAP	9	240	0
NMTAP	9	264	6
EXTAP	9	288	0
NMTTP	10	0	2	E	0	M1
NMTTP	10	0	2	A	1	M1
NMTTP	10	0	2	D	0	M1
NMTTP	10	0	5	A	0	M1
NMTTP	10	0	6	E	0	M1
NMTTP	10	0	6	D	0	M1
EXTAP	10	96	0
EXTAP	10	96	7
NMTAP	10	192	1
NMTAP	10	192	4
NMTAP	10	240	5
NMTAP	10	264	4
NMTAP	10	288	6
NMTAP	10	336	6
NMTAP	11	0	0
NMTAP	11	0	5
NMTAP	11	48	2
NMTAP	11	72	3
NMSTR	11	96	1
NMSCR	11	96	1	96	48	4
NMTAP	11	144	1
NMHLD	11	192	5	96
NMTAP	11	288	7
NMTAP	12	0	0
NMTAP	12	48	0
NMTAP	12	96	7
NMTAP	12	192	3
NMTAP	12	192	6
NMTAP	12	240	2
NMTAP	12	264	3
NMTAP	12	288	1
NMTAP	12	336	1
NMTAP	13	0	1
NMTAP	13	0	3
NMTAP	13	48	0
NMTAP	13	96	4
NMTAP	13	96	6
NMTAP	13	144	7
NMTAP	13	192	1
NMTAP	13	192	3
NMTAP	13	240	4
NMSTR	13	288	4
NMSI_	13	288	4	96	48	0
NMSTR	13	288	6
NMSI_	13	288	6	96	48	3
NMTAP	14	0	4
NMTAP	14	0	6
EXTAP	14	96	0
EXTAP	14	96	7
NMTAP	14	192	3
NMTAP	14	192	6
NMTAP	14	240	2
NMTAP	14	264	3
NMTAP	14	288	1
NMTAP	14	336	1
NMTAP	15	0	2
NMTAP	15	0	7
NMTAP	15	48	5
NMTAP	15	72	4
NMSTR	15	96	6
NMSCL	15	96	6	96	48	3
NMTAP	15	144	6
NMHLD	15	192	2	96
NMTAP	15	288	0
NMTAP	16	0	7
NMTAP	16	48	7
NMTAP	16	96	0
NMTAP	16	192	1
NMTAP	16	192	4
NMTAP	16	240	5
NMTAP	16	264	4
NMSTR	16	288	6
NMSXR	16	288	6	96	192	3
NMTAP	16	336	6
NMHLD	17	0	2	96
NMHLD	17	192	1	96
NMSTR	18	0	0
NMSI_	18	0	0	96	48	3
NMSTR	18	0	7
NMSI_	18	0	7	96	48	4
NMTAP	18	96	0
NMTAP	18	96	7
NMTAP	18	240	2
NMTAP	18	240	5
NMTAP	18	288	2
NMTAP	18	288	5
NMSTR	19	0	6
NMSCL	19	0	6	96	48	3
NMTAP	19	48	6
NMTAP	19	96	2
NMTAP	19	144	2
NMHLD	19	192	1	72
NMHLD	19	264	2	72
NMTAP	19	336	3
NMTAP	20	0	3
NMTAP	20	96	2
NMTAP	20	96	4
NMTAP	20	192	1
NMTAP	20	192	5
EXTAP	20	240	0
EXTAP	20	288	0
NMSTR	21	0	1
NMSCR	21	0	1	96	48	4
NMTAP	21	48	1
NMTAP	21	96	5
NMTAP	21	144	5
NMHLD	21	192	6	72
NMHLD	21	264	5	72
NMTAP	21	336	4
NMTAP	22	0	4
NMSTR	22	96	0
BRSI_	22	96	0	96	48	2
CNSI_	22	240	2	0	48	7
CNSI_	22	288	7	0	48	3
NMSTR	23	0	5
NMSCR	23	0	5	96	48	0
NMTAP	23	48	5
NMTAP	23	96	1
NMTAP	23	144	1
NMHLD	23	192	2	72
NMHLD	23	264	1	72
NMTAP	23	336	0
NMSTR	24	0	0
NMSV_	24	0	0	96	48	1
NMSTR	24	96	5
NMSV_	24	96	5	96	48	7
EXTAP	24	240	0
EXTAP	24	288	0
NMSTR	25	0	1
NMSI_	25	0	1	96	48	5
NMSTR	25	96	6
NMSI_	25	96	6	96	48	2
NMSTR	25	192	0
NMSXR	25	192	0	96	96	3
NMHLD	26	0	4	96
NMTTP	26	96	0	C	1	M1
NMTAP	26	192	7
NMTAP	26	240	7
NMTAP	26	288	0
NMTAP	26	288	6
NMTAP	27	0	2
NMSTR	27	0	4
NMSI_	27	0	4	96	48	7
NMSTR	27	96	7
NMSI_	27	96	7	96	48	4
NMTAP	27	192	3
NMTAP	27	264	2
NMTAP	27	336	1
NMTAP	27	336	4
NMTAP	28	0	1
NMSTR	28	0	4
NMSUR	28	0	4	96	96	1
NMHLD	28	96	3	96
NMTAP	28	288	2
NMTAP	28	336	2
NMTAP	29	0	3
NMSTR	29	96	5
NMSCR	29	96	5	96	96	1
NMSTR	29	192	1
NMSV_	29	192	1	96	96	3
NMTAP	29	288	3
NMSTR	30	0	2
NMSI_	30	0	2	96	48	7
NMSTR	30	96	6
NMSI_	30	96	6	96	48	2
NMSTR	30	192	3
NMSI_	30	192	3	96	48	0
NMTAP	30	288	5
NMTAP	31	0	6
NMTAP	31	48	6
NMSTR	31	96	0
NMSCR	31	96	0	96	48	3
NMSTR	31	192	7
NMSUL	31	192	7	96	48	3
NMSTR	31	288	1
NMSI_	31	288	1	96	48	3
NMSTR	32	0	6
NMSCL	32	0	6	96	48	3
NMSTR	32	96	0
NMSXL	32	96	0	96	144	3
NMTAP	32	192	5
NMTAP	32	288	6
NMTAP	32	336	6
NMTAP	33	0	4
NMTAP	33	0	5
NMTAP	33	96	3
NMTAP	33	96	6
NMTAP	33	144	2
NMTAP	33	144	5
NMTAP	33	192	1
NMTAP	33	192	4
NMSTR	33	288	2
NMSI_	33	288	2	96	48	5
NMTAP	33	288	3
NMTAP	34	0	2
NMSTR	34	0	6
NMSI_	34	0	6	96	48	1
NMSTR	34	96	3
NMSI_	34	96	3	96	48	0
NMTAP	34	96	6
NMTAP	34	192	3
NMSTR	34	192	7
NMSI_	34	192	7	96	48	4
NMSTR	34	288	2
NMSCL	34	288	2	96	96	5
NMTAP	34	288	7
NMTTP	35	0	0	C	1	M1
NMTAP	35	192	6
NMTAP	35	192	7
NMTAP	35	264	6
NMTAP	35	264	7
NMTAP	35	336	1
NMTAP	35	336	4
NMTAP	36	0	1
NMHLD	36	0	4	96
NMTAP	36	96	2
NMTAP	36	144	1
NMTAP	36	192	0
NMTAP	36	192	1
NMTAP	36	264	0
NMTAP	36	264	1
NMTAP	36	336	3
NMTAP	36	336	6
NMTAP	37	0	3
NMTAP	37	0	6
NMTAP	37	72	4
NMTAP	37	72	6
NMTAP	37	144	2
NMTAP	37	144	3
NMTAP	37	192	1
NMTAP	37	192	4
NMTAP	37	264	1
NMTAP	37	264	3
NMTAP	37	336	4
NMTAP	37	336	5
NMTAP	38	0	3
NMSTR	38	0	6
NMSI_	38	0	6	96	48	1
NMTAP	38	96	2
CNSI_	38	144	1	0	72	5
EXTAP	38	192	0
CNSI_	38	216	5	0	72	2
EXTAP	38	288	0
NMTAP	39	0	2
NMSTR	39	0	3
NMSCR	39	0	3	96	96	7
NMSTR	39	192	4
NMSCL	39	192	4	96	96	0
NMSTR	40	0	3
NMSCR	40	0	3	96	96	7
NMTAP	40	192	4
NMTAP	40	240	3
NMTAP	40	288	2
NMSTR	40	288	6
NMSI_	40	288	6	96	48	1
NMSTR	41	0	0
NMSLR	41	0	0	96	96	4
NMTAP	41	0	6
NMSTR	41	96	4
NMSLR	41	96	4	96	96	0
NMTAP	41	192	0
NMTAP	41	288	4
NMTAP	42	0	3
NMTAP	42	48	3
NMTAP	42	96	4
NMTAP	42	144	4
NMTAP	42	192	2
NMTAP	42	216	5
NMTAP	42	240	2
NMTAP	42	264	5
NMTAP	42	288	3
NMTAP	42	312	4
NMTAP	42	336	3
NMTAP	42	360	4
NMTTP	43	0	4	E	0	M1
NMSTR	43	96	0
NMSI_	43	96	0	96	48	3
NMSTR	43	96	7
NMSI_	43	96	7	96	48	4
EXTAP	43	192	0
EXTAP	43	192	7
EXTAP	43	288	3
EXSTR	43	288	6
NMSLL	43	288	6	96	96	0
BRTAP	44	0	6
NMTAP	44	0	7
NMSTR	44	96	2
NMSLL	44	96	2	96	96	4
BRTAP	44	192	2
NMTAP	44	192	3
NMSTR	44	288	6
NMSLL	44	288	6	96	96	0
BRTAP	45	0	6
NMTAP	45	0	7
NMSTR	45	96	2
NMSLL	45	96	2	96	96	4
BRTAP	45	192	2
NMTAP	45	192	3
NMTAP	45	288	6
NMTAP	46	0	7
NMTAP	46	48	7
NMSTR	46	96	0
NMSI_	46	96	0	96	48	4
NMSTR	46	96	1
NMSI_	46	96	1	96	48	3
NMSTR	46	192	0
NMSI_	46	192	0	96	48	6
NMSTR	46	192	1
NMSI_	46	192	1	96	48	5
NMSTR	46	288	0
BRSUR	46	288	0	96	48	4
NMSTR	46	288	1
BRSCR	46	288	1	96	48	3
NMTAP	47	0	0
NMTAP	47	0	1
EXTAP	47	96	6
EXTAP	47	144	6
NMTAP	47	192	3
NMTAP	47	192	7
NMSTR	47	288	1
NMSI_	47	288	1	96	48	4
NMSTR	47	288	5
NMSI_	47	288	5	96	48	0
NMTAP	48	0	1
NMTAP	48	0	5
NMSTR	48	96	2
NMSI_	48	96	2	96	48	7
NMSTR	48	96	6
NMSI_	48	96	6	96	48	3
NMTAP	48	192	2
NMTAP	48	192	6
NMSTR	48	288	0
NMSCR	48	288	0	96	96	4
NMSTR	49	0	4
NMSCR	49	0	4	96	96	0
NMTAP	49	96	0
NMTAP	49	192	4
NMSTR	49	288	0
NMSCL	49	288	0	96	48	5
NMSTR	49	288	1
NMSCR	49	288	1	96	48	4
NMTAP	50	0	0
NMTAP	50	0	1
NMSTR	50	96	6
NMSCL	50	96	6	96	48	3
NMSTR	50	96	7
NMSCR	50	96	7	96	48	2
NMTAP	50	192	6
NMTAP	50	192	7
EXTAP	50	288	1
EXTAP	50	288	4
NMTAP	51	0	0
NMTAP	51	0	1
BRTAP	51	48	2
BRTAP	51	48	7
BRTAP	51	144	0
BRTAP	51	144	5
NMTAP	51	240	4
NMTAP	51	240	5
NMTAP	51	288	3
EXSTR	51	288	6
NMSLL	51	288	6	96	96	0
NMTAP	52	0	7
NMTTP	52	4	6	E	1	M1
NMSTR	52	96	2
NMSLL	52	96	2	96	96	4
NMTAP	52	192	3
NMTTP	52	196	2	E	1	M1
NMSTR	52	288	6
NMSLL	52	288	6	96	96	0
NMTAP	53	0	7
NMTTP	53	4	6	E	1	M1
NMTAP	53	96	2
BRTAP	53	192	1
BRTAP	53	192	5
BRTAP	53	240	1
BRTAP	53	240	5
NMTAP	53	336	4
NMTAP	53	336	6
NMHLD	54	0	4	48
NMHLD	54	0	6	48
NMHLD	54	96	0	48
NMHLD	54	96	5	48
NMHLD	54	192	2	48
NMHLD	54	192	7	48
NMHLD	54	288	1	48
NMSTR	54	288	3
NMSI_	54	288	3	96	48	7
NMSTR	55	0	0
NMSI_	55	0	0	96	48	4
BRTAP	55	0	3
BRTAP	55	96	0
NMSTR	55	96	6
NMSI_	55	96	6	96	48	2
BRTAP	55	192	3
BRTAP	55	192	6
BXSTR	55	288	3
NMSI_	55	288	3	96	48	7
BXSTR	55	288	4
NMSI_	55	288	4	96	48	6
EXSTR	56	0	3
NMSI_	56	0	3	96	48	1
EXSTR	56	0	4
NMSI_	56	0	4	96	48	0
EXSTR	56	96	3
NMSI_	56	96	3	96	48	7
EXSTR	56	96	4
NMSI_	56	96	4	96	48	6
EXSTR	56	192	3
NMSI_	56	192	3	96	48	1
EXSTR	56	192	4
NMSI_	56	192	4	96	48	0
EXSTR	56	288	3
NMSI_	56	288	3	96	48	7
EXSTR	56	288	4
NMSI_	56	288	4	96	48	6
EXTAP	57	0	3
EXTAP	57	0	4
NMTAP	57	96	3
NMTAP	57	96	4
EXTAP	57	192	2
EXTAP	57	192	6
EXTAP	57	240	2
EXTAP	57	240	6
NMTAP	57	336	1
NMSTR	58	0	0
NMSCR	58	0	0	96	48	3
NMTAP	58	48	4
NMTAP	58	96	5
NMTAP	58	144	6
EXTAP	58	192	4
EXTAP	58	192	6
NMTAP	58	264	1
NMSTR	58	264	3
NMSCL	58	264	3	96	120	6
BXTAP	58	336	0
NMSTR	59	96	0
NMSSL	59	96	0	96	96	4
CNSV_	59	288	4	0	48	1
EXTAP	60	0	2
EXTAP	60	0	6
NMTAP	60	48	5
NMTAP	60	72	4
NMTAP	60	96	6
NMTAP	60	144	0
NMTAP	60	168	7
NMTAP	60	240	2
NMTAP	60	264	3
NMTAP	60	288	1
NMTAP	60	336	6
NMTAP	60	360	4
NMTAP	61	0	5
NMTAP	61	48	2
NMTAP	61	72	3
NMTAP	61	96	1
NMTAP	61	144	7
NMTAP	61	168	0
NMTAP	61	240	5
NMTAP	61	264	4
NMSTR	61	288	6
NMSI_	61	288	6	96	48	1
NMTAP	61	312	4
NMTAP	61	336	6
NMSTR	62	0	2
NMSI_	62	0	2	96	48	5
NMTAP	62	48	2
NMSTR	62	96	6
NMSI_	62	96	6	96	48	1
NMTAP	62	144	6
NMSTR	62	192	2
NMSI_	62	192	2	96	48	5
NMTAP	62	240	2
NMSTR	62	288	7
NMSCL	62	288	7	96	144	0
NMTAP	62	336	7
NMHLD	63	0	4	192
EXSTR	63	192	7
NMSF_	63	192	7	96	48	3
EXTAP	63	240	7
NMTTP	64	0	0	E	1	M1
NMTAP	64	48	2
NMTAP	64	72	3
NMTAP	64	96	1
NMTAP	64	144	7
NMTAP	64	168	0
NMTAP	64	240	5
NMTAP	64	264	4
NMTAP	64	288	6
NMTAP	64	336	1
NMTAP	64	360	3
NMTAP	65	0	2
NMTAP	65	48	5
NMTAP	65	72	4
NMTAP	65	96	6
NMTAP	65	144	0
NMTAP	65	168	7
NMTAP	65	240	2
NMTAP	65	264	3
NMSTR	65	288	1
NMSCL	65	288	1	96	48	6
NMTAP	65	312	3
NMTAP	65	336	1
NMSTR	66	0	5
NMSCL	66	0	5	96	48	2
NMTAP	66	48	5
NMSTR	66	96	1
NMSCL	66	96	1	96	48	6
NMTAP	66	144	1
NMSTR	66	192	5
NMSCL	66	192	5	96	48	2
NMTAP	66	240	5
NMSTR	66	288	0
NMSSL	66	288	0	96	96	4
NMHLD	67	0	3	192
NMSTR	67	192	4
NMSI_	67	192	4	96	48	0
NMSTR	67	288	4
NMSCL	67	288	4	96	48	1
NMSCR	67	288	4	96	48	7
NMSTR	68	0	4
NMSF_	68	0	4	96	48	0
BXTAP	68	192	1
BXTAP	68	192	7
NMTAP	68	336	2
NMTAP	69	0	1
NMTAP	69	0	3
NMTAP	69	72	1
NMTAP	69	72	3
NMTAP	69	144	0
NMTAP	69	144	4
NMHLD	69	192	0	96
NMHLD	69	192	4	96
NMTAP	69	336	5
NMTAP	70	0	4
NMTAP	70	0	6
NMTAP	70	72	4
NMTAP	70	72	6
NMTAP	70	144	3
NMTAP	70	144	7
NMTAP	70	192	3
NMHLD	70	192	7	72
NMHLD	70	264	5	72
NMTAP	70	336	4
NMHLD	71	0	3	72
NMHLD	71	72	1	72
NMTAP	71	144	0
NMTAP	71	192	0
NMTTP	71	288	2	B	0	M1
NMTTP	71	288	3	B	0	M1
NMTTP	71	288	3	E	1	M1
NMTTP	72	0	4	B	0	M1
NMTTP	72	0	5	B	0	M1
NMTTP	72	0	5	E	1	M1
NMTTP	72	96	6	B	0	M1
NMTTP	72	96	7	B	0	M1
NMTTP	72	96	7	E	1	M1
EXSTR	72	192	0
NMSCL	72	192	0	96	96	4
EXTAP	72	192	1
NMSTR	73	0	7
NMSCR	73	0	7	96	96	3
NMSTR	73	192	0
NMSCL	73	192	0	96	96	4
NMTAP	74	0	7
NMTAP	74	48	0
NMSTR	74	96	1
NMSI_	74	96	1	96	48	4
NMSTR	74	96	5
NMSI_	74	96	5	96	48	0
NMTAP	74	192	1
NMTAP	74	192	5
NMSTR	74	288	2
NMSCL	74	288	2	96	48	7
NMSTR	74	288	6
NMSCL	74	288	6	96	48	3
NMTAP	75	0	2
NMTAP	75	0	6
NMSTR	75	96	1
NMSCR	75	96	1	96	144	7
NMTAP	75	96	5
NMTTP	75	192	0	C	1	M1
CNSUR	75	336	7	0	144	0
NMHLD	76	192	7	288
NMHLD	77	192	3	288
NMHLD	77	192	6	288
NMHLD	78	192	4	288
NMHLD	78	192	5	288
NMTAP	79	192	3
NMSTR	79	288	3
BRSI_	79	288	3	96	48	5
NMSTR	80	0	3
BRSI_	80	0	3	96	48	7
NMSTR	80	96	3
BRSI_	80	96	3	96	48	0
NMTAP	80	192	3
EXTAP	80	288	7
EXTAP	80	336	7
NMSTR	81	0	0
NMSCR	81	0	0	96	48	3
NMSTR	81	0	6
NMSCL	81	0	6	96	48	3
NMTAP	81	96	0
NMTAP	81	96	6
EXTAP	81	192	2
EXTAP	81	192	4
NMTAP	81	264	2
NMTAP	81	288	4
NMTAP	81	336	5
EXTAP	82	0	3
EXTAP	82	0	6
NMTAP	82	72	5
NMTAP	82	96	3
NMTAP	82	144	2
EXTAP	82	192	1
EXTAP	82	192	4
NMTAP	82	264	2
NMTAP	82	288	4
NMTAP	82	336	5
EXTAP	83	0	3
EXTAP	83	0	6
NMTAP	83	72	5
NMTAP	83	96	3
NMTAP	83	144	2
EXHLD	83	192	1	96
NMTTP	83	192	4	E	1	M1
NMHLD	83	288	3	96
NMHLD	84	0	4	96
NMSTR	84	96	6
NMSI_	84	96	6	96	72	3
NMTAP	84	192	2
NMTAP	84	240	2
CNSI_	84	264	3	0	72	7
NMTAP	84	288	1
NMTAP	84	336	1
BRTAP	85	0	0
BRTAP	85	0	6
NMSTR	85	96	6
NMSI_	85	96	6	96	48	4
NMSTR	85	96	7
NMSI_	85	96	7	96	48	3
NMTAP	85	144	0
NMTAP	85	144	5
NMSTR	85	288	0
NMSI_	85	288	0	96	48	4
NMSTR	85	288	1
NMSI_	85	288	1	96	48	3
NMTAP	85	336	2
NMTAP	85	336	7
NMTAP	86	96	6
NMTAP	86	96	7
NMTAP	86	144	0
NMSTR	86	144	5
NMSCL	86	144	5	96	48	2
NMSTR	86	240	1
NMSCL	86	240	1	96	48	6
NMTAP	86	240	5
NMTAP	86	336	1
NMSTR	86	336	3
NMSI_	86	336	3	96	48	7
NMTAP	87	48	3
NMTAP	87	48	7
NMTAP	87	144	0
NMSTR	87	192	0
NMSCR	87	192	0	96	96	4
NMSTR	87	288	4
NMSCR	87	288	4	96	96	0
NMTAP	88	0	0
NMSTR	88	96	5
NMSI_	88	96	5	96	48	2
NMSTR	88	192	1
NMSI_	88	192	1	96	48	6
NMTAP	88	192	5
NMTAP	88	288	1
NMSTR	88	288	4
NMSI_	88	288	4	96	48	7
NMSTR	89	0	3
NMSI_	89	0	3	96	48	0
NMTAP	89	0	4
NMTAP	89	96	3
NMTAP	89	96	6
BRTAP	89	192	1
BRTAP	89	192	5
NMTAP	89	288	6
NMTAP	89	336	0
NMTAP	89	336	7
NMTAP	90	0	0
NMTAP	90	0	7
NMTAP	90	96	0
NMSTR	90	96	1
NMSI_	90	96	1	96	48	5
NMTAP	90	192	1
NMTAP	90	192	4
NMSTR	90	288	6
NMSI_	90	288	6	96	48	2
NMTAP	90	288	7
NMTAP	91	0	3
NMTAP	91	0	6
NMTAP	91	96	0
NMSTR	91	96	1
NMSI_	91	96	1	96	24	3
CNSCR	91	216	3	0	24	4
CNSI_	91	240	4	0	48	0
NMSTR	91	288	7
NMSCL	91	288	7	96	48	6
CNSV_	92	48	6	0	48	5
NMSTR	92	96	0
NMSCR	92	96	0	96	144	7
NMTTP	92	192	0	C	1	M1
BRTAP	93	48	0
BRTAP	93	48	7
BRTAP	93	96	0
BRTAP	93	96	7
NMTAP	93	192	0
NMTAP	93	192	1
NMTAP	93	240	2
NMSTR	93	240	3
NMSI_	93	240	3	96	48	6
BXTAP	93	336	7
BXTAP	94	0	7
NMTAP	94	96	6
NMTAP	94	96	7
NMSTR	94	144	4
NMSI_	94	144	4	96	48	1
NMTAP	94	144	5
BXTAP	94	240	0
BXSTR	94	288	0
BRSCL	94	288	0	96	48	5
EXSTR	94	336	1
BRSCR	94	336	1	96	48	4
EXTAP	95	0	0
EXTAP	95	48	1
NMTAP	95	144	6
NMTAP	95	192	6
NMTAP	95	240	4
NMTAP	95	288	3
NMTAP	95	288	5
NMTAP	95	336	6
NMTAP	96	0	0
NMTAP	96	0	7
NMTAP	96	48	1
NMTAP	96	96	2
NMSTR	96	96	4
NMSCR	96	96	4	96	48	7
NMSTR	96	192	0
NMSCR	96	192	0	96	48	3
NMTAP	96	192	4
NMTAP	96	288	0
NMSTR	96	288	7
NMSI_	96	288	7	96	48	3
NMTAP	97	0	4
NMTAP	97	0	7
NMSTR	97	96	2
NMSV_	97	96	2	96	48	7
NMSTR	97	96	5
NMSCR	97	96	5	96	48	7
NMSTR	97	192	2
NMSCL	97	192	2	96	48	0
NMSTR	97	192	5
NMSV_	97	192	5	96	48	0
NMSTR	97	288	2
NMSV_	97	288	2	96	48	7
NMSTR	97	288	5
NMSCR	97	288	5	96	48	7
NMSTR	98	0	2
NMSCL	98	0	2	96	48	0
NMSTR	98	0	5
NMSV_	98	0	5	96	48	0
NMTAP	98	96	2
NMTAP	98	96	5
NMTAP	98	192	3
NMTAP	98	192	4
NMTAP	98	240	3
NMTAP	98	240	4
NMTAP	98	288	2
NMTAP	98	288	5
NMSTR	98	336	2
BRSCL	98	336	2	96	48	0
NMSTR	98	336	5
BRSCR	98	336	5	96	48	7
EXTAP	99	0	3
EXTAP	99	0	4
EXTAP	99	48	2
EXTAP	99	48	5
EXTAP	99	144	1
EXTAP	99	144	6
EXTAP	99	192	1
EXTAP	99	192	6
NMTAP	99	240	2
NMTAP	99	240	5
NMTAP	99	288	3
NMTAP	99	288	4
NMTAP	100	0	1
NMTAP	100	0	4
NMSTR	100	72	3
NMSI_	100	72	3	96	120	0
NMTAP	100	72	6
NMHLD	100	144	4	240
NMSTR	101	0	0
NMSF_	101	0	0	96	48	4
NMTAP	101	48	1
NMTAP	101	48	7
EXTAP	101	192	2
EXTAP	101	192	6
NMTAP	101	288	4
NMTAP	101	288	5
NMTAP	102	0	3
NMTAP	102	0	6
NMTAP	102	48	2
NMTAP	102	72	3
NMTAP	102	96	1
NMTAP	102	144	1
NMTAP	102	192	2
NMTAP	102	192	7
NMTAP	102	240	5
NMTAP	102	264	4
NMSTR	102	288	6
NMSCR	102	288	6	96	48	1
NMTAP	102	336	6
NMHLD	103	0	2	96
NMTAP	103	96	3
NMTAP	103	192	7
NMTAP	103	240	7
NMTAP	103	288	0
NMTAP	103	336	0
NMTAP	104	0	1
NMTAP	104	0	4
NMTAP	104	48	6
NMTAP	104	72	4
NMTAP	104	96	5
NMTAP	104	144	5
NMTAP	104	192	4
NMTAP	104	192	5
NMTAP	104	240	7
NMTAP	104	288	2
NMTAP	104	288	3
NMTAP	104	336	0
NMTAP	105	0	4
NMTAP	105	0	5
NMTAP	105	48	3
NMSTR	105	96	2
NMSI_	105	96	2	96	48	6
NMSTR	105	96	3
NMSI_	105	96	3	96	48	7
NMTAP	105	192	2
NMTAP	105	192	3
EXTAP	105	288	0
EXTAP	105	288	7
NMTAP	106	0	1
NMTAP	106	0	4
NMTAP	106	48	5
NMTAP	106	72	4
NMTAP	106	96	6
NMTAP	106	144	6
NMTAP	106	192	0
NMTAP	106	192	5
NMTAP	106	240	2
NMTAP	106	264	3
NMSTR	106	288	1
NMSCL	106	288	1	96	48	6
NMTAP	106	336	1
NMHLD	107	0	5	96
NMTAP	107	96	4
NMTAP	107	192	0
NMTAP	107	240	0
NMTAP	107	288	7
NMTAP	107	336	7
NMTAP	108	0	3
NMTAP	108	0	6
NMTAP	108	48	2
NMTAP	108	72	3
NMSTR	108	96	1
NMSXL	108	96	1	96	192	4
NMTAP	108	144	1
NMHLD	108	192	5	96
NMHLD	109	0	6	96
NMSTR	109	192	3
NMSI_	109	192	3	96	48	0
NMSTR	109	192	7
NMSI_	109	192	7	96	48	4
NMTAP	109	288	3
NMTAP	109	288	7
NMSTR	110	0	1
NMSI_	110	0	1	96	48	6
NMSTR	110	0	5
NMSI_	110	0	5	96	48	2
NMTAP	110	48	2
NMTAP	110	48	6
BRTAP	110	96	1
BRTAP	110	96	5

T_REC_TAP	450
T_REC_BRK	26
T_REC_XTP	54
T_REC_BXX	6
T_REC_HLD	51
T_REC_XHO	1
T_REC_BHO	0
T_REC_BXH	0
T_REC_STR	141
T_REC_BST	0
T_REC_XST	13
T_REC_XBS	3
T_REC_TTP	37
T_REC_THO	0
T_REC_SLD	148
T_REC_BSL	10
T_REC_ALL	940
T_NUM_TAP	695
T_NUM_BRK	45
T_NUM_HLD	52
T_NUM_SLD	148
T_NUM_ALL	940
T_JUDGE_TAP	730
T_JUDGE_HLD	120
T_JUDGE_SLD	158
T_JUDGE_ALL	1008
TTM_EACHPAIRS	208
TTM_SCR_TAP	347500
TTM_SCR_BRK	117000
TTM_SCR_HLD	52000
TTM_SCR_SLD	222000
TTM_SCR_ALL	738500
TTM_SCR_S	712000
TTM_SCR_SS	734000
TTM_RAT_ACV	10061

