VERSION	0.00.00	1.04.00
FES_MODE	0
BPM_DEF	170.000	170.000	170.000	170.000
MET_DEF	4	4
RESOLUTION	384
CLK_DEF	384
COMPATIBLE_CODE	MA2

BPM	0	0	170.000
MET	0	0	4	4
MET	68	0	4	2
MET	68	192	4	4

EXHLD	2	0	3	1440
BXHLD	2	0	5	1440
NMHLD	6	0	2	192
NMTAP	6	0	4
NMHLD	6	192	3	192
NMHLD	7	0	4	192
NMHLD	7	192	5	192
NMHLD	8	0	4	192
NMHLD	8	192	3	192
NMTAP	9	0	4
NMTAP	9	192	3
NMTAP	9	192	4
BRTAP	9	288	2
BRTAP	9	288	5
NMTAP	10	0	5
NMTAP	10	96	6
NMTAP	10	192	0
NMTAP	10	288	1
NMTAP	10	288	7
NMTAP	11	0	2
NMTAP	11	96	1
NMTAP	11	192	7
NMTAP	11	288	0
NMTAP	11	288	6
NMTAP	12	0	5
NMTAP	12	96	6
NMTAP	12	192	0
NMTAP	12	288	1
NMTAP	12	288	7
NMTAP	13	0	2
NMTAP	13	96	2
NMTAP	13	192	2
NMTAP	13	192	3
NMTAP	13	288	1
NMTAP	13	288	4
NMTAP	14	0	1
NMTAP	14	96	7
NMTAP	14	192	6
NMTAP	14	288	4
NMTAP	14	288	5
NMTAP	15	0	6
NMTAP	15	96	0
NMTAP	15	192	1
NMTAP	15	288	2
NMTAP	15	288	3
NMTAP	16	0	4
NMTAP	16	96	3
NMTAP	16	96	5
NMTAP	16	192	3
NMTAP	16	288	2
NMTAP	16	288	4
NMTAP	17	0	4
NMTAP	17	96	3
EXTAP	17	192	2
EXTAP	17	192	5
NMSTR	18	0	0
NMSI_	18	0	0	96	144	3
NMSTR	18	0	7
NMSI_	18	0	7	96	144	4
NMHLD	19	0	5	480
NMTAP	19	96	4
NMTAP	19	192	4
NMTAP	19	288	3
NMTAP	20	0	4
NMTAP	20	96	4
NMTAP	20	192	3
EXTAP	20	240	3
EXTAP	20	288	3
NMHLD	21	0	2	480
NMTAP	21	96	3
NMTAP	21	192	3
NMTAP	21	288	4
NMTAP	22	0	3
NMSTR	22	96	3
NMSV_	22	96	3	96	96	4
EXHLD	23	0	3	96
EXHLD	23	0	5	96
NMHLD	23	192	4	96
NMHLD	23	192	6	96
NMHLD	24	0	4	96
NMHLD	24	0	5	96
NMTAP	24	192	6
EXTAP	24	240	6
EXTAP	24	288	6
NMHLD	25	0	5	192
NMTAP	25	96	4
NMTAP	25	192	4
NMTAP	25	288	3
NMTAP	26	0	2
NMTAP	26	0	4
BXTAP	26	96	1
BXTAP	26	96	5
NMTAP	26	240	2
NMHLD	26	288	2	96
EXTAP	27	0	3
NMTAP	27	96	2
NMTAP	27	96	3
NMTAP	27	192	3
NMTAP	27	192	4
NMSTR	27	288	3
NMSV_	27	288	3	96	144	1
NMTAP	27	288	4
EXTAP	28	288	2
EXTAP	28	288	4
NMTAP	29	0	5
NMTAP	29	96	5
NMTAP	29	192	4
NMTAP	29	192	6
NMTAP	29	288	4
NMTAP	29	288	6
NMSTR	30	0	5
NMSI_	30	0	5	96	96	2
CNSCR	30	192	2	0	96	4
NMTAP	31	0	5
NMTAP	31	96	5
NMTAP	31	192	6
NMTAP	31	192	7
NMTAP	31	288	6
NMTAP	31	288	7
NMTAP	32	0	5
NMTAP	32	96	5
NMTAP	32	192	3
NMTAP	32	192	4
NMTAP	32	288	2
NMTAP	32	288	3
NMTAP	33	0	1
NMTAP	33	96	1
NMTAP	33	192	2
NMTAP	33	192	3
NMTAP	33	288	2
NMTAP	33	288	3
NMHLD	34	0	1	96
NMTAP	34	96	0
NMTAP	34	192	7
NMTAP	34	288	0
NMTAP	34	288	6
BRTAP	35	0	1
BRTAP	35	0	5
EXHLD	35	192	2	72
EXTAP	35	264	3
EXTAP	35	336	2
EXTAP	35	336	4
EXTAP	36	0	2
EXTAP	36	0	4
EXHLD	36	192	5	72
EXTAP	36	264	4
EXTAP	36	336	3
EXTAP	36	336	5
EXHLD	37	0	3	384
EXSTR	37	0	5
NMSCR	37	0	5	96	288	2
NMTAP	38	192	3
NMTAP	38	192	4
NMTAP	38	288	3
NMTAP	38	288	4
NMHLD	39	0	2	1056
NMTAP	39	0	5
NMTTP	39	192	4	E	0	M1
NMTTP	40	0	3	E	0	M1
NMTTP	40	192	5	E	0	M1
NMTTP	41	0	4	E	0	M1
NMHLD	41	192	4	96
NMTAP	42	0	2
NMTAP	42	48	2
NMTAP	42	96	3
NMTAP	42	192	5
NMTAP	42	240	5
NMTAP	42	288	4
NMHLD	43	0	3	192
NMHLD	43	0	6	192
NMTAP	43	288	4
NMTAP	43	288	5
BRTAP	44	0	0
BRTAP	44	0	7
NMTAP	44	96	4
NMTAP	44	96	6
NMTAP	44	192	0
NMTAP	44	192	7
NMTAP	44	288	1
NMTAP	44	288	3
NMTAP	45	0	0
NMTAP	45	0	6
NMTAP	45	96	4
NMTAP	45	96	5
NMTAP	45	192	1
NMTAP	45	192	7
NMTAP	45	288	2
NMTAP	45	288	3
NMTAP	46	0	0
NMTAP	46	0	6
NMTAP	46	96	4
NMTAP	46	96	5
BRTAP	46	192	2
BRTAP	46	192	7
BRTAP	46	288	2
BRTAP	46	288	7
BRTAP	47	0	0
BRTAP	47	0	6
NMSTR	47	96	1
NMSCR	47	96	1	96	96	4
NMSTR	47	96	5
NMSCR	47	96	5	96	96	0
EXTAP	48	0	3
EXTAP	48	0	7
NMTAP	48	96	3
NMTAP	48	96	7
NMTAP	48	192	4
NMTAP	48	192	5
NMTAP	48	288	2
NMTAP	48	288	3
NMTAP	49	0	0
NMTAP	49	0	4
NMTAP	49	96	0
NMTAP	49	96	4
NMTAP	49	192	2
NMTAP	49	192	3
NMTAP	49	288	4
NMTAP	49	288	5
NMTAP	50	0	6
NMTAP	50	0	7
NMTAP	50	96	0
NMTAP	50	96	1
NMTAP	50	192	2
NMTAP	50	192	3
NMTAP	50	288	2
NMSTR	50	288	3
NMSI_	50	288	3	96	96	0
NMSI_	50	288	3	96	96	6
EXTAP	51	192	1
EXTAP	51	192	5
EXTAP	51	288	1
EXTAP	51	288	5
NMTAP	52	0	4
NMTAP	52	0	6
NMTAP	52	96	0
NMTAP	52	96	1
NMTAP	52	192	4
NMTAP	52	192	5
NMTAP	52	288	1
NMTAP	52	288	3
NMTAP	53	0	6
NMTAP	53	0	7
NMTAP	53	96	2
NMTAP	53	96	3
BRTAP	53	192	1
BRTAP	53	192	7
NMTAP	53	288	1
NMTAP	53	288	7
NMTAP	54	0	6
NMTAP	54	0	7
NMTAP	54	96	2
NMTAP	54	96	3
NMTAP	54	192	0
NMTAP	54	192	1
NMTAP	54	288	4
NMTAP	54	288	5
EXTAP	55	0	2
EXTAP	55	0	7
EXTAP	55	96	2
EXTAP	55	96	7
EXTAP	55	192	0
EXTAP	55	192	5
EXTAP	55	288	0
EXTAP	55	288	5
NMTAP	56	0	6
NMTAP	56	0	7
NMTAP	56	96	0
NMTAP	56	96	1
NMTAP	56	192	4
NMTAP	56	192	5
NMTAP	56	288	2
NMTAP	56	288	3
NMTAP	57	0	6
NMTAP	57	0	7
NMTAP	57	96	0
NMTAP	57	96	1
BRTAP	57	192	3
BRTAP	57	192	5
NMTAP	57	288	3
NMTAP	57	288	5
NMTAP	58	0	2
NMTAP	58	0	4
NMSTR	58	96	2
NMSXR	58	96	2	96	192	7
NMSTR	58	96	4
NMSXL	58	96	4	96	192	7
NMTAP	59	192	7
NMTAP	59	240	0
BXTAP	59	288	1
BXTAP	59	288	6
NMTAP	60	0	2
NMSTR	60	0	7
NMSI_	60	0	7	96	48	3
NMHLD	60	192	2	72
NMHLD	60	264	1	72
NMTAP	60	336	0
NMSTR	61	0	0
NMSI_	61	0	0	96	48	4
NMHLD	61	192	5	72
NMHLD	61	264	6	72
NMTAP	61	336	7
NMTAP	62	0	7
NMTAP	62	96	0
NMTAP	62	96	6
NMTAP	62	192	1
NMTAP	62	192	7
NMTAP	62	288	0
NMTAP	62	288	5
NMTAP	63	0	2
NMTAP	63	0	7
NMTAP	63	96	4
NMTAP	63	96	5
NMTAP	63	192	2
NMTAP	63	192	3
NMTAP	63	288	1
NMTAP	63	288	4
NMSTR	64	0	0
NMSI_	64	0	0	96	48	4
NMTAP	64	0	5
NMHLD	64	192	5	72
NMHLD	64	264	6	72
NMTAP	64	336	7
NMSTR	65	0	7
NMSI_	65	0	7	96	48	3
NMHLD	65	192	2	72
NMHLD	65	264	1	72
NMTAP	65	336	0
NMTAP	66	0	0
NMTAP	66	96	1
NMTAP	66	96	7
NMTAP	66	192	0
NMTAP	66	192	6
NMSTR	66	288	2
NMSCL	66	288	2	96	144	7
NMSTR	66	288	7
NMSCL	66	288	7	96	144	4
EXTAP	67	288	7
EXTAP	68	0	7
EXTAP	68	96	0
EXTAP	68	96	6
NMHLD	68	192	1	96
NMHLD	68	192	5	96
NMHLD	69	0	2	72
NMTAP	69	72	3
NMTAP	69	144	1
NMTAP	69	144	4
NMHLD	69	192	1	96
NMHLD	69	192	4	96
NMHLD	70	0	5	72
NMTAP	70	72	4
NMTAP	70	144	3
NMTAP	70	144	6
EXTAP	70	192	2
EXSTR	70	192	7
NMSI_	70	192	7	96	96	3
NMSTR	71	0	1
NMSI_	71	0	1	96	96	5
BRTAP	71	192	7
NMTAP	71	288	7
NMTAP	72	0	4
NMTAP	72	0	6
NMTAP	72	96	3
NMTAP	72	96	5
NMHLD	72	192	2	96
NMHLD	72	288	3	96
NMHLD	73	0	4	96
NMHLD	73	96	5	96
NMHLD	73	192	1	96
NMHLD	73	288	3	96
NMHLD	74	0	4	96
NMHLD	74	96	6	96
NMTAP	74	192	7
NMTAP	74	288	7
NMTAP	75	0	0
NMTAP	75	0	6
NMTAP	75	48	0
NMTAP	75	48	6
NMTAP	75	96	0
NMTAP	75	96	6
NMTAP	75	192	2
NMTAP	75	192	3
NMTAP	75	240	2
NMTAP	75	240	3
NMTAP	75	288	2
NMTAP	75	288	3
NMTAP	76	0	4
NMTAP	76	0	5
NMTAP	76	48	4
NMTAP	76	48	5
NMSTR	76	96	4
NMSI_	76	96	4	96	96	7
NMTAP	76	96	5
EXHLD	77	192	3	768
EXHLD	77	192	5	960
EXTAP	80	0	4
EXTAP	80	96	3
EXTAP	80	96	4
EXHLD	80	192	2	96
EXHLD	80	192	3	96
NMTAP	81	0	1
NMTAP	81	0	4
NMTAP	81	96	1
NMTAP	81	96	4
NMHLD	81	192	2	144
NMTAP	81	336	3
NMHLD	82	0	3	144
NMTAP	82	144	4
NMHLD	82	192	4	192
NMTAP	82	336	5
NMTAP	83	0	5
NMTAP	83	144	3
NMTAP	83	144	4
EXTAP	83	192	3
EXTAP	83	192	4
EXTAP	83	288	2
EXTAP	83	288	5
EXTAP	84	0	1
EXTAP	84	0	6
EXTAP	84	96	0
EXSTR	84	96	7
BRSF_	84	96	7	96	192	3
NMTAP	85	96	1
NMTAP	85	96	5
BRTAP	85	192	4
BRTAP	85	192	6
NMTAP	85	288	1
NMTAP	85	288	7
NMTAP	86	0	2
NMTAP	86	0	4
NMTAP	86	96	0
NMTAP	86	96	6
NMTAP	86	192	3
NMTAP	86	192	5
NMTAP	86	288	2
NMTAP	86	288	7
NMTAP	87	0	1
NMTAP	87	0	3
NMTAP	87	96	0
NMTAP	87	96	6
NMTAP	87	192	3
NMTAP	87	192	5
NMTAP	87	288	1
NMTAP	87	288	7
BRTAP	88	0	0
BRTAP	88	0	6
BRTAP	88	96	0
BRTAP	88	96	6
BRTAP	88	192	2
BRTAP	88	192	4
NMSTR	88	288	1
NMSCR	88	288	1	96	96	4
NMSTR	88	288	5
NMSCR	88	288	5	96	96	0
EXTAP	89	192	2
EXTAP	89	192	6
NMTAP	89	288	4
NMTAP	89	288	5
NMTAP	90	0	0
NMTAP	90	0	6
NMTAP	90	96	2
NMTAP	90	96	3
NMTAP	90	192	1
NMTAP	90	192	7
NMTAP	90	288	4
NMTAP	90	288	6
NMTAP	91	0	3
NMTAP	91	0	4
NMTAP	91	96	1
NMTAP	91	96	3
NMSTR	91	192	0
NMSI_	91	192	0	96	48	4
NMSTR	91	192	1
NMSI_	91	192	1	96	48	4
NMSTR	92	0	6
NMSI_	92	0	6	96	48	2
NMSTR	92	0	7
NMSI_	92	0	7	96	48	3
BRTAP	92	192	0
BRTAP	92	192	1
NMTAP	92	288	0
NMTAP	92	288	1
NMTAP	93	0	6
NMTAP	93	0	7
NMTAP	93	96	4
NMTAP	93	96	5
BRTAP	93	192	0
BRTAP	93	192	2
NMTAP	93	288	6
NMTAP	93	288	7
NMTAP	94	0	1
NMTAP	94	0	3
NMTAP	94	96	6
NMTAP	94	96	7
NMTAP	94	192	0
NMTAP	94	192	1
NMTAP	94	288	4
NMTAP	94	288	6
BRTAP	95	0	0
BRTAP	95	0	1
NMTAP	95	96	6
NMTAP	95	96	7
NMTAP	95	192	1
NMTAP	95	192	3
NMTAP	95	288	5
NMTAP	95	288	6
NMTAP	96	0	0
NMTAP	96	0	1
NMTAP	96	96	4
NMTAP	96	96	5
BRTAP	96	192	0
BRTAP	96	192	1
BRTAP	96	288	0
BRTAP	96	288	1
BRTAP	97	0	2
BRTAP	97	0	7
BRTAP	97	96	4
BRTAP	97	96	5
BRTAP	97	192	6
BRTAP	97	192	7
NMTAP	97	288	0
NMTAP	97	288	2
NMTAP	98	0	4
NMTAP	98	0	6
NMTAP	98	96	0
NMTAP	98	96	1
NMTAP	98	192	5
NMTAP	98	192	7
NMTAP	98	288	1
NMTAP	98	288	3
BRTAP	99	0	6
BRTAP	99	0	7
NMTAP	99	96	0
NMTAP	99	96	1
EXTAP	99	192	2
EXTAP	99	192	6
NMTAP	99	288	2
NMTAP	99	288	6
NMHLD	100	0	1	72
NMHLD	100	72	3	72
NMSTR	100	144	2
BRSCL	100	144	2	96	144	5
EXTAP	101	96	3
EXTAP	101	96	4
NMTAP	101	192	1
NMTAP	101	192	3
NMTAP	101	288	0
NMTAP	102	0	6
NMTAP	102	0	7
NMTAP	102	96	5
NMTAP	102	192	4
NMTAP	102	192	6
NMTAP	102	288	7
NMTAP	103	0	0
NMTAP	103	0	1
NMTAP	103	96	2
NMTAP	103	192	1
NMTAP	103	192	3
NMTAP	103	288	1
NMTAP	103	288	3
NMTAP	104	0	0
NMTAP	104	96	7
NMTAP	104	192	4
NMTAP	104	192	6
NMTAP	104	288	4
NMTAP	104	288	6
NMTAP	105	0	7
NMTAP	105	96	0
BXHLD	105	192	1	96
BXHLD	105	192	3	96
NMHLD	106	0	2	96
NMHLD	106	0	4	96
NMHLD	106	192	3	96
NMHLD	106	192	5	96
NMHLD	107	0	4	96
NMHLD	107	0	6	96
NMHLD	107	192	4	96
NMHLD	107	192	5	96
NMHLD	108	0	4	96
NMHLD	108	0	5	96
NMTAP	108	192	3
NMSTR	108	192	6
NMSSR	108	192	6	96	192	2
NMHLD	109	192	0	96
NMTAP	109	288	7
NMTAP	110	0	0
NMTAP	110	0	7
NMTAP	110	48	1
NMTAP	110	48	6
BRTAP	110	96	2
BRTAP	110	96	5

T_REC_TAP	355
T_REC_BRK	45
T_REC_XTP	52
T_REC_BXX	4
T_REC_HLD	57
T_REC_XHO	10
T_REC_BHO	0
T_REC_BXH	3
T_REC_STR	26
T_REC_BST	0
T_REC_XST	3
T_REC_XBS	0
T_REC_TTP	4
T_REC_THO	0
T_REC_SLD	28
T_REC_BSL	2
T_REC_ALL	589
T_NUM_TAP	440
T_NUM_BRK	54
T_NUM_HLD	67
T_NUM_SLD	28
T_NUM_ALL	589
T_JUDGE_TAP	489
T_JUDGE_HLD	292
T_JUDGE_SLD	30
T_JUDGE_ALL	811
TTM_EACHPAIRS	211
TTM_SCR_TAP	220000
TTM_SCR_BRK	140400
TTM_SCR_HLD	67000
TTM_SCR_SLD	42000
TTM_SCR_ALL	469400
TTM_SCR_S	450100
TTM_SCR_SS	464000
TTM_RAT_ACV	10116

