VERSION	0.00.00	1.04.00
FES_MODE	0
BPM_DEF	170.000	170.000	170.000	170.000
MET_DEF	4	4
RESOLUTION	384
CLK_DEF	384
COMPATIBLE_CODE	MA2

BPM	0	0	170.000
MET	0	0	4	4
MET	68	0	4	2
MET	68	192	4	4

NMTAP	2	0	2
NMTAP	2	192	2
NMTAP	3	0	1
NMTAP	3	192	1
NMTAP	4	0	0
NMTAP	4	192	0
NMTAP	5	0	6
NMTAP	5	0	7
NMTAP	6	0	5
NMTAP	6	192	5
NMTAP	7	0	6
NMTAP	7	192	6
NMTAP	8	0	7
NMTAP	8	192	7
NMTAP	9	0	0
NMTAP	9	0	1
NMTAP	10	0	1
NMTAP	10	96	1
NMTAP	10	192	1
NMTAP	11	0	2
NMTAP	11	96	2
NMTAP	11	192	2
NMTAP	12	0	3
NMTAP	12	96	3
NMTAP	12	192	3
NMTAP	13	0	4
NMTAP	13	0	5
NMTAP	13	192	4
NMTAP	13	192	5
NMTAP	14	0	6
NMTAP	14	96	6
NMTAP	14	192	6
NMTAP	15	0	5
NMTAP	15	96	5
NMTAP	15	192	5
NMTAP	16	0	4
NMTAP	16	96	4
NMTAP	16	192	4
NMTAP	17	0	2
NMTAP	17	0	3
NMTAP	17	192	2
NMTAP	17	192	3
NMHLD	18	0	3	192
NMHLD	18	0	4	192
NMHLD	19	0	2	192
NMHLD	19	192	3	192
NMHLD	20	0	4	192
NMTAP	20	192	5
NMHLD	21	0	5	192
NMHLD	21	192	4	192
NMHLD	22	0	3	192
NMTAP	22	192	2
NMHLD	23	0	1	192
NMHLD	23	192	2	192
NMHLD	24	0	3	192
NMTAP	24	192	4
NMHLD	25	0	6	192
NMHLD	25	192	5	192
NMHLD	26	0	4	192
NMTAP	26	192	3
NMTAP	27	0	2
NMTAP	27	96	2
NMTAP	27	192	2
NMTAP	27	192	3
NMTAP	28	0	1
NMTAP	28	96	1
NMTAP	28	192	0
NMTAP	28	192	1
NMTAP	29	0	7
NMTAP	29	96	7
NMTAP	29	192	6
NMTAP	29	192	7
NMTAP	30	0	4
NMTAP	30	0	5
NMTAP	30	192	4
NMTAP	30	192	5
NMTAP	31	0	5
NMTAP	31	96	5
NMTAP	31	192	4
NMTAP	31	192	5
NMTAP	32	0	6
NMTAP	32	96	6
NMTAP	32	192	6
NMTAP	32	192	7
NMTAP	33	0	0
NMTAP	33	96	0
NMTAP	33	192	0
NMTAP	33	192	1
NMTAP	34	0	2
NMTAP	34	0	3
NMTAP	34	192	2
NMTAP	34	192	3
NMSTR	35	0	1
NMSI_	35	0	1	96	192	4
NMSTR	36	0	5
NMSI_	36	0	5	96	192	0
NMSTR	37	0	1
NMSI_	37	0	1	96	192	4
NMTAP	38	0	5
NMTAP	38	96	5
NMTAP	38	192	5
NMSTR	39	0	6
NMSI_	39	0	6	96	192	3
NMSTR	40	0	2
NMSI_	40	0	2	96	192	7
NMSTR	41	0	6
NMSI_	41	0	6	96	192	3
NMTAP	42	0	2
NMTAP	42	96	2
NMTAP	42	192	2
BRTAP	43	0	3
BRTAP	43	0	4
NMTAP	44	0	2
NMTAP	44	96	2
NMTAP	44	192	1
NMTAP	44	288	1
NMTAP	45	0	0
NMTAP	45	96	0
NMTAP	45	192	6
NMTAP	45	192	7
NMTAP	46	0	5
NMTAP	46	96	5
NMTAP	46	192	6
NMTAP	46	288	6
NMTAP	47	0	7
NMTAP	47	96	7
NMTAP	47	192	0
NMTAP	47	192	1
NMTAP	48	0	1
NMTAP	48	96	1
NMTAP	48	192	2
NMTAP	48	288	2
NMTAP	49	0	3
NMTAP	49	96	3
NMTAP	49	192	4
NMTAP	49	192	5
NMTAP	50	0	6
NMTAP	50	96	6
NMTAP	50	192	5
NMTAP	50	288	5
NMTAP	51	0	4
NMTAP	51	96	4
NMTAP	51	192	2
NMTAP	51	192	3
NMTAP	52	0	2
NMTAP	52	96	2
NMTAP	52	192	2
NMTAP	52	288	2
NMTAP	53	0	1
NMTAP	53	96	1
NMTAP	53	192	1
NMTAP	53	288	1
NMTAP	54	0	0
NMTAP	54	96	0
NMTAP	54	192	0
NMTAP	54	288	0
EXTAP	55	0	6
EXTAP	55	0	7
EXTAP	55	96	6
EXTAP	55	96	7
EXTAP	55	192	6
EXTAP	55	192	7
NMTAP	56	0	5
NMTAP	56	96	5
NMTAP	56	192	5
NMTAP	56	288	5
NMTAP	57	0	6
NMTAP	57	96	6
NMTAP	57	192	6
NMTAP	57	288	6
NMTAP	58	0	7
NMTAP	58	96	7
NMTAP	58	192	7
NMTAP	58	288	7
NMHLD	59	0	0	192
NMHLD	59	0	7	192
NMTAP	60	0	6
NMTAP	60	0	7
NMTAP	60	96	6
NMTAP	60	96	7
NMTAP	60	192	6
NMTAP	60	192	7
NMTAP	61	0	4
NMTAP	61	0	5
NMTAP	61	96	4
NMTAP	61	96	5
NMTAP	61	192	4
NMTAP	61	192	5
NMTAP	62	0	2
NMTAP	62	0	3
NMTAP	62	96	2
NMTAP	62	96	3
NMTAP	62	192	2
NMTAP	62	192	3
NMTAP	63	0	0
NMTAP	63	0	1
NMTAP	63	96	0
NMTAP	63	96	1
NMTAP	63	192	2
NMTAP	63	192	7
NMTAP	64	0	0
NMTAP	64	0	1
NMTAP	64	96	0
NMTAP	64	96	1
NMTAP	64	192	0
NMTAP	64	192	1
NMTAP	65	0	2
NMTAP	65	0	3
NMTAP	65	96	2
NMTAP	65	96	3
NMTAP	65	192	2
NMTAP	65	192	3
NMTAP	66	0	4
NMTAP	66	0	5
NMTAP	66	96	4
NMTAP	66	96	5
NMTAP	66	192	4
NMTAP	66	192	5
NMTAP	67	0	6
NMTAP	67	0	7
NMTAP	67	96	6
NMTAP	67	96	7
NMTAP	67	192	0
NMTAP	67	192	5
BXTAP	68	0	0
BXTAP	68	0	7
NMSTR	68	192	6
NMSCL	68	192	6	96	192	3
NMSTR	69	192	2
NMSCL	69	192	2	96	192	7
NMSTR	70	192	6
NMSCL	70	192	6	96	192	3
NMTAP	71	192	2
NMTAP	71	288	2
NMTAP	72	0	2
NMSTR	72	192	1
NMSCR	72	192	1	96	192	4
NMSTR	73	192	5
NMSCR	73	192	5	96	192	0
NMSTR	74	192	1
NMSCR	74	192	1	96	192	4
NMTAP	75	192	5
NMTAP	75	288	5
NMTAP	76	0	5
BRTAP	76	192	3
BRTAP	76	192	4
NMTTP	77	192	2	B	0	L1
NMTTP	78	0	1	B	0	L1
NMTTP	78	192	0	B	0	L1
NMTTP	79	0	7	B	0	L1
NMTTP	79	192	6	B	0	L1
NMTTP	80	0	5	B	0	L1
NMTTP	80	192	3	B	0	L1
NMTTP	80	192	4	B	0	L1
NMTTP	81	192	0	B	0	L1
NMTTP	81	288	1	B	0	L1
NMTTP	82	0	2	B	0	L1
NMTTP	82	192	7	B	0	L1
NMTTP	82	288	6	B	0	L1
NMTTP	83	0	5	B	0	L1
NMTTP	83	192	2	B	0	L1
NMTTP	83	288	3	B	0	L1
NMTTP	84	0	4	B	0	L1
NMTTP	84	96	5	B	0	L1
NMTTP	84	192	0	C	1	L1
NMTAP	85	192	7
NMTAP	85	288	6
NMTAP	86	0	5
NMTAP	86	96	4
NMTAP	86	192	3
NMTAP	86	288	2
NMTAP	87	0	0
NMTAP	87	0	1
NMTAP	87	192	0
NMTAP	87	288	1
NMTAP	88	0	2
NMTAP	88	96	3
NMTAP	88	192	4
NMTAP	88	288	5
NMTAP	89	0	6
NMTAP	89	0	7
NMTAP	89	192	5
NMTAP	89	288	6
NMTAP	90	0	7
NMTAP	90	96	0
NMTAP	90	192	1
NMTAP	90	288	2
NMTAP	91	0	3
NMTAP	91	0	4
NMTAP	91	192	2
NMTAP	91	288	1
NMTAP	92	0	0
NMTAP	92	96	7
NMTAP	92	192	6
NMTAP	92	288	5
NMTAP	93	0	3
NMTAP	93	0	4
NMTAP	93	192	5
NMTAP	93	288	5
NMTAP	94	0	4
NMTAP	94	0	5
NMTAP	94	96	4
NMTAP	94	96	5
NMTAP	94	192	6
NMTAP	94	288	6
NMTAP	95	0	6
NMTAP	95	0	7
NMTAP	95	96	6
NMTAP	95	96	7
NMTAP	95	192	0
NMTAP	95	288	0
NMTAP	96	0	0
NMTAP	96	0	1
NMTAP	96	96	0
NMTAP	96	96	1
EXTAP	96	192	2
EXTAP	96	192	3
EXTAP	96	288	2
EXTAP	96	288	3
EXTAP	97	0	2
EXTAP	97	0	3
NMTAP	97	192	2
NMTAP	97	288	2
NMTAP	98	0	2
NMTAP	98	0	3
NMTAP	98	96	2
NMTAP	98	96	3
NMTAP	98	192	1
NMTAP	98	288	1
NMTAP	99	0	0
NMTAP	99	0	1
NMTAP	99	96	0
NMTAP	99	96	1
NMTAP	99	192	7
NMTAP	99	288	7
NMTAP	100	0	6
NMTAP	100	0	7
NMTAP	100	96	6
NMTAP	100	96	7
NMHLD	100	192	4	192
NMHLD	100	192	5	192
NMTAP	101	192	6
NMTAP	101	288	6
NMTAP	102	0	6
NMTAP	102	0	7
NMTAP	102	192	5
NMTAP	102	288	5
NMTAP	103	0	4
NMTAP	103	0	5
NMTAP	103	192	3
NMTAP	103	288	3
NMTAP	104	0	2
NMTAP	104	0	3
NMTAP	104	192	0
NMTAP	104	192	1
NMTAP	104	288	0
NMTAP	104	288	1
NMTAP	105	0	2
NMTAP	105	0	7
NMTAP	105	192	1
NMTAP	105	288	1
NMTAP	106	0	0
NMTAP	106	0	1
NMTAP	106	192	2
NMTAP	106	288	2
NMTAP	107	0	2
NMTAP	107	0	3
NMTAP	107	192	4
NMTAP	107	288	4
NMTAP	108	0	4
NMTAP	108	0	5
NMTAP	108	192	6
NMTAP	108	192	7
NMTAP	108	288	6
NMTAP	108	288	7
NMTAP	109	0	0
NMTAP	109	0	5
EXTAP	109	192	0
EXTAP	109	192	7
EXTAP	109	288	0
EXTAP	109	288	7
BXTAP	110	48	1
BXTAP	110	48	6
BXTAP	110	96	1
BXTAP	110	96	6

T_REC_TAP	298
T_REC_BRK	4
T_REC_XTP	16
T_REC_BXX	6
T_REC_HLD	18
T_REC_XHO	0
T_REC_BHO	0
T_REC_BXH	0
T_REC_STR	12
T_REC_BST	0
T_REC_XST	0
T_REC_XBS	0
T_REC_TTP	19
T_REC_THO	0
T_REC_SLD	12
T_REC_BSL	0
T_REC_ALL	385
T_NUM_TAP	345
T_NUM_BRK	10
T_NUM_HLD	18
T_NUM_SLD	12
T_NUM_ALL	385
T_JUDGE_TAP	355
T_JUDGE_HLD	72
T_JUDGE_SLD	12
T_JUDGE_ALL	439
TTM_EACHPAIRS	88
TTM_SCR_TAP	172500
TTM_SCR_BRK	26000
TTM_SCR_HLD	18000
TTM_SCR_SLD	18000
TTM_SCR_ALL	234500
TTM_SCR_S	226500
TTM_SCR_SS	233500
TTM_RAT_ACV	10042

