VERSION	0.00.00	1.04.00
FES_MODE	0
BPM_DEF	140.000	140.000	140.000	140.000
MET_DEF	4	4
RESOLUTION	384
CLK_DEF	384
COMPATIBLE_CODE	MA2

BPM	0	0	140.000
MET	0	0	4	4

NMHLD	1	120	3	120
NMHLD	1	120	4	120
BRSTR	2	0	3
NMSXR	2	0	3	96	240	0
BRSTR	2	0	4
NMSXL	2	0	4	96	240	7
EXTAP	3	0	1
EXTAP	3	0	6
NMTTP	3	96	0	B	0	M1
NMTTP	3	120	7	B	0	M1
NMTTP	3	144	1	B	0	M1
NMTTP	3	168	6	B	0	M1
NMTTP	3	192	1	E	0	M1
NMTTP	3	216	7	E	0	M1
NMTTP	3	240	2	E	0	M1
NMTTP	3	264	6	E	0	M1
NMTTP	3	288	0	A	0	M1
NMTTP	3	312	7	A	0	M1
NMTTP	3	336	1	A	0	M1
NMTTP	3	360	6	A	0	M1
NMHLD	4	120	3	456
NMHLD	4	240	4	336
NMSTR	5	288	5
NMSI_	5	288	5	96	48	7
NMSTR	6	0	7
NMSV_	6	0	7	96	96	0
NMSTR	6	96	0
NMSI_	6	96	0	96	48	2
NMTAP	6	192	2
NMTAP	6	288	0
NMTAP	7	0	0
NMTAP	7	0	2
NMTAP	7	96	7
NMSTR	7	192	5
NMSI_	7	192	5	96	48	2
NMTAP	7	192	7
NMHLD	8	0	0	96
NMHLD	8	96	7	96
NMTAP	8	192	0
NMHLD	8	288	1	96
NMTAP	9	0	0
NMHLD	9	96	6	96
NMTAP	9	192	7
NMTTP	9	288	0	E	1	M1
NMTAP	10	0	3
NMTAP	10	48	3
NMTAP	10	96	4
NMTAP	10	144	4
NMTAP	10	192	2
NMTAP	10	192	3
EXTAP	10	240	0
EXTAP	10	288	0
NMHLD	11	0	7	72
NMHLD	11	72	6	72
NMTAP	11	144	5
NMHLD	11	192	5	192
NMTAP	12	0	3
NMTAP	12	48	3
NMTAP	12	96	4
NMTAP	12	144	4
NMTAP	12	192	2
NMTAP	12	192	3
EXTAP	12	240	0
EXTAP	12	288	0
NMHLD	13	0	7	72
NMHLD	13	72	6	72
NMTAP	13	144	5
NMSTR	13	192	5
NMSI_	13	192	5	96	48	0
NMTAP	14	0	3
NMTAP	14	48	3
NMTAP	14	96	4
NMTAP	14	144	2
NMTAP	14	144	3
EXTAP	14	192	0
EXTAP	14	240	0
EXTAP	14	288	5
EXTAP	14	336	5
NMTAP	15	0	6
NMTAP	15	0	7
NMTAP	15	48	6
NMTAP	15	48	7
NMTAP	15	96	0
NMHLD	15	96	5	192
NMTAP	15	192	3
NMTAP	15	240	3
NMTAP	15	288	3
NMTAP	16	0	1
NMTAP	16	48	1
NMTAP	16	96	7
NMTAP	16	144	7
NMTAP	16	192	0
NMSTR	16	192	6
NMSI_	16	192	6	96	48	0
NMTAP	16	288	2
NMTAP	17	0	1
NMTAP	17	48	1
NMTAP	17	96	7
NMTAP	17	144	7
NMTAP	17	192	0
NMSTR	17	192	6
BRSI_	17	192	6	96	48	2
NMSTR	18	96	2
NMSCR	18	96	2	96	96	4
NMTAP	18	336	5
NMTAP	19	0	3
NMTAP	19	48	4
NMTAP	19	96	2
NMTAP	19	144	3
EXSTR	19	192	0
NMSI_	19	192	0	96	48	2
EXSTR	19	240	0
NMSI_	19	240	0	96	48	6
EXSTR	19	288	0
NMSI_	19	288	0	96	48	3
EXSTR	19	336	0
NMSI_	19	336	0	96	48	5
EXSTR	20	0	0
NMSI_	20	0	0	96	48	4
EXTAP	20	48	0
EXTAP	20	96	0
NMTAP	20	192	6
NMTAP	20	240	6
NMTAP	20	288	7
NMTAP	20	336	7
NMTAP	21	0	1
NMTAP	21	24	0
NMTAP	21	48	1
NMTAP	21	72	0
NMTAP	21	96	2
EXTAP	21	192	0
EXTAP	21	192	7
EXTAP	21	224	0
EXTAP	21	224	7
EXTAP	21	256	0
EXTAP	21	256	7
EXTAP	21	288	1
EXTAP	21	288	6
NMTAP	21	360	0
NMTAP	22	0	6
NMTAP	22	24	7
NMTAP	22	48	6
NMTAP	22	72	7
NMTAP	22	96	5
NMTAP	22	192	0
NMTAP	22	192	7
NMTAP	22	240	1
NMTAP	22	264	0
NMTAP	22	288	1
NMTAP	22	336	6
NMTAP	22	336	7
NMTAP	23	0	0
NMSTR	23	0	5
NMSUL	23	0	5	96	192	3
NMHLD	24	0	2	72
NMHLD	24	72	3	72
NMTAP	24	144	4
NMTAP	24	192	4
NMSTR	24	288	2
NMSCR	24	288	2	96	192	5
NMTAP	24	288	5
NMTTP	25	288	0	E	0	M1
NMTTP	26	0	2	E	0	M1
NMTTP	26	0	6	E	0	M1
NMTHO	26	96	0	48	C	0	M1
NMTTP	26	192	2	D	0	M1
NMTTP	26	288	1	D	0	M1
NMTTP	27	0	0	D	0	M1
NMTTP	27	96	7	D	0	M1
NMTTP	27	192	6	D	0	M1
EXTAP	27	240	3
NMTTP	27	288	5	B	0	M1
NMTTP	28	0	6	B	0	M1
NMTTP	28	96	7	B	0	M1
NMTTP	28	192	0	B	0	M1
NMTTP	28	288	1	B	0	M1
NMTTP	29	0	2	B	0	M1
NMTTP	29	96	5	B	0	M1
NMTTP	29	192	0	C	0	M1
EXTAP	29	240	4
NMTAP	30	0	6
NMTAP	30	0	7
NMTAP	30	96	5
NMSTR	30	192	0
NMSCL	30	192	0	96	48	5
NMTAP	30	192	1
NMTAP	30	288	2
NMTAP	31	0	0
NMTAP	31	0	1
NMTAP	31	96	2
NMTAP	31	192	6
NMSTR	31	192	7
NMSCR	31	192	7	96	48	2
NMTAP	31	288	5
NMTAP	32	0	6
NMTAP	32	0	7
NMTAP	32	48	0
NMTAP	32	96	0
NMTAP	32	144	7
NMTAP	32	192	0
NMTAP	32	192	1
NMTAP	32	240	7
NMTAP	32	288	7
NMSTR	32	336	0
NMSCR	32	336	0	96	48	3
NMTAP	33	48	0
NMSTR	33	48	7
NMSCL	33	48	7	96	48	4
NMTAP	33	144	0
NMTAP	33	192	0
NMTAP	33	240	0
NMSTR	33	288	2
NMSUR	33	288	2	96	192	4
BRTAP	33	288	6
NMTAP	34	240	5
NMTAP	34	288	6
NMTAP	34	336	6
NMHLD	35	0	7	72
NMHLD	35	72	6	72
NMTAP	35	144	5
NMHLD	35	192	5	96
BRTAP	35	288	0
NMSTR	36	0	1
NMSI_	36	0	1	96	48	3
NMSTR	36	0	7
NMSI_	36	0	7	96	48	5
NMSTR	36	96	1
NMSI_	36	96	1	96	48	4
NMSTR	36	96	7
NMSI_	36	96	7	96	48	4
EXTAP	36	192	1
EXTAP	36	192	7
NMTAP	36	288	2
NMTAP	36	288	6
NMTAP	36	336	2
NMTAP	36	336	6
NMSTR	37	0	1
NMSCR	37	0	1	96	48	4
NMTAP	37	0	7
NMTAP	37	48	0
NMHLD	37	96	5	96
EXTAP	37	192	7
NMSTR	37	288	0
NMSCR	37	288	0	96	48	3
NMTAP	37	288	6
NMTAP	37	336	0
NMTAP	37	336	6
NMSTR	38	0	5
NMSCR	38	0	5	96	48	0
NMHLD	38	96	2	96
EXTAP	38	192	0
NMTAP	38	288	6
NMTAP	38	288	7
NMTAP	38	336	5
NMTAP	39	0	0
NMTAP	39	0	7
NMTAP	39	48	6
NMTAP	39	96	0
NMSTR	39	96	1
NMSI_	39	96	1	96	48	5
NMTAP	39	144	7
EXSTR	39	192	6
NMSI_	39	192	6	96	48	2
BRTAP	40	0	1
EXHLD	40	0	5	72
NMHLD	40	72	6	72
NMTAP	40	144	7
NMTAP	40	192	0
NMTAP	40	192	1
NMTAP	40	240	2
NMTAP	40	288	6
NMTAP	40	288	7
NMTAP	40	336	5
NMHLD	41	0	0	72
NMHLD	41	72	1	72
NMTAP	41	144	2
BRTAP	41	192	0
BRTAP	41	192	6
NMTAP	41	288	1
NMSTR	41	288	7
NMSI_	41	288	7	96	48	4
NMSI_	41	288	7	96	48	5
NMTAP	42	0	7
NMTAP	42	96	0
NMSTR	42	96	1
NMSI_	42	96	1	96	48	3
NMSI_	42	96	1	96	48	4
NMTAP	42	192	1
NMHLD	42	288	6	72
NMHLD	42	288	7	72
EXTAP	43	0	0
EXTAP	43	0	5
NMHLD	43	96	0	72
NMHLD	43	96	1	72
EXTAP	43	192	2
EXTAP	43	192	7
NMSTR	43	288	5
NMSI_	43	288	5	96	48	7
NMSTR	44	0	7
NMSV_	44	0	7	96	96	0
NMSTR	44	96	0
NMSI_	44	96	0	96	48	2
NMTAP	44	192	2
NMTTP	44	288	4	E	0	M1
EXHLD	45	48	3	384
EXHLD	45	192	4	240
NMTAP	46	192	0
NMTAP	46	192	1
NMTAP	46	240	1
NMTAP	46	288	6
NMTAP	46	288	7
NMTAP	46	336	6
NMTAP	47	0	0
NMTAP	47	24	7
NMTAP	47	48	0
NMTAP	47	72	7
NMTAP	47	192	6
NMTAP	47	192	7
NMTAP	47	240	6
NMTAP	47	288	1
NMTAP	47	312	0
NMTAP	47	336	1
NMTAP	48	0	7
NMTAP	48	24	0
NMTAP	48	48	6
NMSTR	48	72	1
NMSI_	48	72	1	96	48	3
CNSV_	48	216	3	0	120	4
CNSI_	48	336	4	0	48	6
NMTAP	49	48	0
NMTAP	49	48	7
NMTAP	49	96	6
NMTAP	49	144	5
NMTAP	49	192	6
NMTAP	49	192	7
NMTAP	49	240	0
NMTAP	49	288	1
NMTAP	49	336	2
NMTAP	50	0	0
NMSTR	50	0	1
NMSI_	50	0	1	96	48	5
EXTAP	50	48	7
EXTAP	50	96	7
NMTAP	50	192	0
NMTAP	50	192	6
NMTAP	50	240	0
NMTAP	50	240	6
NMTAP	50	288	1
NMTAP	50	288	5
NMHLD	51	48	3	96
NMHLD	51	48	4	96
NMHLD	51	192	2	144
NMHLD	51	264	3	72
NMHLD	52	48	5	144
NMHLD	52	120	4	72
NMTAP	52	288	0
NMTAP	52	288	7
NMHLD	53	0	6	72
NMTAP	53	72	7
NMTAP	53	144	1
NMTAP	53	144	5
NMTAP	53	192	0
NMTAP	53	216	7
NMTAP	53	240	0
NMTAP	53	264	7
NMTAP	53	288	1
NMTAP	53	312	0
NMTAP	53	336	1
NMTAP	53	360	0
NMHLD	54	0	1	72
NMTAP	54	72	0
NMTAP	54	144	0
NMTAP	54	144	7
NMTAP	54	192	6
NMTAP	54	216	7
NMTAP	54	240	6
NMTAP	54	264	7
NMTAP	54	288	5
NMTAP	54	312	0
NMTAP	54	336	7
NMTAP	54	360	0
NMSTR	55	0	6
NMSCL	55	0	6	96	48	3
EXTAP	55	96	3
NMTAP	55	192	1
NMTAP	55	216	0
NMTAP	55	240	1
NMTAP	55	264	0
NMTAP	55	288	2
NMTAP	55	312	7
NMTAP	55	336	0
NMTAP	55	360	7
NMHLD	56	0	1	72
NMHLD	56	72	2	72
EXTAP	56	144	3
EXHLD	56	192	4	72
NMHLD	56	264	5	72
NMTAP	56	336	6
NMTAP	57	0	6
NMTAP	57	0	7
NMSTR	57	96	5
NMSXL	57	96	5	96	120	5
NMSXR	57	96	5	96	120	5
NMTAP	58	0	0
NMTAP	58	0	1
NMSTR	58	96	2
NMSXL	58	96	2	96	120	2
NMSXR	58	96	2	96	120	2
NMTAP	59	0	6
NMTAP	59	0	7
NMTAP	59	48	5
NMTAP	59	96	0
NMTAP	59	96	7
NMTAP	59	144	6
NMTAP	59	192	0
NMTAP	59	192	1
NMTAP	59	240	2
NMTAP	59	288	0
NMTAP	59	288	7
NMTAP	59	336	1
NMTAP	60	0	6
NMTAP	60	0	7
NMSTR	60	48	0
NMSI_	60	48	0	96	48	4
NMTAP	60	144	7
NMTAP	60	192	7
NMTAP	60	240	2
NMTAP	60	240	6
NMTAP	60	288	1
NMTAP	60	288	5
NMTHO	61	0	0	384	C	1	M1
NMHLD	64	240	3	160
NMHLD	64	240	4	144
NMTTP	66	0	0	E	0	M1
NMTTP	66	96	3	E	0	M1
NMTTP	66	96	5	E	0	M1
NMTTP	66	192	0	C	0	M1
NMTTP	66	192	2	E	0	M1
NMTTP	66	192	6	E	0	M1
NMSTR	66	288	1
NMSI_	66	288	1	96	48	3
NMSTR	66	288	7
NMSI_	66	288	7	96	48	5
BXSTR	67	0	1
NMSI_	67	0	1	96	48	4
BXSTR	67	0	7
NMSI_	67	0	7	96	48	4
NMTAP	67	96	1
NMTAP	67	96	7
EXTAP	67	192	2
EXTAP	67	192	6
NMTAP	67	288	1
NMTAP	67	288	5
NMTAP	67	336	1
NMTAP	67	336	5
NMTAP	68	0	0
NMSTR	68	0	6
NMSI_	68	0	6	96	48	2
NMTAP	68	48	7
NMHLD	68	96	1	96
EXTAP	68	192	0
NMTAP	68	288	1
NMSTR	68	288	7
NMSCL	68	288	7	96	48	4
NMTAP	68	336	1
NMTAP	68	336	7
NMSTR	69	0	2
NMSI_	69	0	2	96	48	7
NMHLD	69	96	2	96
EXTAP	69	192	6
NMTAP	69	288	1
NMTAP	69	312	0
NMTAP	69	336	1
NMTAP	70	0	0
NMTAP	70	0	7
NMTAP	70	48	6
NMSTR	70	96	5
NMSCR	70	96	5	96	96	2
NMTAP	70	96	7
EXSTR	70	192	2
BRSCL	70	192	2	96	96	5
NMHLD	71	0	2	72
NMHLD	71	72	1	72
NMTAP	71	144	0
NMTAP	71	192	6
NMTAP	71	192	7
NMTAP	71	240	5
NMTAP	71	288	0
NMTAP	71	288	1
NMTAP	71	336	2
NMHLD	72	0	7	72
NMHLD	72	72	6	72
NMTAP	72	144	5
NMSTR	72	192	0
NMSI_	72	192	0	96	48	2
NMTAP	72	192	7
NMTAP	72	288	0
NMSTR	72	288	6
NMSI_	72	288	6	96	48	4
NMSTR	73	0	0
NMSI_	73	0	0	96	48	3
NMTAP	73	0	6
NMTAP	73	96	0
NMSTR	73	96	6
NMSI_	73	96	6	96	48	3
NMTAP	73	192	6
NMTAP	73	192	7
NMTAP	73	288	0
NMTAP	73	288	1
NMTAP	73	360	6
NMTAP	73	360	7
EXTAP	74	0	5
NMTAP	74	72	0
NMTAP	74	72	1
EXTAP	74	96	2
NMTAP	74	168	0
NMTAP	74	168	7
EXTAP	74	192	1
EXTAP	74	192	6
NMSTR	74	288	0
NMSI_	74	288	0	96	48	2
NMSTR	74	288	6
NMSI_	74	288	6	96	48	4
BRSTR	75	0	0
NMSI_	75	0	0	96	48	3
BRSTR	75	0	6
NMSI_	75	0	6	96	48	3
NMTAP	75	96	0
NMTAP	75	96	6
EXTAP	75	192	1
EXTAP	75	192	5
NMTAP	75	288	2
NMTAP	75	288	6
NMTAP	75	336	2
NMTAP	75	336	6
NMSTR	76	0	1
NMSUR	76	0	1	96	120	4
NMTAP	76	0	7
NMTAP	76	48	0
NMTAP	76	96	5
EXTAP	76	192	7
NMSTR	76	288	0
NMSI_	76	288	0	96	48	4
NMTAP	76	288	6
NMTAP	76	336	0
NMTAP	76	336	6
NMSTR	77	0	5
NMSCR	77	0	5	96	96	3
NMTAP	77	96	5
EXTAP	77	192	0
NMTAP	77	288	6
NMTAP	77	312	7
NMTAP	77	336	6
NMTAP	78	0	0
NMTAP	78	0	7
NMTAP	78	48	1
NMTAP	78	96	0
NMTAP	78	96	7
NMTAP	78	144	6
NMSTR	78	192	2
NMSXL	78	192	2	96	96	3
NMSLL	78	192	2	96	96	3
NMTAP	78	192	5
EXTAP	78	288	2
BRTAP	79	96	0
BRTAP	79	96	6
NMTAP	79	192	1
NMTAP	79	192	5
NMTAP	79	240	0
NMTAP	79	264	7
NMTAP	79	288	0
NMTAP	79	336	2
NMTAP	79	336	6
NMHLD	80	0	0	72
NMHLD	80	72	1	72
NMTAP	80	144	2
BRSTR	80	192	0
NMSCR	80	192	0	96	48	2
BRSTR	80	192	6
NMSCL	80	192	6	96	48	4
NMSTR	80	288	0
NMSV_	80	288	0	96	48	3
NMSTR	80	288	6
NMSV_	80	288	6	96	48	3
NMSTR	81	0	0
NMSI_	81	0	0	96	48	2
NMSTR	81	0	6
NMSI_	81	0	6	96	48	4
NMSTR	81	96	0
NMSI_	81	96	0	96	48	3
NMSTR	81	96	6
NMSI_	81	96	6	96	48	3
EXTAP	81	192	0
EXTAP	81	192	6
NMTAP	81	288	1
NMTAP	81	288	5
NMTAP	81	360	6
NMTAP	81	360	7
EXTAP	82	0	0
EXTAP	82	0	5
NMTAP	82	72	0
NMTAP	82	72	1
EXTAP	82	96	2
EXTAP	82	96	7
NMTAP	82	168	0
NMTAP	82	168	7
EXTAP	82	192	1
EXTAP	82	192	6
NMSTR	82	288	5
NMSI_	82	288	5	96	48	7
NMSTR	83	0	7
NMSV_	83	0	7	96	96	0
NMSTR	83	96	0
NMSI_	83	96	0	96	48	2
NMTAP	83	192	2
EXTAP	83	336	3
NMHLD	84	0	3	192
NMTAP	84	192	4
NMTAP	84	288	3
NMHLD	85	0	5	96
NMTAP	85	96	4
NMHLD	85	192	2	96
NMTAP	85	288	0
NMTAP	86	0	1
NMTAP	86	0	7
NMTAP	86	96	2
NMSTR	86	96	6
NMSCL	86	96	6	96	48	3
NMHLD	86	288	0	96
NMTAP	87	0	2
NMHLD	87	96	7	96
NMSTR	87	192	5
NMSLR	87	192	5	96	192	4
CNSI_	88	96	4	0	96	1
CNSI_	88	192	1	0	96	3
NMTAP	89	0	6
NMTAP	89	24	7
NMTAP	89	48	6
NMTAP	89	72	7
NMTAP	89	96	6
EXTAP	89	192	2
EXTAP	89	216	2
EXTAP	89	240	2
BXTAP	89	288	0
BXTAP	89	288	7
NMHLD	90	0	1	48
NMHLD	90	0	6	48
EXSTR	90	96	0
NMSI_	90	96	0	96	48	2
EXSTR	90	96	7
NMSI_	90	96	7	96	48	5
EXTAP	90	144	2
EXTAP	90	144	5
EXSTR	90	192	0
NMSV_	90	192	0	96	384	7
EXSTR	90	192	7
NMSV_	90	192	7	96	384	0
CNSI_	91	288	0	0	144	2
CNSI_	91	288	7	0	144	5

T_REC_TAP	320
T_REC_BRK	7
T_REC_XTP	61
T_REC_BXX	2
T_REC_HLD	56
T_REC_XHO	4
T_REC_BHO	0
T_REC_BXH	0
T_REC_STR	61
T_REC_BST	6
T_REC_XST	11
T_REC_XBS	2
T_REC_TTP	36
T_REC_THO	2
T_REC_SLD	83
T_REC_BSL	2
T_REC_ALL	653
T_NUM_TAP	489
T_NUM_BRK	19
T_NUM_HLD	62
T_NUM_SLD	83
T_NUM_ALL	653
T_JUDGE_TAP	506
T_JUDGE_HLD	162
T_JUDGE_SLD	85
T_JUDGE_ALL	753
TTM_EACHPAIRS	130
TTM_SCR_TAP	244500
TTM_SCR_BRK	49400
TTM_SCR_HLD	62000
TTM_SCR_SLD	124500
TTM_SCR_ALL	480400
TTM_SCR_S	464150
TTM_SCR_SS	478500
TTM_RAT_ACV	10039

