VERSION	0.00.00	1.04.00
FES_MODE	0
BPM_DEF	140.000	140.000	140.000	140.000
MET_DEF	4	4
RESOLUTION	384
CLK_DEF	384
COMPATIBLE_CODE	MA2

BPM	0	0	140.000
MET	0	0	4	4

NMTHO	2	0	0	384	C	1	M1
EXHLD	4	96	7	480
EXTAP	5	192	0
EXHLD	6	0	5	192
NMTAP	6	192	4
NMTAP	6	288	6
NMTAP	7	0	4
NMHLD	7	0	5	192
NMTAP	7	192	4
NMTAP	7	288	6
NMHLD	8	0	4	192
NMHLD	8	0	5	96
NMTAP	8	192	6
NMTAP	8	288	4
NMTAP	8	288	5
NMHLD	9	0	4	96
NMHLD	9	0	5	96
NMTAP	9	192	4
NMTAP	9	192	5
EXTAP	9	288	3
EXTAP	9	288	4
NMTAP	10	0	2
NMTAP	10	96	0
NMTAP	10	96	1
NMTAP	10	192	0
NMTAP	10	192	1
EXTAP	10	240	7
EXTAP	10	288	7
NMHLD	11	0	6	96
NMHLD	11	96	5	96
NMTAP	11	192	4
EXTAP	11	288	3
EXTAP	11	288	4
NMTAP	12	0	2
NMTAP	12	96	2
NMTAP	12	96	3
NMTAP	12	192	0
NMTAP	12	192	1
EXTAP	12	240	7
EXTAP	12	288	7
NMHLD	13	0	6	96
NMHLD	13	96	5	96
NMTAP	13	192	4
EXTAP	13	288	3
EXTAP	13	288	4
NMTAP	14	0	2
NMTAP	14	96	1
NMTAP	14	96	3
BRTAP	14	192	0
BRTAP	14	288	5
NMSTR	15	0	6
NMSI_	15	0	6	96	96	3
NMTAP	15	0	7
NMSTR	15	192	1
NMSI_	15	192	1	96	96	4
NMHLD	16	0	6	96
NMHLD	16	96	5	96
NMTAP	16	192	4
EXTAP	16	288	3
EXTAP	16	288	7
NMHLD	17	0	6	96
NMHLD	17	96	5	96
NMTAP	17	192	4
BRTAP	17	288	0
BRTAP	17	288	7
EXHLD	18	0	0	96
EXHLD	18	0	1	96
NMTAP	18	192	0
NMTAP	18	192	1
NMTAP	18	288	2
NMTAP	19	0	2
NMTAP	19	0	3
NMTAP	19	96	2
NMTAP	19	96	3
NMTAP	19	192	5
NMTAP	19	240	5
NMTAP	19	288	4
NMTAP	19	336	4
NMHLD	20	0	6	96
NMTAP	20	96	7
NMTAP	20	192	6
NMTAP	20	240	6
NMTAP	20	288	7
NMTAP	20	336	7
NMHLD	21	0	5	96
NMSTR	21	96	4
NMSUL	21	96	4	96	144	7
EXTAP	22	0	6
EXTAP	22	96	6
EXTAP	22	96	7
NMTAP	22	192	6
NMTAP	22	192	7
NMTAP	22	288	4
NMTAP	22	288	5
NMTAP	23	0	3
NMSTR	23	0	6
NMSCL	23	0	6	96	96	3
NMSTR	23	192	1
NMSUR	23	192	1	96	96	5
NMSTR	24	0	7
NMSUL	24	0	7	96	96	3
NMSTR	24	192	0
NMSF_	24	192	0	96	144	4
EXTAP	25	192	2
EXTAP	25	192	6
NMTTP	26	0	2	E	0	M1
NMTTP	26	96	1	E	0	M1
NMTTP	26	192	0	E	0	M1
NMTTP	26	288	0	C	0	M1
NMTTP	27	0	5	E	0	M1
NMTTP	27	96	6	E	0	M1
NMTTP	27	192	7	B	0	M1
NMTTP	27	192	7	E	0	M1
NMTTP	28	0	0	E	0	M1
NMTTP	28	96	0	C	0	M1
NMTTP	28	192	4	E	0	M1
NMTTP	28	288	3	E	0	M1
NMTTP	28	288	5	E	0	M1
NMTTP	29	0	0	C	0	M1
NMTTP	29	96	0	E	0	M1
NMTTP	29	192	1	E	0	M1
NMTTP	29	192	7	E	0	M1
NMHLD	30	0	2	96
NMHLD	30	0	3	96
NMTAP	30	192	2
NMTAP	30	192	3
NMTAP	30	288	3
NMTAP	30	288	4
NMHLD	31	0	4	96
NMHLD	31	0	5	96
NMTAP	31	192	4
NMTAP	31	192	5
NMTAP	31	288	3
NMTAP	31	288	6
NMTAP	32	0	5
NMTAP	32	48	5
NMTAP	32	96	4
NMTAP	32	192	2
NMTAP	32	240	2
NMSTR	32	288	3
NMSF_	32	288	3	96	192	7
BXTAP	34	0	1
BXTAP	34	0	5
EXTAP	34	288	3
EXTAP	34	288	4
EXHLD	35	0	3	96
EXHLD	35	0	4	96
EXTAP	35	192	2
EXTAP	35	192	5
NMSTR	35	288	0
NMSI_	35	288	0	96	48	4
NMSTR	35	288	1
NMSI_	35	288	1	96	48	3
NMSTR	36	96	6
NMSI_	36	96	6	96	48	4
NMSTR	36	96	7
NMSI_	36	96	7	96	48	3
NMSTR	36	288	0
NMSI_	36	288	0	96	48	4
NMSTR	36	288	1
NMSI_	36	288	1	96	48	3
NMSTR	37	96	6
NMSI_	37	96	6	96	48	4
NMSTR	37	96	7
NMSI_	37	96	7	96	48	3
NMTAP	37	288	0
NMTAP	37	288	7
NMHLD	38	0	1	96
NMTAP	38	0	6
NMHLD	38	96	3	96
NMHLD	38	192	4	96
NMSTR	38	288	5
NMSCL	38	288	5	96	96	2
EXTAP	39	192	1
EXTAP	39	192	7
NMTAP	39	288	1
NMTAP	39	288	7
NMTAP	40	0	2
NMTAP	40	48	2
NMTAP	40	96	4
NMTAP	40	144	4
NMTAP	40	192	3
NMTAP	40	240	3
NMTAP	40	288	5
NMTAP	40	336	5
NMTAP	41	0	0
NMTAP	41	96	2
NMTAP	41	96	3
BRTAP	41	192	4
BRTAP	41	192	5
NMSTR	41	288	6
NMSI_	41	288	6	96	48	4
NMSTR	41	288	7
NMSI_	41	288	7	96	48	3
NMSTR	42	96	0
NMSI_	42	96	0	96	48	4
NMSTR	42	96	1
NMSI_	42	96	1	96	48	3
NMSTR	42	288	1
NMSI_	42	288	1	96	48	5
NMSTR	42	288	7
NMSI_	42	288	7	96	48	3
EXTAP	43	96	2
EXTAP	43	96	6
NMTAP	43	192	2
NMTAP	43	192	6
NMTAP	43	288	0
NMTAP	43	288	1
NMTAP	44	0	6
NMTAP	44	0	7
NMTAP	44	96	4
NMTAP	44	96	5
NMTAP	44	192	2
NMTAP	44	192	3
BXTAP	44	288	1
BXSTR	44	288	4
NMSCR	44	288	4	96	384	3
EXTAP	46	192	2
EXTAP	46	240	2
EXTAP	46	288	4
EXTAP	46	336	4
EXTAP	47	0	3
EXHLD	47	48	3	144
EXTAP	47	192	6
EXTAP	47	240	6
EXTAP	47	288	4
EXTAP	47	336	4
BXHLD	48	0	3	384
BXHLD	48	0	5	192
NMSTR	49	0	6
NMSCR	49	0	6	96	96	1
NMTAP	49	192	2
NMTAP	49	288	2
NMTAP	49	288	3
NMSTR	50	0	1
NMSCL	50	0	1	96	96	6
NMTAP	50	0	4
NMTAP	50	192	5
NMSTR	50	288	4
NMSUL	50	288	4	96	288	3
NMTAP	50	288	5
NMHLD	51	0	6	672
NMTAP	52	288	3
NMTAP	53	0	4
NMTAP	53	0	5
NMTAP	53	96	6
NMTAP	53	96	7
NMTAP	53	192	6
NMTAP	53	192	7
NMTAP	53	288	4
NMTAP	53	288	5
NMTAP	54	0	2
NMTAP	54	0	3
NMTAP	54	96	0
NMTAP	54	96	1
NMTAP	54	192	0
NMTAP	54	192	1
NMSTR	54	288	2
BRSCL	54	288	2	96	96	7
NMSTR	54	288	3
BRSCR	54	288	3	96	96	6
NMTAP	55	192	6
NMTAP	55	192	7
NMSTR	55	288	4
NMSCL	55	288	4	96	96	1
NMSTR	55	288	5
NMSCR	55	288	5	96	96	0
EXTAP	56	192	0
EXTAP	56	192	1
NMTAP	56	288	2
NMTAP	56	288	7
NMTAP	57	0	6
NMTAP	57	48	6
NMTAP	57	96	4
NMTAP	57	144	4
NMTAP	57	192	5
NMTAP	57	288	3
NMTAP	57	288	6
NMTAP	58	0	1
NMTAP	58	48	1
NMTAP	58	96	3
NMTAP	58	144	3
NMTAP	58	192	2
NMTAP	58	288	2
NMTAP	58	288	3
NMTAP	59	0	1
NMTAP	59	48	1
NMTAP	59	96	4
NMTAP	59	144	5
NMTAP	59	192	2
NMTAP	59	240	2
NMTAP	59	288	7
NMHLD	59	336	6	96
EXTAP	60	48	0
EXTAP	60	144	1
EXTAP	60	144	5
EXTAP	60	192	1
EXTAP	60	192	5
EXTAP	60	288	3
EXTAP	60	288	4
NMHLD	61	0	1	384
NMHLD	61	0	6	888
BXHLD	63	0	0	768
NMTHO	64	240	0	144	C	1	M1
BXTAP	66	0	0
BXTAP	66	96	1
BXTAP	66	192	2
EXTAP	66	192	4
NMSTR	66	288	6
NMSI_	66	288	6	96	48	3
NMSTR	66	288	7
NMSI_	66	288	7	96	48	2
NMSTR	67	96	0
NMSI_	67	96	0	96	48	5
NMSTR	67	96	1
NMSI_	67	96	1	96	48	4
NMSTR	67	288	6
NMSI_	67	288	6	96	48	3
NMSTR	67	288	7
NMSI_	67	288	7	96	48	2
NMSTR	68	96	0
NMSI_	68	96	0	96	48	5
NMSTR	68	96	1
NMSI_	68	96	1	96	48	4
NMTAP	68	288	6
NMTAP	68	288	7
NMHLD	69	0	0	96
NMTAP	69	0	5
NMHLD	69	96	2	96
NMHLD	69	192	4	96
NMSTR	69	288	6
NMSUL	69	288	6	96	96	2
EXTAP	70	192	1
EXTAP	70	192	7
NMTAP	70	288	2
NMTAP	70	288	6
NMTAP	71	0	5
NMTAP	71	48	5
NMTAP	71	96	3
NMTAP	71	144	4
NMTAP	71	192	2
NMTAP	71	240	2
NMTAP	71	288	3
NMTAP	71	336	3
NMTAP	72	0	1
NMTAP	72	48	1
NMTAP	72	96	7
NMTAP	72	144	0
BRTAP	72	192	1
BRTAP	72	192	7
NMHLD	72	288	2	96
NMTAP	72	288	6
NMTAP	73	0	0
NMTAP	73	96	1
NMHLD	73	96	5	96
NMTAP	73	192	7
NMHLD	73	288	3	96
NMTAP	73	288	6
NMTAP	74	0	2
NMTAP	74	96	1
NMTAP	74	96	4
BRTAP	74	192	7
EXSTR	74	288	3
NMSI_	74	288	3	96	48	7
NMSTR	74	288	6
NMSI_	74	288	6	96	48	4
NMSTR	75	96	1
NMSI_	75	96	1	96	48	3
EXSTR	75	96	4
NMSI_	75	96	4	96	48	0
EXSTR	75	288	3
NMSI_	75	288	3	96	48	7
NMSTR	75	288	6
NMSI_	75	288	6	96	48	4
NMSTR	76	96	1
NMSI_	76	96	1	96	48	3
EXSTR	76	96	4
NMSI_	76	96	4	96	48	0
EXTAP	76	288	2
EXTAP	76	288	7
NMTAP	77	0	3
NMHLD	77	0	6	96
NMHLD	77	96	4	96
NMHLD	77	192	2	96
NMHLD	77	288	0	96
EXTAP	78	0	7
EXTAP	78	48	7
EXTAP	78	96	7
BXTAP	78	192	0
BXTAP	78	192	6
NMSTR	78	288	1
NMSI_	78	288	1	96	48	3
NMSTR	78	288	5
NMSI_	78	288	5	96	48	3
BXTAP	79	96	0
BXTAP	79	96	6
NMTAP	79	192	1
NMTAP	79	240	1
NMTAP	79	288	4
NMTAP	79	336	4
NMTAP	80	0	3
NMTAP	80	48	3
NMTAP	80	96	6
NMTAP	80	144	6
EXTAP	80	192	6
EXTAP	80	192	7
EXSTR	80	288	0
NMSI_	80	288	0	96	48	4
NMSTR	80	288	5
NMSI_	80	288	5	96	48	7
NMSTR	81	96	2
NMSI_	81	96	2	96	48	0
EXSTR	81	96	7
NMSI_	81	96	7	96	48	3
EXSTR	81	288	0
NMSI_	81	288	0	96	48	4
NMSTR	81	288	5
NMSI_	81	288	5	96	48	7
EXTAP	82	96	3
EXTAP	82	96	6
BRTAP	82	192	1
BRTAP	82	192	4
NMSTR	82	288	2
BRSLL	82	288	2	96	192	4
NMSTR	82	288	5
BRSLR	82	288	5	96	192	3
NMTAP	84	0	2
NMHLD	84	0	5	192
NMTAP	84	144	4
NMTAP	84	192	4
NMTAP	84	288	3
NMTAP	84	288	6
NMHLD	85	0	2	192
NMTAP	85	0	5
NMTAP	85	144	3
NMTAP	85	192	3
NMSTR	85	288	0
NMSCL	85	288	0	96	120	5
NMSTR	85	288	1
NMSUL	85	288	1	96	120	4
EXTAP	86	192	3
EXTAP	86	192	4
NMSTR	86	288	2
NMSI_	86	288	2	96	96	0
NMSTR	86	288	3
NMSI_	86	288	3	96	96	7
CNSI_	87	96	0	0	96	4
CNSI_	87	96	7	0	96	5
NMTAP	88	0	4
NMHLD	88	0	6	192
NMTAP	88	144	7
NMTAP	88	192	7
NMTAP	88	288	0
NMTAP	88	288	5
NMTAP	89	0	0
NMTAP	89	0	5
NMTAP	89	96	1
NMTAP	89	96	6
NMSTR	89	192	0
BRSI_	89	192	0	96	48	2
NMSTR	89	192	7
BRSI_	89	192	7	96	48	5
EXTAP	90	0	3
EXTAP	90	0	4
EXTAP	90	48	3
EXTAP	90	48	4
EXTAP	90	96	3
EXTAP	90	96	4
NMTTP	90	192	0	C	0	M1
NMTTP	90	192	1	B	0	M1
NMTTP	90	192	2	E	0	M1
NMTTP	90	192	2	A	0	M1
NMTTP	90	192	5	A	0	M1
NMTTP	90	192	6	B	0	M1
NMTTP	90	192	6	E	0	M1
BXHLD	90	288	0	504
EXTAP	90	288	7

T_REC_TAP	185
T_REC_BRK	11
T_REC_XTP	65
T_REC_BXX	10
T_REC_HLD	39
T_REC_XHO	7
T_REC_BHO	0
T_REC_BXH	4
T_REC_STR	56
T_REC_BST	0
T_REC_XST	7
T_REC_XBS	1
T_REC_TTP	24
T_REC_THO	2
T_REC_SLD	58
T_REC_BSL	6
T_REC_ALL	475
T_NUM_TAP	337
T_NUM_BRK	32
T_NUM_HLD	48
T_NUM_SLD	58
T_NUM_ALL	475
T_JUDGE_TAP	359
T_JUDGE_HLD	198
T_JUDGE_SLD	64
T_JUDGE_ALL	621
TTM_EACHPAIRS	122
TTM_SCR_TAP	168500
TTM_SCR_BRK	83200
TTM_SCR_HLD	48000
TTM_SCR_SLD	87000
TTM_SCR_ALL	386700
TTM_SCR_S	372000
TTM_SCR_SS	383500
TTM_RAT_ACV	10083

