VERSION	0.00.00	1.04.00
FES_MODE	0
BPM_DEF	220.000	220.000	220.000	220.000
MET_DEF	4	4
RESOLUTION	384
CLK_DEF	384
COMPATIBLE_CODE	MA2

BPM	0	0	220.000
MET	0	0	4	4
MET	131	0	4	6
MET	132	192	4	4

BXHLD	3	0	3	384
BXSTR	3	0	4
NMSCR	3	0	4	96	1248	3
NMHLD	5	0	4	384
BXSTR	7	0	3
NMSCL	7	0	3	96	288	0
BXTAP	7	0	4
NMTAP	7	96	5
NMTAP	7	192	5
NMTAP	7	288	5
NMSTR	8	0	6
NMSCL	8	0	6	96	288	3
NMTAP	8	96	0
NMTAP	8	192	0
NMTAP	8	288	0
BXTAP	9	0	1
NMTAP	9	96	1
NMTAP	9	192	2
NMTAP	9	288	3
BXHLD	10	0	2	96
BXHLD	10	0	4	96
NMTAP	10	192	3
NMTAP	10	216	5
NMTAP	10	240	3
NMTAP	10	264	5
NMTAP	10	288	3
NMTAP	10	312	5
NMTAP	10	336	3
NMTAP	10	360	5
BXSTR	11	0	2
NMSI_	11	0	2	96	48	5
NMTAP	11	48	2
NMTAP	11	96	6
NMHLD	11	192	7	96
NMSTR	11	288	4
NMSCL	11	288	4	96	96	0
NMTAP	11	336	4
NMSTR	12	0	0
NMSCL	12	0	0	96	96	4
NMTAP	12	96	4
NMTAP	12	192	0
NMTAP	12	288	2
NMTAP	12	288	7
BXSTR	13	0	5
NMSI_	13	0	5	96	48	2
NMTAP	13	48	5
NMTAP	13	96	1
NMHLD	13	192	0	96
NMSTR	13	288	3
NMSCR	13	288	3	96	96	7
NMTAP	13	336	3
NMSTR	14	0	7
NMSCR	14	0	7	96	96	3
NMTAP	14	96	3
NMTAP	14	192	7
NMTAP	14	288	3
NMTAP	14	288	5
BXTAP	15	0	4
EXHLD	15	0	6	192
NMTAP	15	96	4
NMTAP	15	192	4
NMTAP	15	288	4
NMTAP	15	288	5
NMTAP	15	336	3
EXHLD	16	0	2	192
BXTAP	16	0	4
NMTAP	16	96	4
NMTAP	16	192	4
NMTAP	16	288	1
NMTAP	16	288	3
BXTAP	17	0	0
NMTAP	17	48	0
NMTAP	17	96	6
NMTAP	17	144	6
NMTAP	17	192	1
NMTAP	17	240	1
NMTAP	17	288	7
NMTAP	17	336	7
BXTAP	18	0	0
NMTAP	18	48	0
NMTAP	18	96	2
NMTAP	18	144	2
NMTAP	18	192	4
NMTAP	18	240	4
NMTAP	18	288	6
NMTAP	18	336	6
NMTAP	19	0	0
NMTAP	19	0	7
NMTAP	19	48	0
NMTAP	19	48	7
NMTAP	19	96	0
NMTAP	19	96	7
NMTAP	19	144	0
NMTAP	19	144	7
NMTAP	19	192	0
NMTAP	19	216	7
NMTAP	19	240	0
NMTAP	19	264	7
NMTAP	19	288	0
NMTAP	19	312	7
NMTAP	19	336	0
NMTAP	19	360	7
NMSTR	20	0	0
NMSI_	20	0	0	96	48	3
NMSTR	20	96	4
NMSI_	20	96	4	96	48	7
BXTAP	20	192	2
NMSTR	20	288	0
NMSI_	20	288	0	96	48	4
BRTAP	21	0	0
NMSTR	21	0	6
NMSI_	21	0	6	96	48	3
NMSTR	21	96	1
NMSI_	21	96	1	96	48	4
NMTAP	21	96	6
NMTAP	21	192	1
NMSTR	21	192	7
NMSI_	21	192	7	96	48	3
NMSTR	21	288	2
NMSI_	21	288	2	96	48	7
NMTAP	21	288	7
NMTAP	22	0	2
NMSTR	22	0	5
NMSCL	22	0	5	96	48	2
NMSTR	22	96	0
NMSI_	22	96	0	96	48	4
NMTAP	22	96	5
NMTAP	22	192	0
NMTAP	22	192	7
NMTAP	22	288	3
NMTAP	22	288	5
NMTAP	22	336	2
NMTAP	22	336	6
BRSTR	23	0	1
NMSI_	23	0	1	96	48	4
BRTAP	23	0	7
NMTAP	23	96	1
NMSTR	23	96	5
NMSI_	23	96	5	96	48	0
NMTAP	23	192	3
NMTAP	23	192	5
NMTAP	23	288	1
NMTAP	23	288	7
BRTAP	24	0	2
BRTAP	24	0	6
NMTAP	24	48	5
NMTAP	24	72	4
NMTAP	24	96	5
NMTAP	24	120	4
NMHLD	24	144	5	48
NMTAP	24	192	2
NMTAP	24	216	3
NMTAP	24	240	2
NMTAP	24	264	3
NMTAP	24	288	1
BRTAP	25	0	0
BRSTR	25	0	7
NMSI_	25	0	7	96	48	3
NMSTR	25	96	1
NMSI_	25	96	1	96	48	4
NMTAP	25	96	7
NMTAP	25	192	1
NMSTR	25	192	6
NMSI_	25	192	6	96	48	3
NMSTR	25	288	2
NMSI_	25	288	2	96	48	7
NMTAP	25	288	6
NMTAP	26	0	2
NMSTR	26	0	5
NMSI_	26	0	5	96	48	2
NMSTR	26	96	0
NMSI_	26	96	0	96	48	4
NMTAP	26	96	5
NMTAP	26	192	0
NMTAP	26	192	7
NMTAP	26	288	3
NMTAP	26	288	5
NMTAP	26	336	2
NMTAP	26	336	6
BRSTR	27	0	1
NMSI_	27	0	1	96	48	4
BRTAP	27	0	7
NMTAP	27	96	1
NMSTR	27	96	6
NMSI_	27	96	6	96	48	2
BRTAP	27	192	0
BRTAP	27	192	6
NMTAP	27	288	0
NMTAP	27	288	1
NMTAP	27	336	0
NMTAP	27	336	1
BRTAP	28	0	2
BRTAP	28	0	7
NMHLD	28	96	4	48
NMHLD	28	96	5	48
NMHLD	28	192	4	48
NMHLD	28	192	5	48
NMTAP	28	288	4
NMTAP	28	288	5
NMTAP	28	312	3
NMTAP	28	336	2
NMTAP	28	360	1
EXSTR	29	0	0
NMSCL	29	0	0	96	48	5
NMSTR	29	96	4
NMSI_	29	96	4	96	48	0
NMTAP	29	144	4
NMSTR	29	192	1
NMSCR	29	192	1	96	48	4
NMTAP	29	288	6
NMSTR	30	0	7
NMSCR	30	0	7	96	48	2
NMSTR	30	96	3
NMSI_	30	96	3	96	48	7
NMTAP	30	144	3
NMSTR	30	192	6
NMSCL	30	192	6	96	48	3
NMTAP	30	288	0
NMHLD	31	0	1	96
NMTAP	31	96	2
NMTAP	31	144	3
NMSTR	31	192	4
NMSI_	31	192	4	96	48	7
NMSTR	31	288	0
NMSCR	31	288	0	96	48	3
NMSTR	32	0	0
NMSCL	32	0	0	96	48	5
NMSTR	32	96	0
NMSI_	32	96	0	96	48	4
NMTAP	32	192	0
NMTAP	32	288	3
NMTAP	32	288	5
NMSTR	33	0	6
NMSI_	33	0	6	96	48	4
NMTAP	33	96	0
NMSTR	33	96	6
NMSI_	33	96	6	96	48	0
NMTAP	33	192	1
NMSTR	33	192	6
NMSI_	33	192	6	96	48	2
NMTAP	33	288	2
NMTAP	33	288	6
NMSTR	34	0	0
NMSI_	34	0	0	96	48	3
NMSTR	34	0	1
NMSI_	34	0	1	96	48	3
NMTAP	34	96	0
NMTAP	34	96	1
NMSTR	34	192	4
NMSI_	34	192	4	96	48	7
NMSTR	34	192	5
NMSI_	34	192	5	96	48	7
NMTAP	34	288	4
NMTAP	34	288	5
BRTAP	35	0	0
NMTAP	35	96	6
NMTAP	35	128	4
NMTAP	35	160	5
NMHLD	35	192	2	96
NMTAP	35	288	3
NMTAP	35	320	2
NMTAP	35	352	4
NMHLD	36	0	1	96
NMTAP	36	96	0
NMTAP	36	192	0
NMSTR	36	192	7
NMSI_	36	192	7	96	48	2
NMSI_	36	192	7	96	48	4
BRTAP	37	0	1
BRTAP	37	0	5
NMTAP	37	96	2
NMTAP	37	144	2
NMTAP	37	192	3
NMTAP	37	192	4
NMTAP	37	240	5
NMTAP	37	288	4
NMTAP	37	336	6
NMSTR	38	0	6
NMSLL	38	0	6	96	144	2
NMTAP	38	96	7
NMTAP	38	144	7
NMTAP	38	240	1
NMTAP	38	288	1
BXTAP	38	336	1
BXTAP	38	336	7
EXHLD	39	64	0	32
EXHLD	39	64	1	32
EXHLD	39	128	0	32
EXHLD	39	128	1	32
NMHLD	39	192	2	32
NMHLD	39	192	3	32
NMHLD	39	256	4	32
NMHLD	39	256	5	32
NMHLD	39	320	6	32
NMHLD	39	320	7	32
NMHLD	40	0	0	32
NMHLD	40	0	5	32
NMHLD	40	64	1	32
NMHLD	40	64	4	32
NMHLD	40	128	2	32
NMHLD	40	128	3	32
NMHLD	40	192	3	32
NMHLD	40	192	4	32
NMHLD	40	256	4	32
NMHLD	40	256	5	32
EXTAP	40	320	3
EXTAP	40	320	6
BXTAP	41	0	3
BXTAP	41	0	6
NMTAP	41	96	5
NMTAP	41	144	5
NMTAP	41	192	3
NMTAP	41	192	4
NMTAP	41	240	2
NMTAP	41	288	3
NMTAP	41	336	1
NMSTR	42	0	1
NMSLR	42	0	1	96	144	5
NMTAP	42	96	0
NMTAP	42	144	0
NMTAP	42	240	6
NMTAP	42	288	6
BXTAP	42	336	0
BXTAP	42	336	6
EXTAP	43	80	1
EXTAP	43	112	3
EXHLD	43	144	2	64
EXHLD	43	208	4	64
EXHLD	43	272	3	64
EXTAP	43	336	5
EXTAP	44	0	3
EXTAP	44	0	5
BXTAP	44	96	4
BXTAP	44	96	6
BXTAP	44	192	0
BXTAP	44	192	7
BXSTR	44	288	1
BRSI_	44	288	1	96	48	5
BXSTR	44	288	5
BRSI_	44	288	5	96	48	1
NMTTP	45	0	0	C	1	M1
NMSTR	45	192	0
NMSCL	45	192	0	96	96	5
NMSTR	45	288	5
NMSCL	45	288	5	96	96	2
NMSTR	46	0	2
NMSUL	46	0	2	96	96	5
NMTAP	46	96	5
NMTAP	46	192	7
NMTAP	46	288	0
NMTAP	46	288	6
BRTAP	47	0	3
BRSTR	47	0	7
NMSCR	47	0	7	96	96	2
NMSTR	47	96	2
NMSCR	47	96	2	96	96	5
NMSTR	47	192	5
NMSCR	47	192	5	96	96	0
NMSTR	47	288	0
NMSUR	47	288	0	96	96	5
NMTAP	48	0	5
NMTAP	48	96	0
NMTAP	48	192	1
NMTAP	48	192	7
NMTAP	48	288	2
NMTAP	48	288	6
BRSTR	49	0	1
NMSI_	49	0	1	96	96	4
NMHLD	49	0	5	96
CNSI_	49	192	4	0	96	7
NMSTR	49	192	7
NMSI_	49	192	7	96	96	2
NMTAP	49	288	6
CNSI_	50	0	2	0	96	5
NMSTR	50	0	5
NMSI_	50	0	5	96	96	0
NMTAP	50	96	4
NMTAP	50	192	3
NMTAP	50	288	2
NMTAP	50	288	4
BRTAP	51	0	3
BRTAP	51	0	5
NMTAP	51	96	4
NMTAP	51	128	4
NMTAP	51	160	4
NMTAP	51	192	4
NMTAP	51	288	3
NMTAP	51	288	5
NMTAP	52	0	2
NMTAP	52	32	2
NMTAP	52	64	2
NMTAP	52	96	2
NMTAP	52	192	1
NMTAP	52	192	3
NMTAP	52	288	0
NMTAP	52	320	0
NMTAP	52	352	0
NMTAP	53	0	0
NMTAP	53	96	1
NMTAP	53	96	5
NMTAP	53	192	1
NMTAP	53	192	5
NMTAP	53	224	2
NMTAP	53	224	6
NMTAP	53	256	3
NMTAP	53	256	7
NMHLD	53	288	0	64
NMHLD	53	288	4	64
BXSTR	54	0	0
NMSCL	54	0	0	96	192	4
BXSTR	54	0	4
NMSCL	54	0	4	96	192	0
NMTHO	55	0	0	768	C	0	M1
BRHLD	55	0	1	5760
NMSTR	58	0	5
NMSCL	58	0	5	96	192	2
NMTTP	59	0	3	E	0	M1
NMTTP	59	192	0	C	0	M1
NMTTP	60	0	7	E	0	M1
NMTTP	60	192	1	E	0	M1
NMTHO	61	0	0	384	C	0	M1
NMSTR	63	0	7
NMSI_	63	0	7	96	96	1
CNSI_	63	192	1	0	192	6
CNSI_	64	0	6	0	192	2
CNSI_	64	192	2	0	192	5
CNSI_	65	0	5	0	192	3
NMHLD	66	0	3	192
NMHLD	67	0	2	192
NMTTP	68	0	2	B	0	M1
NMTTP	68	0	2	E	0	M1
NMTTP	68	0	3	E	0	M1
NMTAP	68	192	0
NMTHO	69	0	0	384	C	0	M1
NMTAP	70	192	0
NMTAP	70	216	7
NMTAP	70	240	0
NMTAP	70	264	7
NMTAP	70	288	0
BRTAP	71	0	2
BRTAP	71	0	3
BRTAP	71	48	2
BRSTR	71	48	3
BRSI_	71	48	3	96	240	0
NMSCR	71	48	3	96	72	4
CNSI_	71	216	4	0	168	7
NMTAP	72	192	0
NMTAP	72	240	0
NMTAP	72	288	5
NMTAP	72	336	5
BRTAP	73	0	6
BRTAP	73	0	7
BRTAP	73	48	6
BRSTR	73	48	7
NMSI_	73	48	7	96	240	4
BRSCR	73	48	7	96	72	0
CNSI_	73	216	0	0	168	3
NMTAP	74	192	3
NMTAP	74	192	5
NMTAP	74	240	3
NMTAP	74	240	5
NMTAP	74	288	3
NMHLD	74	288	5	96
BXTAP	75	0	4
NMTAP	75	96	2
NMTAP	75	128	2
NMTAP	75	160	4
BXHLD	75	192	3	96
NMTAP	75	288	5
NMTAP	75	320	5
NMTAP	75	352	4
BXHLD	76	0	6	96
NMHLD	76	96	4	96
BXHLD	76	192	3	96
NMTAP	76	288	1
NMSTR	77	0	2
NMSI_	77	0	2	96	240	7
NMTAP	77	96	3
NMTAP	77	192	3
NMTAP	77	288	4
NMSTR	78	0	5
NMSI_	78	0	5	96	240	0
NMTAP	78	96	4
NMTAP	78	192	3
NMTAP	78	288	2
BRTAP	79	0	1
NMTAP	79	48	1
NMTAP	79	96	0
NMTAP	79	144	0
NMTAP	79	192	1
NMTAP	79	192	7
NMTAP	79	240	1
NMTAP	79	240	7
NMTAP	79	288	1
NMTAP	79	288	7
NMTAP	79	336	1
NMTAP	79	336	7
NMTAP	80	0	7
NMTAP	80	24	6
NMTAP	80	48	5
NMTAP	80	72	4
NMTAP	80	96	1
NMTAP	80	120	2
NMTAP	80	144	3
NMTAP	80	168	4
NMTAP	80	192	7
NMTAP	80	216	6
NMTAP	80	240	5
NMTAP	80	264	4
NMTAP	80	288	3
NMTAP	80	312	2
NMTAP	80	336	1
NMTAP	80	360	0
BRTAP	81	0	3
NMHLD	81	0	7	384
BRTAP	82	0	4
BRTAP	82	48	4
BRTAP	82	96	3
BRTAP	82	96	5
BRTAP	82	144	3
BRTAP	82	144	5
NMTAP	82	192	2
NMTAP	82	216	4
NMTAP	82	240	2
NMTAP	82	264	4
NMTAP	82	288	1
NMTAP	82	312	3
NMTAP	82	336	1
NMTAP	82	360	3
BRSTR	83	0	0
NMSI_	83	0	0	96	48	3
NMSTR	83	96	0
BRSI_	83	96	0	96	48	4
NMSTR	83	96	5
BRSCR	83	96	5	96	48	7
NMTAP	83	192	0
NMSTR	83	192	5
NMSI_	83	192	5	96	48	3
NMSTR	83	288	1
BRSI_	83	288	1	96	48	7
NMTAP	83	288	5
NMSTR	84	0	1
NMSCR	84	0	1	96	48	3
NMSTR	84	0	4
NMSI_	84	0	4	96	48	0
NMSTR	84	96	1
BRSI_	84	96	1	96	48	5
NMTAP	84	96	4
NMTAP	84	192	1
NMSTR	84	192	7
NMSI_	84	192	7	96	48	3
NMTAP	84	288	3
NMTAP	84	288	7
NMTAP	84	336	2
NMSTR	85	0	1
NMSI_	85	0	1	96	48	7
NMSTR	85	0	4
NMSI_	85	0	4	96	48	7
NMSTR	85	96	1
NMSI_	85	96	1	96	48	3
NMTAP	85	96	4
NMTAP	85	192	1
NMSTR	85	192	6
NMSI_	85	192	6	96	48	3
NMSTR	85	288	1
NMSI_	85	288	1	96	48	5
NMSTR	85	288	6
NMSCR	85	288	6	96	48	0
NMTAP	85	336	0
NMTAP	86	0	1
NMTAP	86	0	6
EXTAP	86	96	2
EXTAP	86	96	7
NMTAP	86	192	4
NMTAP	86	192	5
NMTAP	86	240	4
NMTAP	86	240	5
NMTAP	86	288	3
NMTAP	86	288	6
NMTAP	86	336	3
NMTAP	86	336	6
BRSTR	87	0	7
NMSI_	87	0	7	96	48	4
NMSTR	87	96	2
BRSCL	87	96	2	96	48	0
NMSTR	87	96	7
BRSI_	87	96	7	96	48	3
NMSTR	87	192	2
NMSI_	87	192	2	96	48	4
NMTAP	87	192	7
NMTAP	87	288	2
NMSTR	87	288	6
BRSI_	87	288	6	96	48	0
NMSTR	88	0	3
NMSI_	88	0	3	96	48	7
NMSTR	88	0	6
NMSCL	88	0	6	96	48	4
NMTAP	88	96	3
NMSTR	88	96	6
BRSI_	88	96	6	96	48	2
NMSTR	88	192	0
NMSI_	88	192	0	96	48	4
NMTAP	88	192	6
NMTAP	88	288	0
NMTAP	88	288	4
NMTAP	88	336	5
NMSTR	89	0	3
BRSI_	89	0	3	96	48	0
NMSTR	89	0	6
BRSI_	89	0	6	96	48	0
NMTAP	89	96	3
NMSTR	89	96	6
NMSI_	89	96	6	96	48	4
NMSTR	89	192	1
BRSI_	89	192	1	96	48	4
NMSTR	89	192	6
BRSI_	89	192	6	96	48	2
NMTAP	89	288	1
NMTAP	89	288	6
BRHLD	90	0	7	48
BRHLD	90	72	4	48
BRHLD	90	72	6	48
BRHLD	90	144	2	48
BRHLD	90	144	3	48
BRTAP	90	216	0
BRTAP	90	216	1
BRTAP	90	280	0
BRTAP	90	280	1
EXTAP	90	296	2
EXTAP	90	296	7
EXTAP	90	312	3
EXTAP	90	312	6
BXHLD	90	328	4	104
BXHLD	90	328	5	104
EXTAP	91	96	3
EXSTR	91	96	6
BRSLL	91	96	6	96	96	2
BXSTR	91	192	2
BRSCR	91	192	2	96	96	7
BXSTR	91	288	7
BRSLL	91	288	7	96	96	2
BXSTR	92	0	2
BRSLR	92	0	2	96	96	7
BXSTR	92	96	7
BRSCL	92	96	7	96	96	2
BXSTR	92	192	2
BRSI_	92	192	2	96	48	5
BXSTR	92	288	7
BRSI_	92	288	7	96	48	4
CNSI_	92	336	5	0	48	7
BXSTR	93	0	2
BRSCR	93	0	2	96	96	7
CNSI_	93	48	4	0	48	2
BXSTR	93	96	7
BRSLL	93	96	7	96	96	2
BXSTR	93	192	2
BRSLR	93	192	2	96	96	7
BXTAP	93	288	7
NMTAP	94	0	1
NMTAP	94	48	1
NMTAP	94	96	0
NMSTR	94	96	1
NMSI_	94	96	1	96	48	5
BRTAP	94	192	7
CNSI_	94	240	5	0	48	1
BRTAP	94	240	7
BRTAP	94	336	0
BRTAP	94	336	6
NMTAP	95	48	6
NMTAP	95	48	7
NMTAP	95	96	6
NMSTR	95	96	7
NMSCR	95	96	7	96	48	2
NMTAP	95	192	5
NMTAP	95	192	7
NMSTR	95	288	3
BRSI_	95	288	3	96	48	7
NMSTR	95	288	6
BRSI_	95	288	6	96	48	4
NMTAP	96	0	3
NMTAP	96	0	6
NMTAP	96	96	0
NMTAP	96	96	3
BRTAP	96	192	4
BRTAP	96	192	5
BRSTR	96	240	3
NMSCL	96	240	3	96	48	0
BRTAP	96	240	6
NMTTP	96	336	0	C	1	M1
NMTAP	97	48	7
NMTAP	97	72	7
NMTAP	97	96	0
NMTAP	97	120	1
NMTAP	97	144	2
NMTAP	97	168	3
NMTAP	97	192	6
NMTAP	97	216	5
NMTAP	97	240	4
NMTAP	97	264	3
NMTAP	97	288	0
BRSTR	97	336	1
BRSI_	97	336	1	96	48	5
BRSTR	97	336	7
BRSI_	97	336	7	96	48	5
BRSTR	98	48	1
BRSI_	98	48	1	96	48	3
BRSTR	98	48	7
BRSI_	98	48	7	96	48	3
BRTAP	98	144	1
BRTAP	98	144	7
BRTAP	98	240	1
BRTAP	98	240	7
BRTAP	98	288	2
BRTAP	98	288	6
BRTAP	99	0	4
BRHLD	99	0	5	96
NMTAP	99	96	4
NMTAP	99	144	3
NMHLD	99	144	5	96
NMTAP	99	240	3
NMTAP	99	288	2
NMHLD	99	288	5	96
NMTAP	100	0	2
NMTAP	100	48	1
NMHLD	100	48	5	96
NMTAP	100	144	1
NMTAP	100	192	0
NMHLD	100	192	5	96
NMTAP	100	288	0
NMHLD	100	336	5	96
NMTAP	100	336	7
NMTAP	101	48	6
BRTAP	101	96	6
BRTAP	101	192	4
BRTAP	101	192	5
BRTAP	101	288	2
BRTAP	101	288	3
BRTAP	102	0	0
BRHLD	102	0	1	96
NMTAP	102	96	7
NMHLD	102	144	1	96
NMTTP	102	144	7	B	0	M1
NMTAP	102	240	6
NMHLD	102	288	1	96
NMTTP	102	288	6	B	0	M1
NMTAP	103	0	5
NMHLD	103	48	1	96
NMTTP	103	48	5	B	0	M1
NMTAP	103	144	4
NMHLD	103	192	1	96
NMTTP	103	192	4	B	0	M1
NMTAP	103	288	3
NMHLD	103	336	1	96
NMTTP	103	336	3	B	0	M1
BRTAP	104	48	2
BRSTR	104	96	2
BRSCR	104	96	2	96	48	5
BRSTR	104	192	7
BRSCR	104	192	7	96	48	2
BRSTR	104	288	6
BRSI_	104	288	6	96	384	2
NMTTP	105	0	1	B	0	M1
NMTTP	105	0	2	B	0	M1
NMTTP	105	0	2	E	1	M1
NMTTP	105	0	2	D	0	M1
CNSI_	106	0	2	0	192	4
CNSI_	106	192	4	0	192	7
CNSI_	107	0	7	0	192	1
CNSI_	107	192	1	0	384	5
EXTAP	109	0	5
NMTAP	109	96	5
NMTAP	109	144	4
NMHLD	109	192	3	96
NMTAP	109	192	5
NMTAP	109	288	5
EXTAP	110	0	5
NMTAP	110	96	5
NMTAP	110	144	4
NMHLD	110	192	3	96
NMTAP	110	192	5
NMTAP	110	288	5
NMHLD	111	0	2	96
NMTAP	111	0	4
NMTAP	111	96	4
NMTAP	111	192	4
NMHLD	111	192	6	96
NMSTR	111	288	4
NMSCL	111	288	4	96	96	0
NMTAP	112	0	5
NMSTR	112	96	3
NMSCR	112	96	3	96	96	7
NMTAP	112	192	2
NMSTR	112	288	0
NMSSL	112	288	0	96	288	4
BRTAP	114	0	2
BRTAP	114	0	7
NMTAP	114	48	1
NMTAP	114	72	0
NMTAP	114	96	1
NMTAP	114	120	0
NMHLD	114	144	2	48
BRTAP	114	192	4
NMTAP	114	240	6
NMTAP	114	264	7
NMTAP	114	288	6
NMTAP	114	312	7
NMHLD	114	336	5	48
BRTAP	115	0	3
NMTAP	115	48	1
NMTAP	115	72	0
NMTAP	115	96	1
NMTAP	115	120	0
NMHLD	115	144	2	48
BRTAP	115	192	3
BRTAP	115	264	6
BRTAP	115	264	7
BRTAP	115	336	1
BRTAP	115	336	4
BRTAP	116	0	1
BRTAP	116	0	4
NMTAP	116	48	2
NMTAP	116	72	3
NMTAP	116	96	1
NMTAP	116	120	3
NMHLD	116	144	2	48
BRTAP	116	192	7
NMTAP	116	240	5
NMTAP	116	264	4
NMTAP	116	288	6
NMTAP	116	312	4
NMHLD	116	336	5	48
BRTAP	117	0	0
NMTAP	117	48	2
NMTAP	117	72	3
NMTAP	117	96	1
NMTAP	117	120	3
NMHLD	117	144	2	48
NMTAP	117	192	0
NMTAP	117	216	7
NMTAP	117	240	6
NMTAP	117	264	5
NMTAP	117	288	4
NMTAP	117	288	7
NMTAP	117	312	0
NMTAP	117	336	1
NMTAP	117	360	2
BXTAP	118	0	3
BXTAP	118	0	6
EXTAP	118	64	1
EXSTR	118	96	1
BRSV_	118	96	1	96	32	4
EXTAP	118	128	0
BRTAP	118	192	7
NMTAP	118	256	5
NMTAP	118	320	3
BRTAP	119	0	2
BRTAP	119	0	7
EXTAP	119	64	1
EXSTR	119	96	1
BRSV_	119	96	1	96	32	4
EXTAP	119	128	0
BRTAP	119	192	7
NMTAP	119	256	5
NMTAP	119	320	3
NMSTR	120	0	1
NMSI_	120	0	1	96	48	3
NMSTR	120	48	0
NMSI_	120	48	0	96	48	4
NMTAP	120	96	1
NMTAP	120	144	0
NMSTR	120	192	7
NMSI_	120	192	7	96	48	3
NMSTR	120	240	6
NMSI_	120	240	6	96	48	4
NMTAP	120	288	7
NMTAP	120	336	6
BRSTR	121	0	0
NMSF_	121	0	0	96	48	4
NMTAP	121	192	1
NMTAP	121	216	7
NMTAP	121	240	1
NMTAP	121	264	7
BRTAP	121	288	2
BRTAP	121	288	6
BRTAP	122	0	5
NMTAP	122	24	4
NMTAP	122	48	5
NMTAP	122	96	2
BRTAP	122	144	5
NMTAP	122	168	4
NMTAP	122	192	5
NMTAP	122	240	1
BRTAP	122	288	7
NMTAP	122	312	0
NMTAP	122	336	7
NMTAP	122	360	0
BRTAP	123	0	6
NMTAP	123	24	7
BRTAP	123	48	6
NMTAP	123	72	7
BRTAP	123	96	5
NMTAP	123	120	0
BRTAP	123	144	5
NMTAP	123	168	0
BRTAP	123	192	4
NMTAP	123	216	1
BRTAP	123	240	4
NMTAP	123	264	1
BRHLD	123	288	3	96
BRTAP	124	0	2
NMTAP	124	24	3
NMTAP	124	48	2
NMTAP	124	96	5
BRTAP	124	144	2
NMTAP	124	168	3
NMTAP	124	192	2
NMTAP	124	240	6
BRTAP	124	288	0
NMTAP	124	312	7
NMTAP	124	336	0
NMTAP	124	360	7
BRTAP	125	0	1
NMTAP	125	24	0
BRTAP	125	48	1
NMTAP	125	72	0
BRTAP	125	96	2
NMTAP	125	120	7
BRTAP	125	144	2
NMTAP	125	168	7
BRTAP	125	192	3
NMTAP	125	216	6
BRTAP	125	240	3
NMTAP	125	264	6
BRHLD	125	288	4	96
BRSTR	126	0	5
NMSI_	126	0	5	96	48	1
NMTAP	126	48	5
BRSTR	126	96	4
NMSI_	126	96	4	96	48	0
NMTAP	126	144	4
BRSTR	126	192	3
NMSI_	126	192	3	96	48	7
NMTAP	126	240	3
BRSTR	126	288	2
NMSI_	126	288	2	96	48	6
NMTAP	126	336	2
BRSTR	127	0	1
NMSI_	127	0	1	96	48	5
NMTAP	127	48	1
BRTAP	127	96	0
NMTAP	127	144	0
BRTAP	127	192	1
BRTAP	127	192	7
NMTAP	127	240	1
NMTAP	127	240	7
NMTAP	127	288	2
NMTAP	127	288	6
NMTAP	127	336	2
NMTAP	127	336	6
BRTAP	128	0	3
BRTAP	128	0	5
NMTAP	128	48	3
NMTAP	128	48	5
BRTAP	128	96	4
BRTAP	128	96	6
NMTAP	128	144	4
NMTAP	128	144	6
BRTAP	128	192	5
NMTAP	128	216	4
NMTAP	128	240	6
NMTAP	128	288	6
EXHLD	128	312	7	32
BXHLD	129	0	0	32
BXHLD	129	0	5	32
BXHLD	129	72	1	24
BXHLD	129	72	4	24
BXHLD	129	144	2	24
BXHLD	129	144	3	24
NMTTP	129	288	2	A	1	M1
NMTTP	129	296	2	B	0	M1
NMTTP	129	296	2	E	0	M1
NMTTP	129	296	3	E	0	M1
NMTTP	129	304	1	B	0	M1
NMTTP	129	304	3	B	0	M1
NMTTP	129	312	0	B	0	M1
NMTTP	129	312	0	C	1	M1
NMTTP	129	312	4	B	0	M1
NMTTP	129	320	5	B	0	M1
NMTTP	129	320	6	B	0	M1
NMTTP	129	320	7	B	0	M1
NMTTP	129	328	6	E	0	M1
NMTTP	129	328	7	E	0	M1
NMTTP	129	336	6	A	0	M1
BRTAP	132	192	0
BRTAP	132	216	7
BRTAP	132	240	0
BRTAP	132	264	7
BRTAP	132	288	0
BRTAP	132	312	7
BRTAP	132	336	0
BRTAP	132	360	7
BRTAP	133	0	1
BRTAP	133	24	6
BRTAP	133	48	1
BRTAP	133	72	6
BRTAP	133	96	1
BRTAP	133	120	6
BRTAP	133	144	1
BRTAP	133	168	6
BRSTR	133	192	2
NMSCL	133	192	2	96	48	7
NMTAP	133	240	2
BRSTR	133	288	4
BRSUR	133	288	4	96	48	1
NMTAP	133	336	4
BRSTR	134	0	3
NMSUL	134	0	3	96	48	6
NMTAP	134	48	3
BRTAP	134	96	5
NMTAP	134	144	5
BRTAP	134	192	7
NMTAP	134	216	0
NMTAP	134	240	1
NMTAP	134	264	2
BRTAP	134	288	7
NMTAP	134	312	6
NMTAP	134	336	5
NMTAP	134	360	4
BRTAP	135	0	0
BRTAP	135	48	0
BRTAP	135	96	1
BRTAP	135	96	7
BRTAP	135	144	1
BRTAP	135	144	7
BRSTR	135	192	2
NMSCL	135	192	2	96	48	7
NMTAP	135	240	2
BRSTR	135	288	4
BRSUR	135	288	4	96	48	1
NMTAP	135	336	4
BRSTR	136	0	3
NMSUL	136	0	3	96	48	6
NMTAP	136	48	3
BRTAP	136	96	5
NMTAP	136	144	5
BRTAP	136	192	7
NMTAP	136	216	0
NMTAP	136	240	1
NMTAP	136	264	2
BRTAP	136	288	7
NMTAP	136	312	6
NMTAP	136	336	5
NMTAP	136	360	4
BRTAP	137	0	2
BRTAP	137	48	2
BRTAP	137	96	1
BRTAP	137	96	3
BRTAP	137	144	1
BRTAP	137	144	3
BRHLD	137	192	0	96
NMTAP	137	288	3
NMTAP	137	320	3
NMTAP	137	352	2
BRHLD	138	0	5	96
NMTAP	138	96	7
NMTAP	138	128	7
NMTAP	138	160	6
BRHLD	138	192	1	96
NMTAP	138	288	0
NMTAP	138	320	0
NMTAP	138	352	1
BRTAP	139	0	2
BRTAP	139	0	6
BRHLD	139	96	3	96
BRHLD	139	96	5	96
BRTAP	139	288	2
BRTAP	139	312	4
BRTAP	139	336	2
BRTAP	139	360	4
BRTAP	140	0	2
BRTAP	140	24	4
BRTAP	140	48	1
BRTAP	140	72	5
BRTAP	140	96	1
BRTAP	140	120	5
BRTAP	140	144	1
BRTAP	140	168	5
BRTAP	140	192	0
BRTAP	140	216	6
BRTAP	140	240	0
BRTAP	140	264	6
BRTAP	140	288	0
BRTAP	140	312	6
BRTAP	140	336	1
BRTAP	140	360	7
BRTAP	141	0	1
BRTAP	141	24	7
BRTAP	141	48	1
BRTAP	141	72	7
BRSTR	141	96	0
BRSF_	141	96	0	96	48	4
BRTAP	141	120	0
BRTAP	141	144	0
BRTAP	141	168	0
NMTTP	141	288	0	B	0	M1
NMTTP	141	288	0	C	1	M1
NMTTP	141	288	0	E	0	M1
NMTTP	141	288	0	A	0	M1
NMTTP	141	288	0	D	0	M1
NMTTP	141	288	1	B	0	M1
NMTTP	141	288	1	E	0	M1
NMTTP	141	288	1	A	0	M1
NMTTP	141	288	1	D	0	M1
NMTTP	141	288	2	B	0	M1
NMTTP	141	288	2	E	0	M1
NMTTP	141	288	2	A	0	M1
NMTTP	141	288	2	D	0	M1
NMTTP	141	288	3	B	0	M1
NMTTP	141	288	3	E	0	M1
NMTTP	141	288	3	A	0	M1
NMTTP	141	288	3	D	0	M1
NMTTP	141	288	4	B	0	M1
NMTTP	141	288	4	E	0	M1
NMTTP	141	288	4	A	0	M1
NMTTP	141	288	4	D	0	M1
NMTTP	141	288	5	B	0	M1
NMTTP	141	288	5	E	0	M1
NMTTP	141	288	5	A	0	M1
NMTTP	141	288	5	D	0	M1
NMTTP	141	288	6	B	0	M1
NMTTP	141	288	6	E	0	M1
NMTTP	141	288	6	A	0	M1
NMTTP	141	288	6	D	0	M1
NMTTP	141	288	7	B	0	M1
NMTTP	141	288	7	E	0	M1
NMTTP	141	288	7	A	0	M1
NMTTP	141	288	7	D	0	M1

T_REC_TAP	470
T_REC_BRK	163
T_REC_XTP	20
T_REC_BXX	21
T_REC_HLD	55
T_REC_XHO	10
T_REC_BHO	15
T_REC_BXH	14
T_REC_STR	90
T_REC_BST	30
T_REC_XST	4
T_REC_XBS	17
T_REC_TTP	66
T_REC_THO	3
T_REC_SLD	104
T_REC_BSL	40
T_REC_ALL	1122
T_NUM_TAP	650
T_NUM_BRK	300
T_NUM_HLD	68
T_NUM_SLD	104
T_NUM_ALL	1122
T_JUDGE_TAP	881
T_JUDGE_HLD	323
T_JUDGE_SLD	144
T_JUDGE_ALL	1348
TTM_EACHPAIRS	193
TTM_SCR_TAP	325000
TTM_SCR_BRK	780000
TTM_SCR_HLD	68000
TTM_SCR_SLD	156000
TTM_SCR_ALL	1329000
TTM_SCR_S	1260050
TTM_SCR_SS	1299000
TTM_RAT_ACV	10230

