VERSION	0.00.00	1.04.00
FES_MODE	0
BPM_DEF	220.000	220.000	220.000	220.000
MET_DEF	4	4
RESOLUTION	384
CLK_DEF	384
COMPATIBLE_CODE	MA2

BPM	0	0	220.000
MET	0	0	4	4
MET	131	0	4	6
MET	132	192	4	4

NMHLD	3	0	2	768
BRTAP	3	0	4
NMTTP	4	0	3	B	0	M1
NMHLD	5	0	5	768
NMTTP	6	0	4	B	0	M1
NMHLD	7	0	1	768
NMTTP	8	0	3	E	0	M1
NMTAP	9	0	6
NMSTR	9	192	0
NMSCR	9	192	0	96	192	3
NMSTR	9	192	7
NMSCL	9	192	7	96	192	4
NMTAP	10	192	3
NMTAP	10	192	4
NMTAP	11	0	2
NMTAP	11	0	3
NMHLD	11	96	2	96
NMHLD	11	96	3	96
NMSTR	11	288	2
NMSXL	11	288	2	96	288	7
NMTAP	11	288	3
NMTAP	13	0	4
NMTAP	13	0	5
NMHLD	13	96	4	96
NMHLD	13	96	5	96
NMTAP	13	288	4
NMSTR	13	288	5
NMSXL	13	288	5	96	288	2
NMHLD	15	0	1	192
NMHLD	15	0	3	576
NMHLD	16	0	5	576
NMHLD	17	0	7	1152
NMTHO	18	0	0	768	C	1	M1
NMTAP	21	0	0
NMTAP	21	96	0
NMTAP	21	192	0
NMTAP	21	192	1
NMTAP	21	288	0
NMTAP	21	288	1
NMTAP	22	0	0
NMTAP	22	0	2
NMTAP	22	96	0
NMTAP	22	96	2
NMTAP	22	192	0
NMTAP	22	192	3
NMTAP	22	288	0
NMTAP	22	288	3
NMTAP	23	0	0
NMTAP	23	0	2
NMTAP	23	96	0
NMTAP	23	96	2
NMTAP	23	192	0
NMTAP	23	192	1
NMTAP	23	288	0
NMTAP	23	288	1
NMTAP	24	0	2
NMTAP	24	48	2
NMTAP	24	96	7
NMTAP	24	144	7
NMTAP	24	192	0
NMTAP	24	240	0
NMTAP	24	288	5
NMTAP	25	0	6
NMTAP	25	0	7
NMTAP	25	96	6
NMTAP	25	96	7
NMTAP	25	192	5
NMTAP	25	192	7
NMTAP	25	288	5
NMTAP	25	288	7
NMTAP	26	0	4
NMTAP	26	0	7
NMTAP	26	96	4
NMTAP	26	96	7
NMTAP	26	192	5
NMTAP	26	192	7
NMTAP	26	288	5
NMTAP	26	288	7
NMTAP	27	0	6
NMTAP	27	48	6
NMTAP	27	96	4
NMTAP	27	144	4
NMTAP	27	192	3
NMTAP	27	240	3
NMTAP	27	288	1
NMTAP	27	336	1
NMTTP	28	0	0	B	0	M1
NMTTP	28	0	0	E	1	M1
NMTTP	28	0	7	B	0	M1
NMTAP	29	0	2
NMTAP	29	96	0
NMTAP	29	96	3
NMTAP	29	192	6
NMTAP	29	240	6
NMTAP	29	288	7
NMTAP	30	0	5
NMTAP	30	96	4
NMTAP	30	96	7
NMTAP	30	192	1
NMTAP	30	240	1
NMTAP	30	288	0
NMTAP	31	0	7
NMTAP	31	96	0
NMTAP	31	96	6
NMTAP	31	192	2
NMTAP	31	240	2
NMTAP	31	288	3
NMHLD	32	0	1	96
NMHLD	32	96	3	96
NMHLD	32	192	4	96
NMTAP	32	288	6
NMHLD	33	0	4	48
NMHLD	33	0	5	48
NMHLD	33	96	4	48
NMHLD	33	96	5	48
NMHLD	33	192	6	48
NMHLD	33	192	7	48
NMHLD	33	288	6	48
NMHLD	33	288	7	48
NMHLD	34	0	2	48
NMHLD	34	0	3	48
NMHLD	34	96	2	48
NMHLD	34	96	3	48
NMHLD	34	192	0	48
NMHLD	34	192	1	48
NMHLD	34	288	0	48
NMHLD	34	288	1	48
NMSTR	35	0	0
NMSI_	35	0	0	96	48	3
NMSTR	35	0	1
NMSI_	35	0	1	96	48	3
NMSTR	35	192	6
NMSI_	35	192	6	96	48	4
NMSTR	35	192	7
NMSI_	35	192	7	96	48	4
NMSTR	36	0	0
NMSI_	36	0	0	96	48	4
NMSTR	36	0	1
NMSI_	36	0	1	96	48	4
NMSTR	36	192	6
NMSI_	36	192	6	96	48	3
NMSTR	36	192	7
NMSI_	36	192	7	96	48	3
BRSTR	37	0	0
BRSF_	37	0	0	96	480	4
BRTAP	37	0	7
NMTAP	39	64	3
NMTAP	39	64	5
NMTAP	39	128	3
NMTAP	39	128	5
NMTAP	39	192	3
NMTAP	39	192	5
NMTAP	39	256	2
NMTAP	39	256	4
NMTAP	39	320	2
NMTAP	39	320	4
NMTAP	40	0	2
NMTAP	40	0	4
NMTAP	40	64	1
NMTAP	40	64	3
NMTAP	40	128	1
NMTAP	40	128	3
NMTAP	40	192	1
NMTAP	40	192	3
NMTAP	40	256	0
NMTAP	40	256	2
NMTAP	40	320	0
NMTAP	40	320	2
BRSTR	41	0	0
NMSUR	41	0	0	96	264	1
BRTAP	41	0	2
CNSCR	41	360	1	0	312	7
EXTAP	43	80	0
EXTAP	43	112	7
EXTAP	43	144	0
EXTAP	43	208	1
EXTAP	43	208	6
EXTAP	43	272	2
EXTAP	43	272	5
EXTAP	43	336	3
EXTAP	44	0	4
NMTTP	44	96	2	B	0	M1
NMTTP	44	96	2	E	0	M1
NMTTP	44	96	3	E	0	M1
NMTTP	44	192	5	B	0	M1
NMTTP	44	192	5	E	0	M1
NMTTP	44	192	6	E	0	M1
NMTTP	44	288	0	E	0	M1
EXHLD	45	0	0	384
NMTAP	45	96	3
NMTAP	45	144	3
NMTAP	45	192	3
NMTAP	45	288	4
NMTAP	45	336	4
NMSTR	46	0	4
NMSCR	46	0	4	96	96	0
NMSTR	46	192	1
NMSLR	46	192	1	96	96	5
NMHLD	47	0	7	384
NMTAP	47	96	4
NMTAP	47	144	4
NMTAP	47	192	4
NMTAP	47	288	3
NMTAP	47	336	3
NMSTR	48	0	3
NMSCL	48	0	3	96	96	7
NMSTR	48	192	6
NMSLL	48	192	6	96	96	2
NMHLD	49	0	1	96
NMHLD	49	96	3	96
NMTAP	49	192	5
NMTAP	49	288	4
NMTAP	49	288	6
NMHLD	50	0	6	96
NMHLD	50	96	4	96
NMTAP	50	192	2
NMTAP	50	288	1
NMTAP	50	288	3
NMTAP	51	0	1
NMTAP	51	0	3
NMTAP	51	96	2
NMTAP	51	128	3
NMTAP	51	160	2
NMTAP	51	192	3
NMTAP	51	288	3
NMTAP	51	288	6
NMTAP	52	0	5
NMTAP	52	32	4
NMTAP	52	64	5
NMTAP	52	96	4
NMTAP	52	192	2
NMTAP	52	192	7
NMTAP	52	288	1
NMTAP	52	320	0
NMTAP	52	352	1
NMTAP	53	0	0
NMTAP	53	96	0
NMTAP	53	96	5
NMTAP	53	192	6
NMTAP	53	224	7
NMTAP	53	256	6
NMTAP	53	288	7
NMTAP	54	0	0
NMTAP	54	0	4
NMSTR	54	96	2
NMSCL	54	96	2	96	96	7
NMSTR	54	96	6
NMSCL	54	96	6	96	96	3
BXSTR	55	0	0
BRSXR	55	0	0	96	1056	1
BXSTR	55	0	4
BRSXR	55	0	4	96	1056	5
NMHLD	59	0	2	384
NMTAP	59	288	3
NMHLD	60	0	3	384
NMTAP	60	288	4
NMHLD	61	0	4	384
NMTAP	61	288	5
NMHLD	62	0	5	384
NMSTR	63	0	2
NMSCR	63	0	2	96	288	5
NMSTR	64	0	6
NMSUL	64	0	6	96	288	2
NMSTR	65	0	1
NMSUR	65	0	1	96	288	5
NMSTR	66	0	6
NMSCR	66	0	6	96	288	1
NMHLD	67	0	2	192
NMHLD	68	0	2	192
NMHLD	68	0	3	192
NMHLD	69	0	2	192
NMHLD	69	0	3	192
NMHLD	70	0	2	192
NMHLD	70	0	3	192
BRTAP	71	0	1
BRTAP	71	0	7
NMTAP	71	48	1
NMTAP	71	48	7
NMTAP	71	96	1
NMHLD	71	96	7	576
NMTTP	71	192	0	A	0	M1
NMTTP	71	216	0	B	0	M1
NMTTP	71	240	0	C	0	M1
NMTTP	71	264	4	B	0	M1
NMTTP	71	288	4	A	0	M1
NMTTP	72	0	1	E	0	M1
NMTTP	72	24	1	B	0	M1
NMTTP	72	48	2	B	0	M1
NMTTP	72	72	3	B	0	M1
NMTTP	72	96	4	E	0	M1
NMTTP	72	192	1	A	0	M1
NMTTP	72	216	2	D	0	M1
NMTTP	72	240	2	A	0	M1
NMTTP	72	264	3	D	0	M1
NMTTP	72	288	3	A	0	M1
BRTAP	73	0	0
BRTAP	73	0	6
NMTAP	73	48	0
NMTAP	73	48	6
NMHLD	73	96	0	576
NMTAP	73	96	6
NMTTP	73	192	7	A	0	M1
NMTTP	73	216	7	B	0	M1
NMTTP	73	240	0	C	0	M1
NMTTP	73	264	3	B	0	M1
NMTTP	73	288	3	A	0	M1
NMTTP	74	0	7	E	0	M1
NMTTP	74	24	6	B	0	M1
NMTTP	74	48	5	B	0	M1
NMTTP	74	72	4	B	0	M1
NMTTP	74	96	4	E	0	M1
NMTTP	74	192	6	A	0	M1
NMTTP	74	216	6	D	0	M1
NMTTP	74	240	5	A	0	M1
NMTTP	74	264	5	D	0	M1
NMTTP	74	288	4	A	0	M1
NMHLD	75	0	1	96
EXHLD	75	0	3	96
EXHLD	75	192	4	96
NMHLD	75	192	6	96
NMTAP	76	0	4
NMTAP	76	0	5
NMTAP	76	96	2
NMTAP	76	128	3
NMTAP	76	160	2
NMTAP	76	192	3
NMTAP	76	288	1
NMTAP	76	288	4
NMTAP	77	0	2
NMTAP	77	0	3
NMTAP	77	96	2
NMTAP	77	96	3
NMTAP	77	192	3
NMTAP	77	192	4
NMTAP	77	288	3
NMTAP	77	288	4
NMTAP	78	0	4
NMTAP	78	0	5
NMTAP	78	96	4
NMTAP	78	96	5
NMTAP	78	192	3
NMTAP	78	192	4
NMTAP	78	288	3
NMTAP	78	288	4
NMTAP	79	0	2
NMTAP	79	48	2
NMTAP	79	96	5
NMTAP	79	144	5
NMTAP	79	192	1
NMTAP	79	240	1
NMTAP	79	288	6
NMTAP	79	336	6
NMTAP	80	0	0
NMTAP	80	24	7
NMTAP	80	48	0
NMTAP	80	72	7
NMTAP	80	96	0
NMTAP	80	120	7
NMTAP	80	144	0
NMTAP	80	168	7
NMTAP	80	192	0
NMTAP	80	216	7
NMTAP	80	240	0
NMTAP	80	264	7
NMTAP	80	288	0
NMTAP	80	312	7
NMTAP	80	336	0
NMTAP	80	360	7
NMSTR	81	0	0
NMSF_	81	0	0	96	192	4
BRTAP	82	0	1
BRTAP	82	0	7
BRTAP	82	48	1
BRTAP	82	48	7
BRTAP	82	96	1
BRTAP	82	96	7
NMTAP	82	192	2
NMTAP	82	240	3
NMTAP	82	288	1
NMSTR	82	336	1
NMSCR	82	336	1	96	48	4
NMTAP	83	48	7
NMTAP	83	96	7
NMTAP	83	192	5
NMTAP	83	240	4
NMTAP	83	288	6
NMSTR	83	336	6
NMSCL	83	336	6	96	48	3
NMTAP	84	48	0
NMTAP	84	96	0
NMTAP	84	192	1
NMTAP	84	240	3
NMTAP	84	288	2
NMSTR	84	336	2
NMSI_	84	336	2	96	48	5
NMSTR	85	48	6
NMSI_	85	48	6	96	48	3
NMSTR	85	144	1
NMSI_	85	144	1	96	48	5
NMSTR	85	240	7
NMSI_	85	240	7	96	48	3
NMTAP	85	336	0
NMTAP	86	48	2
NMTAP	86	48	4
NMTAP	86	96	2
NMTAP	86	96	4
NMTAP	86	192	6
NMTAP	86	240	7
NMTAP	86	288	5
NMSTR	86	336	5
NMSI_	86	336	5	96	48	2
NMTAP	87	48	0
NMTAP	87	96	0
NMTAP	87	192	1
NMTAP	87	240	3
NMTAP	87	288	2
NMTAP	87	336	2
NMSTR	87	336	3
NMSI_	87	336	3	96	48	7
NMSTR	88	144	4
NMSI_	88	144	4	96	48	0
NMTAP	88	144	5
BRTAP	88	336	1
BRTAP	88	336	7
NMTAP	89	48	4
NMTAP	89	48	5
NMHLD	89	96	4	96
NMTAP	89	96	5
NMHLD	89	192	3	96
NMTAP	89	288	2
EXTAP	90	0	0
EXTAP	90	0	1
EXTAP	90	72	6
EXTAP	90	72	7
EXTAP	90	144	1
EXTAP	90	144	2
EXTAP	90	216	4
EXTAP	90	216	5
EXTAP	90	280	3
EXTAP	90	280	6
BXTAP	90	328	3
BXTAP	90	328	6
NMTAP	91	48	1
NMTAP	91	48	3
NMTAP	91	96	1
NMSTR	91	96	3
NMSCR	91	96	3	96	96	7
NMTAP	91	192	2
NMSTR	91	288	4
NMSCL	91	288	4	96	96	0
NMTAP	92	0	5
NMSTR	92	96	3
NMSCR	92	96	3	96	96	7
NMTAP	92	192	2
NMTAP	92	288	0
NMTAP	92	336	0
NMTAP	93	48	0
NMTAP	93	48	1
NMTAP	93	96	2
NMTAP	93	144	3
NMTAP	93	144	4
NMTAP	93	192	5
NMTAP	93	240	4
NMTAP	93	240	6
NMTAP	93	336	1
NMTAP	93	336	7
NMTAP	94	48	6
NMTAP	94	48	7
NMTAP	94	96	5
NMTAP	94	144	3
NMTAP	94	144	4
NMTAP	94	192	2
NMTAP	94	240	1
NMTAP	94	240	3
BRTAP	94	336	0
BRTAP	94	336	6
NMTAP	95	48	1
NMHLD	95	96	1	96
NMHLD	95	192	3	96
NMHLD	95	288	5	96
NMHLD	96	0	7	96
NMTAP	96	96	0
NMTAP	96	192	0
NMTAP	96	192	7
NMTAP	96	240	0
NMTAP	96	240	7
BRTAP	96	336	1
BRTAP	96	336	6
NMTAP	97	48	0
NMTAP	97	72	7
NMTAP	97	96	0
NMTAP	97	120	7
NMTAP	97	144	0
NMTAP	97	168	7
NMTAP	97	192	0
NMTAP	97	216	7
NMTAP	97	240	0
NMTAP	97	264	7
NMTAP	97	288	0
NMTAP	97	312	7
BRTAP	97	336	0
BRTAP	98	48	2
BRTAP	98	48	3
BRTAP	98	144	4
BRTAP	98	144	5
BRTAP	98	240	0
BRTAP	98	240	7
BRTAP	98	288	0
BRTAP	98	288	7
NMSTR	99	0	1
NMSCR	99	0	1	96	48	4
NMSTR	99	144	5
NMSCR	99	144	5	96	48	0
NMSTR	99	288	2
NMSCL	99	288	2	96	48	7
NMSTR	100	48	6
NMSCL	100	48	6	96	48	3
NMSTR	100	192	1
NMSCL	100	192	1	96	48	6
NMSTR	100	336	5
NMSCL	100	336	5	96	48	2
NMHLD	101	96	1	96
NMHLD	101	192	0	96
NMHLD	101	288	7	96
NMSTR	102	0	6
NMSCL	102	0	6	96	48	3
NMSTR	102	144	2
NMSCL	102	144	2	96	48	7
NMSTR	102	288	5
NMSCR	102	288	5	96	48	0
NMSTR	103	48	1
NMSCR	103	48	1	96	48	4
NMSTR	103	192	6
NMSCR	103	192	6	96	48	1
NMSTR	103	336	2
NMSCR	103	336	2	96	48	5
NMTAP	104	96	6
NMTAP	104	192	6
NMTAP	104	192	7
NMTAP	104	288	0
NMTAP	104	288	1
NMTTP	105	0	0	C	1	M1
NMTTP	105	0	2	B	0	M1
NMTTP	105	0	3	B	0	M1
NMTTP	105	0	4	B	0	M1
NMTTP	105	0	5	B	0	M1
NMHLD	109	0	2	192
NMHLD	109	0	4	192
NMHLD	110	0	3	192
NMHLD	110	0	5	192
NMHLD	111	0	2	96
NMTAP	111	0	4
NMTAP	111	96	5
NMTAP	111	192	3
NMHLD	111	192	6	96
NMTAP	111	288	2
NMTAP	112	0	1
NMTAP	112	0	4
NMTAP	112	96	2
NMTAP	112	96	5
NMTAP	112	192	3
NMTAP	112	192	6
NMSTR	112	288	2
NMSLR	112	288	2	96	192	7
NMSTR	112	288	5
NMSLL	112	288	5	96	192	0
NMTAP	113	288	0
NMTAP	113	288	7
BRHLD	114	0	1	72
BRTAP	114	0	6
NMTAP	114	72	0
NMTAP	114	144	2
NMTAP	114	144	7
NMHLD	114	192	6	72
NMTAP	114	264	7
NMTAP	114	336	0
NMTAP	114	336	5
NMHLD	115	0	1	72
NMTAP	115	72	0
NMTAP	115	144	2
NMTAP	115	144	7
NMSTR	115	192	2
NMSCR	115	192	2	96	48	4
NMSTR	115	192	7
NMSI_	115	192	7	96	48	4
NMHLD	116	0	5	72
NMTAP	116	72	4
NMTAP	116	144	3
NMTAP	116	144	6
NMHLD	116	192	2	72
NMTAP	116	264	3
NMTAP	116	336	1
NMTAP	116	336	4
NMTAP	117	0	1
NMSTR	117	0	4
NMSCR	117	0	4	96	48	7
NMSTR	117	96	0
NMSCR	117	96	0	96	48	3
NMTAP	117	192	4
NMTAP	117	288	4
NMTAP	117	288	5
BRTAP	118	0	2
BRTAP	118	0	7
NMTAP	118	64	2
NMTAP	118	64	7
NMTAP	118	128	2
NMTAP	118	128	7
BRTAP	118	192	1
BRTAP	118	192	6
NMTAP	118	256	1
NMTAP	118	256	6
NMTAP	118	320	1
NMTAP	118	320	6
BRTAP	119	0	0
BRTAP	119	0	5
NMTAP	119	64	0
NMTAP	119	64	5
NMTAP	119	128	0
NMTAP	119	128	5
BRTAP	119	192	4
BRTAP	119	192	7
NMTAP	119	256	4
NMTAP	119	256	7
NMTAP	119	320	4
NMTAP	119	320	7
NMTAP	120	0	0
NMTAP	120	48	0
NMTAP	120	96	6
NMTAP	120	144	6
NMTAP	120	192	1
NMTAP	120	240	1
NMSTR	120	288	7
NMSCL	120	288	7	96	192	0
BXTAP	121	288	0
BXTAP	121	288	7
NMTAP	122	0	6
NMTAP	122	0	7
NMTAP	122	48	6
NMTAP	122	48	7
NMTAP	122	96	6
NMTAP	122	96	7
NMTAP	122	192	0
NMTAP	122	192	5
NMSTR	122	288	1
NMSXL	122	288	1	96	192	0
NMTAP	122	288	4
NMTTP	123	0	2	B	0	M1
NMTTP	123	0	3	B	0	M1
NMTTP	123	0	3	E	1	M1
NMTAP	123	288	6
NMTAP	123	288	7
NMTAP	124	0	0
NMTAP	124	0	1
NMTAP	124	48	0
NMTAP	124	48	1
NMTAP	124	96	0
NMTAP	124	96	1
NMTAP	124	192	2
NMTAP	124	192	7
NMTAP	124	288	3
NMSTR	124	288	6
NMSXL	124	288	6	96	192	4
NMTTP	125	0	0	B	0	M1
NMTTP	125	0	0	E	1	M1
NMTTP	125	0	7	B	0	M1
NMTAP	125	288	2
NMTAP	125	288	5
NMSTR	126	0	1
NMSI_	126	0	1	96	48	4
NMSTR	126	96	0
NMSI_	126	96	0	96	48	5
NMSTR	126	192	2
NMSI_	126	192	2	96	48	7
NMSTR	126	288	3
NMSI_	126	288	3	96	48	6
NMSTR	127	0	0
NMSI_	127	0	0	96	48	4
NMSTR	127	96	7
NMSI_	127	96	7	96	48	3
NMTAP	127	192	2
NMTAP	127	240	2
NMTAP	127	288	2
NMTAP	128	0	1
NMTAP	128	0	5
NMTAP	128	48	1
NMTAP	128	48	5
NMTAP	128	96	2
NMTAP	128	96	6
NMTAP	128	144	2
NMTAP	128	144	6
NMTAP	128	192	3
NMTAP	128	192	7
NMTAP	128	240	3
NMTAP	128	240	7
NMTAP	128	288	3
NMTAP	128	288	7
BRTAP	129	0	0
BRTAP	129	0	1
BRTAP	129	72	4
BRTAP	129	72	5
BRTAP	129	144	1
BRTAP	129	144	3
NMTTP	129	288	0	C	1	M1
NMTTP	129	288	2	B	0	M1
NMTTP	129	288	2	A	0	M1
NMTTP	129	288	6	B	0	M1
NMTTP	129	288	6	A	0	M1
EXTAP	132	192	7
EXTAP	132	216	6
EXTAP	132	240	5
EXTAP	132	264	4
EXTAP	132	288	3
EXTAP	132	312	2
EXTAP	132	336	1
EXTAP	132	360	0
EXTAP	133	0	7
EXTAP	133	24	6
EXTAP	133	48	5
EXTAP	133	72	4
BXTAP	133	96	3
NMSTR	133	192	2
NMSI_	133	192	2	96	48	7
NMSTR	133	192	3
NMSI_	133	192	3	96	48	7
NMSTR	134	0	4
NMSI_	134	0	4	96	48	0
NMSTR	134	0	5
NMSI_	134	0	5	96	48	0
NMTAP	134	192	1
NMHLD	134	240	1	48
NMTAP	134	288	3
NMHLD	134	336	3	48
NMTAP	135	0	4
NMHLD	135	48	4	48
NMTAP	135	96	6
NMSTR	135	192	4
NMSI_	135	192	4	96	48	1
NMSTR	135	192	5
NMSI_	135	192	5	96	48	0
NMSTR	136	0	2
NMSI_	136	0	2	96	48	7
NMSTR	136	0	3
NMSI_	136	0	3	96	48	6
NMTAP	136	192	5
NMHLD	136	240	5	48
NMTAP	136	288	7
NMHLD	136	336	7	48
NMTAP	137	0	0
NMHLD	137	48	0	48
NMTAP	137	96	2
NMSTR	137	192	2
NMSI_	137	192	2	96	48	5
NMSTR	137	192	6
NMSV_	137	192	6	96	48	1
NMSTR	138	0	3
NMSV_	138	0	3	96	48	0
NMSTR	138	0	7
NMSI_	138	0	7	96	48	4
NMSTR	138	192	1
NMSV_	138	192	1	96	48	4
NMSTR	138	192	5
NMSI_	138	192	5	96	48	0
NMTAP	139	0	2
NMTAP	139	0	6
NMTAP	139	96	2
NMTAP	139	96	6
NMTAP	139	288	3
NMTAP	139	312	4
NMTAP	139	336	3
NMTAP	139	360	4
NMTAP	140	48	2
NMTAP	140	72	5
NMTAP	140	96	2
NMTAP	140	120	5
NMTAP	140	192	1
NMTAP	140	216	6
NMTAP	140	240	1
NMTAP	140	264	6
NMTAP	140	336	0
NMTAP	140	360	7
NMTAP	141	0	0
NMTAP	141	24	7
NMTAP	141	48	0
NMTAP	141	72	7
BRTAP	141	96	0
BRTAP	141	120	7
BRTAP	141	144	0
BRTAP	141	168	7
BRTAP	141	192	0
NMTTP	141	288	0	C	1	M1
NMTTP	141	288	1	B	0	M1
NMTTP	141	288	2	B	0	M1
NMTTP	141	288	2	E	0	M1
NMTTP	141	288	3	B	0	M1
NMTTP	141	288	3	E	0	M1
NMTTP	141	288	4	B	0	M1
NMTTP	141	288	4	E	0	M1
NMTTP	141	288	5	B	0	M1
NMTTP	141	288	5	E	0	M1
NMTTP	141	288	6	B	0	M1
NMTTP	141	288	6	E	0	M1

T_REC_TAP	405
T_REC_BRK	48
T_REC_XTP	31
T_REC_BXX	5
T_REC_HLD	75
T_REC_XHO	3
T_REC_BHO	1
T_REC_BXH	0
T_REC_STR	76
T_REC_BST	2
T_REC_XST	0
T_REC_XBS	2
T_REC_TTP	71
T_REC_THO	1
T_REC_SLD	77
T_REC_BSL	3
T_REC_ALL	800
T_NUM_TAP	583
T_NUM_BRK	61
T_NUM_HLD	79
T_NUM_SLD	77
T_NUM_ALL	800
T_JUDGE_TAP	640
T_JUDGE_HLD	316
T_JUDGE_SLD	80
T_JUDGE_ALL	1036
TTM_EACHPAIRS	185
TTM_SCR_TAP	291500
TTM_SCR_BRK	158600
TTM_SCR_HLD	79000
TTM_SCR_SLD	115500
TTM_SCR_ALL	644600
TTM_SCR_S	619350
TTM_SCR_SS	638500
TTM_RAT_ACV	10095

