VERSION	0.00.00	1.04.00
FES_MODE	0
BPM_DEF	220.000	220.000	220.000	220.000
MET_DEF	4	4
RESOLUTION	384
CLK_DEF	384
COMPATIBLE_CODE	MA2

BPM	0	0	220.000
MET	0	0	4	4
MET	131	0	4	6
MET	132	192	4	4

NMHLD	3	0	4	384
NMHLD	3	0	5	384
NMHLD	5	0	6	384
NMHLD	5	0	7	384
NMHLD	7	0	0	384
NMHLD	7	0	1	384
NMHLD	9	0	2	384
NMHLD	9	0	3	384
NMSTR	11	0	1
NMSI_	11	0	1	96	288	4
NMTAP	12	192	5
NMSTR	13	0	6
NMSI_	13	0	6	96	288	3
NMTAP	14	192	2
NMSTR	15	0	1
NMSI_	15	0	1	96	288	5
NMTAP	16	192	6
NMSTR	17	0	6
NMSI_	17	0	6	96	288	2
NMTAP	18	192	1
NMSTR	19	0	0
NMSI_	19	0	0	96	288	4
NMTAP	20	192	3
NMTAP	20	192	4
BXTAP	21	0	5
NMTAP	21	96	5
NMTAP	21	192	4
NMTAP	21	192	5
NMTAP	22	0	6
NMTAP	22	96	6
NMTAP	22	192	6
NMTAP	22	192	7
NMTAP	23	0	0
NMTAP	23	96	0
NMTAP	23	192	0
NMTAP	23	192	1
NMTAP	24	0	2
NMTAP	24	0	3
NMTAP	24	192	2
NMTAP	24	192	3
BXTAP	25	0	1
NMTAP	25	96	1
NMTAP	25	192	0
NMTAP	25	192	1
NMTAP	26	0	7
NMTAP	26	96	7
NMTAP	26	192	6
NMTAP	26	192	7
NMTAP	27	0	5
NMTAP	27	96	5
NMTAP	27	192	4
NMTAP	27	192	5
NMTAP	28	0	3
NMTAP	28	0	4
NMTAP	28	192	3
NMTAP	28	192	4
BRTAP	29	0	5
NMTAP	29	96	5
NMTAP	29	192	6
NMTAP	29	288	6
NMTAP	30	0	7
NMTAP	30	96	7
NMTAP	30	192	0
NMTAP	30	192	1
NMTAP	31	0	2
NMTAP	31	96	2
NMTAP	31	192	1
NMTAP	31	288	1
NMTAP	32	0	0
NMTAP	32	96	0
NMTAP	32	192	6
NMTAP	32	192	7
EXTAP	33	0	5
NMTAP	33	96	5
EXTAP	33	192	4
NMTAP	33	288	4
EXTAP	34	0	3
NMTAP	34	96	3
EXTAP	34	192	2
EXTAP	35	0	1
NMTAP	35	96	1
EXTAP	35	192	0
NMTAP	35	288	0
EXTAP	36	0	7
NMTAP	36	96	7
EXTAP	36	192	6
NMSTR	37	0	6
NMSI_	37	0	6	96	288	3
NMSTR	37	0	7
NMSI_	37	0	7	96	288	2
NMTAP	38	192	1
NMSTR	39	0	0
NMSLR	39	0	0	96	480	5
NMHLD	41	0	6	192
NMTAP	41	192	7
NMHLD	42	0	1	192
NMTAP	42	192	0
NMSTR	43	0	7
NMSLL	43	0	7	96	384	2
NMTAP	45	0	1
NMTAP	45	96	1
NMTAP	45	192	0
NMTAP	45	192	1
NMTAP	45	288	0
NMTAP	45	288	1
NMTAP	46	0	7
NMTAP	46	96	7
NMTAP	46	192	6
NMTAP	46	192	7
NMTAP	47	0	5
NMTAP	47	96	5
NMTAP	47	192	6
NMTAP	47	192	7
NMTAP	47	288	6
NMTAP	47	288	7
NMTAP	48	0	0
NMTAP	48	96	0
NMTAP	48	192	0
NMTAP	48	192	1
NMTAP	49	0	1
NMTAP	49	96	1
NMTAP	49	192	2
NMTAP	49	192	3
NMTAP	49	288	2
NMTAP	49	288	3
NMTAP	50	0	4
NMTAP	50	96	4
NMTAP	50	192	4
NMTAP	50	192	5
NMTAP	51	0	6
NMTAP	51	96	6
NMTAP	51	192	4
NMTAP	51	192	5
NMTAP	51	288	4
NMTAP	51	288	5
NMTAP	52	0	3
NMTAP	52	96	3
NMTAP	52	192	2
NMTAP	52	192	3
NMTAP	53	0	1
NMTAP	53	96	1
NMTAP	53	192	2
NMTAP	53	288	2
BRTAP	54	0	3
BRTAP	54	0	4
NMHLD	55	0	5	384
NMHLD	56	0	4	384
NMHLD	57	0	3	384
NMTAP	58	0	2
NMHLD	59	0	2	384
NMHLD	60	0	3	384
NMHLD	61	0	4	384
NMTAP	62	0	5
NMTAP	63	0	5
NMTAP	63	192	5
NMTAP	64	0	4
NMTAP	64	192	4
NMTAP	65	0	3
NMTAP	65	192	3
NMTAP	66	0	2
NMTAP	66	0	4
NMTAP	67	0	2
NMTAP	67	192	2
NMTAP	68	0	3
NMTAP	68	192	3
NMTAP	69	0	4
NMTAP	69	192	4
NMTAP	70	0	3
NMTAP	70	0	5
NMTTP	71	0	6	B	0	L1
NMTTP	71	96	5	B	0	L1
NMTTP	71	192	4	B	0	L1
NMTTP	72	0	1	B	0	L1
NMTTP	72	96	2	B	0	L1
NMTTP	72	192	3	B	0	L1
NMTTP	73	0	7	B	0	L1
NMTTP	73	96	6	B	0	L1
NMTTP	73	192	5	B	0	L1
NMTTP	73	288	4	B	0	L1
NMTTP	74	0	2	B	0	L1
NMTTP	74	0	3	B	0	L1
NMTTP	75	0	0	B	0	L1
NMTTP	75	96	1	B	0	L1
NMTTP	75	192	2	B	0	L1
NMTTP	75	192	3	B	0	L1
NMTTP	76	0	7	B	0	L1
NMTTP	76	96	6	B	0	L1
NMTTP	76	192	4	B	0	L1
NMTTP	76	192	5	B	0	L1
NMTTP	77	0	2	B	0	L1
NMTTP	77	96	1	B	0	L1
NMTTP	77	192	0	B	0	L1
NMTTP	77	288	7	B	0	L1
NMTTP	78	0	6	B	0	L1
NMTTP	78	96	5	B	0	L1
NMTTP	78	192	0	C	0	L1
NMTTP	79	0	2	E	0	L1
NMTTP	79	0	3	E	0	L1
NMTTP	79	192	5	E	0	L1
NMTTP	79	192	6	E	0	L1
NMTHO	80	0	0	384	C	1	L1
BRTAP	83	0	2
NMTAP	83	96	2
NMTAP	83	192	0
NMTAP	83	192	1
NMTAP	83	288	0
NMTAP	83	288	1
NMTAP	84	0	7
NMTAP	84	96	7
NMTAP	84	192	6
NMTAP	84	192	7
NMTAP	85	0	5
NMTAP	85	96	5
NMTAP	85	192	6
NMTAP	85	192	7
NMTAP	85	288	6
NMTAP	85	288	7
NMTAP	86	0	0
NMTAP	86	96	0
NMTAP	86	192	0
NMTAP	86	192	1
NMTAP	87	0	1
NMTAP	87	96	1
NMTAP	87	192	2
NMTAP	87	192	3
NMTAP	87	288	2
NMTAP	87	288	3
NMTAP	88	0	4
NMTAP	88	96	4
NMTAP	88	192	4
NMTAP	88	192	5
NMTAP	89	0	6
NMTAP	89	96	6
NMTAP	89	192	5
NMTAP	89	288	5
NMHLD	90	0	3	192
NMHLD	90	0	4	192
EXTAP	91	0	2
NMTAP	91	96	2
NMTAP	91	192	0
NMTAP	91	192	1
NMTAP	91	288	0
NMTAP	91	288	1
NMTAP	92	0	7
NMTAP	92	96	6
NMTAP	92	192	4
NMTAP	92	192	5
NMTAP	93	0	5
NMTAP	93	96	5
NMTAP	93	192	6
NMTAP	93	192	7
NMTAP	93	288	6
NMTAP	93	288	7
NMTAP	94	0	0
NMTAP	94	96	1
NMTAP	94	192	2
NMTAP	94	192	3
NMTAP	95	0	1
NMTAP	95	96	1
NMTAP	95	192	2
NMTAP	95	192	3
NMTAP	95	288	2
NMTAP	95	288	3
NMTAP	96	0	4
NMTAP	96	96	5
NMTAP	96	192	6
NMTAP	96	192	7
NMTAP	97	0	6
NMTAP	97	96	6
NMTAP	97	192	4
NMTAP	97	192	5
NMTAP	97	288	4
NMTAP	97	288	5
NMTAP	98	0	3
NMTAP	98	96	2
NMTAP	98	192	0
NMTAP	98	192	1
NMSTR	99	0	1
NMSUR	99	0	1	96	672	4
NMTAP	101	192	5
NMSTR	102	0	6
NMSUL	102	0	6	96	672	3
NMHLD	105	0	2	384
NMHLD	105	0	3	384
NMHLD	107	0	0	384
NMHLD	107	0	1	384
NMHLD	109	0	6	384
NMHLD	109	0	7	384
NMHLD	111	0	4	384
NMHLD	111	0	5	384
EXTAP	113	0	3
EXTAP	113	0	4
BRTAP	114	0	2
BRTAP	114	0	3
NMTAP	114	96	2
NMTAP	114	96	3
NMTAP	114	192	0
NMTAP	114	192	1
NMTAP	114	288	0
NMTAP	114	288	1
NMTAP	115	0	6
NMTAP	115	0	7
NMTAP	115	96	6
NMTAP	115	96	7
NMTAP	115	192	4
NMTAP	115	192	5
NMTAP	116	0	4
NMTAP	116	0	5
NMTAP	116	96	4
NMTAP	116	96	5
NMTAP	116	192	6
NMTAP	116	192	7
NMTAP	116	288	6
NMTAP	116	288	7
NMTAP	117	0	0
NMTAP	117	0	1
NMTAP	117	96	0
NMTAP	117	96	1
NMTAP	117	192	2
NMTAP	117	192	3
NMSTR	118	0	2
NMSI_	118	0	2	96	288	7
NMSTR	118	0	3
NMSI_	118	0	3	96	288	6
NMSTR	120	0	4
NMSI_	120	0	4	96	288	1
NMSTR	120	0	5
NMSI_	120	0	5	96	288	0
NMTAP	122	0	1
NMTAP	122	96	1
NMTAP	122	192	0
NMTAP	122	192	1
NMTAP	122	288	0
NMTAP	122	288	1
NMTAP	123	0	6
NMTAP	123	0	7
NMTAP	123	96	6
NMTAP	123	96	7
NMTAP	123	192	0
NMTAP	123	192	5
NMTAP	124	0	6
NMTAP	124	96	6
NMTAP	124	192	6
NMTAP	124	192	7
NMTAP	124	288	6
NMTAP	124	288	7
NMTAP	125	0	0
NMTAP	125	0	1
NMTAP	125	96	0
NMTAP	125	96	1
NMTAP	125	192	2
NMTAP	125	192	7
NMTAP	126	0	1
NMTAP	126	96	0
NMTAP	126	192	7
NMTAP	126	288	6
NMTAP	127	0	5
NMTAP	127	96	4
NMTAP	127	192	3
NMTAP	127	192	4
NMTAP	127	288	3
NMTAP	127	288	4
NMTAP	128	0	2
NMTAP	128	0	5
NMTAP	128	96	2
NMTAP	128	96	5
NMTAP	128	192	1
NMTAP	128	192	6
NMTAP	128	288	1
NMTAP	128	288	6
NMHLD	129	0	0	144
NMHLD	129	0	7	144
EXSTR	129	288	0
NMSCR	129	288	0	96	480	3
EXSTR	129	288	7
NMSCL	129	288	7	96	480	4
NMHLD	132	192	3	192
NMHLD	132	192	4	192
NMTAP	133	192	4
NMTAP	133	192	5
NMTAP	133	288	4
NMTAP	133	288	5
NMTAP	134	0	2
NMTAP	134	0	3
NMTAP	134	96	2
NMTAP	134	96	3
NMTAP	134	192	1
NMTAP	134	192	3
NMTAP	134	288	1
NMTAP	134	288	3
NMTAP	135	0	4
NMTAP	135	0	6
NMTAP	135	96	4
NMTAP	135	96	6
NMTAP	135	192	4
NMTAP	135	192	5
NMTAP	135	288	4
NMTAP	135	288	5
NMTAP	136	0	2
NMTAP	136	0	3
NMTAP	136	96	2
NMTAP	136	96	3
NMTAP	136	192	1
NMTAP	136	192	3
NMTAP	136	288	1
NMTAP	136	288	3
NMTAP	137	0	4
NMTAP	137	0	6
NMTAP	137	96	4
NMTAP	137	96	6
BXTAP	137	192	4
BXTAP	137	192	5
BXTAP	138	0	2
BXTAP	138	0	3
BXTAP	138	192	4
BXTAP	138	192	5
NMTAP	139	0	3
NMTAP	139	0	6
NMTAP	139	96	3
NMTAP	139	96	6
NMTAP	139	288	4
NMTAP	139	288	5
NMTAP	140	0	4
NMTAP	140	0	5
NMTAP	140	96	3
NMTAP	140	96	6
NMTAP	140	192	3
NMTAP	140	192	6
NMTAP	140	288	2
NMTAP	140	288	7
NMTAP	141	0	2
NMTAP	141	0	7
NMTAP	141	96	0
NMTAP	141	96	1
NMTAP	141	192	0
NMTAP	141	192	1
BXHLD	141	288	2	768
BXHLD	141	288	7	768

T_REC_TAP	315
T_REC_BRK	6
T_REC_XTP	11
T_REC_BXX	8
T_REC_HLD	30
T_REC_XHO	0
T_REC_BHO	0
T_REC_BXH	2
T_REC_STR	15
T_REC_BST	0
T_REC_XST	2
T_REC_XBS	0
T_REC_TTP	31
T_REC_THO	1
T_REC_SLD	17
T_REC_BSL	0
T_REC_ALL	438
T_NUM_TAP	374
T_NUM_BRK	16
T_NUM_HLD	31
T_NUM_SLD	17
T_NUM_ALL	438
T_JUDGE_TAP	388
T_JUDGE_HLD	246
T_JUDGE_SLD	17
T_JUDGE_ALL	651
TTM_EACHPAIRS	125
TTM_SCR_TAP	187000
TTM_SCR_BRK	41600
TTM_SCR_HLD	31000
TTM_SCR_SLD	25500
TTM_SCR_ALL	285100
TTM_SCR_S	275000
TTM_SCR_SS	283500
TTM_RAT_ACV	10056

