VERSION	0.00.00	1.04.00
FES_MODE	0
BPM_DEF	135.000	135.000	135.000	135.000
MET_DEF	4	4
RESOLUTION	384
CLK_DEF	384
COMPATIBLE_CODE	MA2

BPM	0	0	135.000
MET	0	0	4	4

NMTTP	1	240	2	A	0	M1
NMTTP	1	256	3	D	0	M1
NMTTP	1	272	3	A	0	M1
NMTTP	1	288	4	D	0	M1
NMTTP	1	304	4	A	0	M1
NMTTP	1	320	5	D	0	M1
NMTTP	1	336	5	A	0	M1
EXTAP	2	0	1
EXTAP	2	24	3
EXTAP	2	72	6
EXTAP	2	96	4
EXTAP	2	144	1
EXTAP	2	168	3
NMTAP	2	240	3
NMTAP	2	240	5
NMTAP	2	288	1
NMSTR	2	288	7
NMSI_	2	288	7	96	48	1
NMSI_	2	288	7	96	96	4
CNSV_	3	48	1	0	24	2
CNSI_	3	72	2	0	24	4
NMTAP	3	192	3
NMTAP	3	216	4
NMTAP	3	240	3
NMTAP	3	288	2
NMTAP	3	288	5
NMTAP	3	336	1
NMTAP	3	336	6
NMSTR	4	0	0
NMSI_	4	0	0	96	48	4
NMSTR	4	0	7
NMSV_	4	0	7	96	48	4
BRTAP	4	96	0
BRTAP	4	96	7
NMTAP	4	192	2
NMTAP	4	240	2
NMSTR	4	288	4
NMSXR	4	288	4	96	144	7
NMTAP	5	0	3
NMTAP	5	192	0
NMTAP	5	240	5
NMSTR	5	288	3
NMSI_	5	288	3	96	48	1
NMSTR	5	288	4
NMSI_	5	288	4	96	48	6
NMSTR	6	0	4
BRSV_	6	0	4	96	48	3
NMTAP	6	192	2
NMTAP	6	240	3
NMSTR	6	288	4
NMSXR	6	288	4	96	144	7
NMTAP	7	0	2
NMTAP	7	192	0
NMTAP	7	240	6
NMTAP	7	288	4
NMTAP	7	336	2
NMSTR	8	0	1
NMSV_	8	0	1	96	48	4
NMSTR	8	0	7
NMSV_	8	0	7	96	48	4
BRTAP	8	96	1
BRTAP	8	96	7
NMTAP	8	192	3
NMTAP	8	240	5
NMSTR	8	288	4
NMSXR	8	288	4	96	144	7
NMTAP	9	0	3
NMTAP	9	192	0
NMTAP	9	240	0
NMTAP	9	288	0
NMTAP	9	288	7
NMTAP	10	0	6
NMTAP	10	24	4
NMTAP	10	72	3
NMTAP	10	72	4
NMTAP	10	120	1
NMTAP	10	120	3
NMTAP	10	168	0
NMTAP	10	168	7
NMTAP	10	216	1
NMTAP	10	240	3
NMTAP	10	288	5
NMTAP	10	312	4
NMTAP	10	336	6
NMTAP	11	0	6
NMTAP	11	0	7
NMHLD	11	48	6	48
NMHLD	11	48	7	48
NMHLD	11	120	2	48
NMHLD	11	120	3	48
NMHLD	11	192	0	48
NMHLD	11	192	1	48
NMSTR	11	264	4
BRSXR	11	264	4	96	144	7
NMTAP	11	264	5
BXTAP	11	336	7
NMTTP	12	240	0	C	1	M1
NMTTP	12	240	1	B	0	M1
NMTTP	12	240	2	B	0	M1
NMTTP	12	240	4	B	0	M1
NMTTP	12	240	5	B	0	M1
NMSTR	13	0	0
NMSUR	13	0	0	96	48	5
NMHLD	13	0	6	96
NMHLD	13	192	1	96
NMSTR	13	192	7
NMSUL	13	192	7	96	48	2
NMSTR	14	0	0
NMSUR	14	0	0	96	48	5
NMHLD	14	0	6	96
NMTAP	14	192	7
NMHLD	14	288	1	480
NMSTR	15	0	0
NMSV_	15	0	0	96	48	3
NMSTR	15	192	0
NMSV_	15	192	0	96	48	5
NMSTR	16	0	0
NMSV_	16	0	0	96	48	7
NMSTR	16	192	0
NMSCL	16	192	0	96	48	5
NMSCR	16	192	0	96	48	3
NMSTR	17	0	7
NMSCL	17	0	7	96	48	4
NMSCR	17	0	7	96	48	2
NMTAP	17	192	1
NMSTR	17	192	5
NMSI_	17	192	5	96	48	1
NMSTR	17	288	2
NMSI_	17	288	2	96	48	4
NMSTR	18	0	6
NMSI_	18	0	6	96	48	0
NMTAP	18	96	1
BRTAP	18	192	2
BRTAP	18	240	2
NMTAP	18	288	1
NMSTR	18	288	3
NMSI_	18	288	3	96	48	7
NMSTR	19	0	3
NMSXL	19	0	3	96	192	7
NMSXR	19	0	3	96	192	7
NMTAP	20	0	0
NMTAP	20	0	6
NMTAP	20	48	1
NMTAP	20	48	5
NMTAP	20	96	2
NMTAP	20	96	4
NMTAP	20	192	1
NMTAP	20	216	7
NMTAP	20	240	1
NMTAP	20	264	7
NMTAP	20	312	2
NMTAP	20	312	6
NMTAP	20	336	2
NMTAP	20	336	6
NMHLD	21	0	3	96
NMSTR	21	0	5
NMSCR	21	0	5	96	48	0
NMTAP	21	192	2
NMTAP	21	192	4
NMHLD	21	288	3	96
NMSTR	21	288	5
NMSSR	21	288	5	96	144	1
NMTAP	22	192	0
NMTAP	22	288	2
NMSTR	22	288	6
NMSXL	22	288	6	96	144	2
NMTAP	23	0	3
NMTAP	23	96	1
NMHLD	23	144	1	96
NMHLD	23	240	3	96
NMHLD	23	336	4	96
NMSTR	24	48	7
NMSUL	24	48	7	96	48	3
NMSV_	24	48	7	96	48	2
NMTAP	24	240	1
NMTAP	24	288	0
NMTAP	24	288	7
NMTAP	24	336	0
NMTAP	24	336	7
NMTAP	25	0	6
NMTAP	25	24	4
NMTAP	25	72	1
NMTAP	25	96	3
NMTAP	25	144	5
NMTAP	25	168	4
NMTAP	25	192	5
NMTAP	25	240	3
NMTAP	25	240	6
NMHLD	25	288	3	48
NMHLD	25	288	6	72
NMTAP	26	48	1
NMTAP	26	48	4
NMHLD	26	96	1	72
NMHLD	26	96	4	48
NMTAP	26	240	0
NMTAP	26	240	1
NMTAP	26	312	0
NMTAP	26	312	7
NMTAP	27	0	6
NMSTR	27	0	7
NMSI_	27	0	7	96	48	1
NMSI_	27	0	7	96	144	4
CNSV_	27	144	1	0	48	2
CNSI_	27	192	2	0	48	4
EXTAP	27	336	2
EXTAP	27	336	6
NMTAP	28	48	1
NMTAP	28	48	7
NMTAP	28	96	1
NMSTR	28	96	7
NMSI_	28	96	7	96	48	3
NMTAP	28	192	2
NMTAP	28	192	7
EXHLD	28	288	2	0
EXHLD	28	288	3	0
NMHLD	29	0	4	0
NMHLD	29	0	5	0
NMHLD	29	96	6	0
NMHLD	29	96	7	0
NMHLD	29	144	6	0
NMHLD	29	144	7	0
NMSTR	29	240	0
NMSLL	29	240	0	96	48	4
NMSLR	29	240	0	96	48	4
EXHLD	30	96	4	48
EXHLD	30	96	5	48
NMSTR	30	192	3
NMSCL	30	192	3	96	144	0
NMTAP	30	288	4
NMTAP	30	336	5
NMTAP	31	0	6
NMTAP	31	48	7
NMTAP	31	96	7
NMSTR	31	144	0
NMSCL	31	144	0	96	48	6
NMHLD	31	240	5	144
CNSI_	31	288	6	0	48	2
CNSCR	31	336	2	0	48	4
NMSTR	32	96	3
NMSI_	32	96	3	96	48	0
NMSTR	32	96	4
NMSI_	32	96	4	96	48	7
NMTAP	32	192	3
NMTAP	32	192	4
EXTAP	32	288	0
EXTAP	32	288	7
NMTAP	33	0	7
NMTAP	33	48	4
NMTAP	33	48	5
NMTAP	33	96	0
NMTAP	33	144	2
NMTAP	33	144	3
NMTAP	33	192	6
NMTAP	33	240	7
NMTAP	33	288	0
NMSTR	33	336	1
NMSI_	33	336	1	96	48	6
NMTAP	34	48	3
NMTAP	34	96	4
NMSTR	34	144	5
NMSI_	34	144	5	96	48	2
NMSTR	34	240	0
NMSCR	34	240	0	96	96	5
NMTAP	34	288	0
EXTAP	34	336	6
NMTAP	35	48	7
NMTAP	35	96	0
NMTAP	35	96	7
NMTAP	35	144	0
NMTAP	35	144	7
NMSTR	35	192	1
NMSI_	35	192	1	96	48	5
NMSTR	35	192	6
NMSI_	35	192	6	96	48	2
NMSTR	35	288	1
NMSCL	35	288	1	96	144	4
NMSTR	35	288	6
NMSCR	35	288	6	96	144	3
NMTAP	36	288	3
BRSTR	36	336	2
NMSI_	36	336	2	96	48	7
BRSTR	37	48	5
NMSI_	37	48	5	96	48	0
BRTAP	37	144	3
BRTAP	37	240	2
BRTAP	37	240	6
BRSTR	37	288	2
NMSCL	37	288	2	96	96	5
BRTAP	37	288	6
NMSTR	38	0	5
BRSCR	38	0	5	96	96	2
NMTAP	38	96	3
NMTAP	38	192	4
NMTAP	38	288	1
NMTAP	38	288	7
NMTAP	38	336	1
NMTAP	38	336	7
NMSTR	39	48	0
BRSI_	39	48	0	96	48	2
NMTAP	39	96	6
NMSTR	39	144	7
BRSI_	39	144	7	96	48	5
BXTAP	39	240	1
BXSTR	39	288	0
BRSI_	39	288	0	96	48	6
NMTAP	40	0	0
NMSTR	40	0	1
BRSI_	40	0	1	96	48	3
BRSI_	40	0	1	96	48	5
NMTAP	40	192	6
NMTAP	40	240	7
NMTAP	40	288	0
NMHLD	40	336	1	96
BRTAP	41	48	3
BRTAP	41	96	5
BRSTR	41	144	7
NMSLL	41	144	7	96	48	3
NMSTR	41	240	7
NMSLR	41	240	7	96	48	3
NMTAP	41	336	7
NMTAP	42	48	4
NMTAP	42	96	4
NMSTR	42	144	3
NMSXR	42	144	3	96	144	4
NMSTR	42	144	5
NMSXL	42	144	5	96	144	4
EXTAP	43	48	2
EXTAP	43	48	6
EXSTR	43	96	2
NMSLR	43	96	2	96	96	0
EXTAP	43	96	6
NMHLD	43	192	4	96
NMTAP	44	0	1
NMTAP	44	0	3
NMTAP	44	48	6
NMTAP	44	72	4
NMTAP	44	120	1
NMTAP	44	144	3
NMTAP	44	240	0
NMTAP	44	240	6
NMTAP	44	288	2
NMTAP	44	288	4
BRTAP	44	336	1
BRTAP	44	336	5
NMTAP	45	48	4
NMTAP	45	48	6
NMTAP	45	96	4
NMTAP	45	96	6
NMTAP	45	192	1
NMTAP	45	192	3
NMTAP	45	288	0
NMSTR	45	288	1
BRSI_	45	288	1	96	48	5
NMTAP	46	0	1
NMSTR	46	0	7
BRSI_	46	0	7	96	48	2
BRSI_	46	0	7	96	48	4
NMTAP	46	96	7
NMTAP	46	192	1
NMTAP	46	192	5
NMSTR	46	288	3
NMSLR	46	288	3	96	144	2
NMSTR	46	288	7
NMSLR	46	288	7	96	144	6
NMTAP	47	240	0
NMTAP	47	288	7
NMTAP	47	336	6
NMSTR	48	0	5
NMSCL	48	0	5	96	48	2
NMTAP	48	48	5
EXTAP	48	96	1
NMTAP	48	192	0
NMTAP	48	240	1
NMTAP	48	240	7
NMTAP	48	288	2
NMTAP	48	288	6
NMTAP	48	336	3
NMTAP	48	336	5
BXTAP	49	0	0
BXTAP	49	0	7
NMTAP	49	72	2
NMTAP	49	96	4
BRTAP	49	144	1
BRTAP	49	144	5
NMTAP	49	240	6
NMTAP	49	288	0
NMTAP	49	288	7
NMTAP	49	336	1
NMHLD	50	0	2	192
NMSTR	50	0	4
NMSI_	50	0	4	96	96	1
CNSI_	50	192	1	0	96	6
NMTAP	50	288	3
NMSTR	50	336	3
NMSCL	50	336	3	96	48	0
NMSV_	50	336	3	96	48	6
NMTAP	51	48	3
EXSTR	51	144	4
NMSCR	51	144	4	96	48	7
NMSV_	51	144	4	96	48	1
NMTAP	51	240	4
BRTAP	52	0	1
BRTAP	52	24	3
BRTAP	52	72	6
BRTAP	52	96	4
BRSTR	52	144	0
NMSCL	52	144	0	96	48	5
BRTAP	52	168	7
EXTAP	52	336	6
EXSTR	52	336	7
NMSCR	52	336	7	96	48	2
EXSTR	53	144	1
NMSI_	53	144	1	96	48	5
EXSTR	53	144	5
NMSI_	53	144	5	96	48	1
NMSTR	53	240	1
NMSI_	53	240	1	96	96	4
NMSTR	53	240	5
NMSI_	53	240	5	96	96	3
CNSI_	54	48	3	0	144	0
CNSI_	54	48	4	0	144	7
EXTAP	54	288	0
EXSTR	54	288	7
NMSI_	54	288	7	96	48	4
BRTAP	55	0	7
CNSXR	55	48	4	0	96	4
NMTAP	55	192	0
NMTAP	55	240	5
NMSTR	55	288	3
NMSI_	55	288	3	96	48	1
NMSTR	55	288	4
NMSI_	55	288	4	96	48	6
NMSTR	56	0	4
BRSV_	56	0	4	96	48	3
NMTAP	56	192	2
NMTAP	56	240	3
NMSTR	56	288	4
NMSXR	56	288	4	96	144	7
NMTAP	57	0	2
NMTTP	57	192	0	E	1	M1
NMTTP	57	240	6	E	1	M1
NMTTP	57	288	4	E	1	M1
NMTTP	57	336	2	E	1	M1
EXSTR	58	0	0
NMSV_	58	0	0	96	48	3
EXSTR	58	0	6
NMSV_	58	0	6	96	48	3
BRTAP	58	96	0
BRTAP	58	96	6
NMTAP	58	192	2
NMTAP	58	240	3
NMSTR	58	288	4
NMSXR	58	288	4	96	144	7
NMTAP	59	0	3
NMTAP	59	192	0
NMTAP	59	240	0
NMTAP	59	288	0
NMTAP	59	288	7
NMTAP	60	0	6
NMTAP	60	24	4
NMTAP	60	72	1
NMSTR	60	72	3
NMSI_	60	72	3	96	48	0
NMTAP	60	120	4
NMTAP	60	120	6
NMTAP	60	168	5
NMTAP	60	240	7
NMSTR	60	288	7
NMSI_	60	288	7	96	24	1
NMSI_	60	288	7	96	72	4
NMTAP	60	312	0
CNSV_	61	24	1	0	24	2
CNSI_	61	48	2	0	24	4

T_REC_TAP	195
T_REC_BRK	24
T_REC_XTP	17
T_REC_BXX	4
T_REC_HLD	29
T_REC_XHO	4
T_REC_BHO	0
T_REC_BXH	0
T_REC_STR	66
T_REC_BST	5
T_REC_XST	8
T_REC_XBS	1
T_REC_TTP	16
T_REC_THO	0
T_REC_SLD	80
T_REC_BSL	12
T_REC_ALL	461
T_NUM_TAP	302
T_NUM_BRK	46
T_NUM_HLD	33
T_NUM_SLD	80
T_NUM_ALL	461
T_JUDGE_TAP	336
T_JUDGE_HLD	59
T_JUDGE_SLD	92
T_JUDGE_ALL	487
TTM_EACHPAIRS	95
TTM_SCR_TAP	151000
TTM_SCR_BRK	119600
TTM_SCR_HLD	33000
TTM_SCR_SLD	120000
TTM_SCR_ALL	423600
TTM_SCR_S	406450
TTM_SCR_SS	419000
TTM_RAT_ACV	10109

